<?xml version="1.0" standalone="no"?>
<!DOCTYPE svg PUBLIC "-//W3C//DTD SVG 1.1//EN" "http://www.w3.org/Graphics/SVG/1.1/DTD/svg11.dtd" >
<svg xmlns="http://www.w3.org/2000/svg">
<metadata>
This is a custom SVG webfont generated by Font Squirrel.
Designer    : J Victor Gaultney
Foundry     : SIL Lakota Language Consortium 
Foundry URL : httpwwwsilorg
</metadata>
<defs>
<font id="webfonteqHwapQM" horiz-adv-x="961" >
<font-face units-per-em="2048" ascent="1638" descent="-410" />
<missing-glyph horiz-adv-x="451" />
<glyph unicode=" "  horiz-adv-x="451" />
<glyph unicode="&#x09;" horiz-adv-x="451" />
<glyph unicode="&#xa0;" horiz-adv-x="451" />
<glyph unicode="!" horiz-adv-x="557" d="M391 123q0 -35 -10.5 -64.5t-29 -51.5t-43.5 -34.5t-54 -12.5q-53 0 -76.5 29t-23.5 83q0 34 11 63.5t30 52t44 35.5t54 13q51 0 74.5 -29.5t23.5 -83.5zM326 389q-19 -14 -34 -22.5t-40 -16.5l-29 21l-47 1027q38 25 80 46.5t76 35.5l43 -25z" />
<glyph unicode="&#x22;" horiz-adv-x="870" d="M309 834q-8 -4 -19.5 -8t-24.5 -7t-26.5 -4.5t-25.5 -1.5l-53 613q11 6 32 14.5t43.5 16.5l42.5 14.5t31 8.5l43 -21zM668 834q-8 -4 -19.5 -8t-25 -7t-27 -4.5t-25.5 -1.5l-53 613q11 6 31.5 14.5t43.5 16.5l43.5 14.5t31.5 8.5l43 -21z" />
<glyph unicode="#" d="M399 590h189l73 256h-188zM806 961h151l25 -25q-5 -22 -14 -47.5t-17 -42.5h-178l-73 -256h151l22 -27q-5 -20 -12.5 -45.5t-15.5 -42.5h-178l-87 -305q-18 -14 -42 -24t-50 -19l-26 20l93 328h-189l-87 -305q-18 -14 -41 -24t-49 -19l-26 20l93 328h-147l-22 25 q5 20 13 45t17 45h172l73 256h-144l-25 24q5 22 14 46.5l17 44.5h171l83 290q22 16 44 24t44 17l29 -22l-89 -309h188l83 290q22 16 44.5 24l45.5 17l27 -22z" />
<glyph unicode="$" d="M225 958q0 -38 16 -66.5t44 -51.5t66 -41.5t81 -35.5v352q-58 -2 -97.5 -16.5t-64 -36.5t-35 -49.5t-10.5 -54.5zM727 324q0 47 -16 83t-44 63.5t-65.5 48.5t-79.5 39v-445q40 5 77 22.5t65.5 45t45.5 64t17 79.5zM522 -143q-9 -8 -15.5 -12.5t-13 -7.5t-14.5 -5.5 t-20 -5.5l-27 22v143q-5 0 -10 -0.5t-10 -0.5q-70 0 -144.5 24.5t-165.5 81.5q-7 5 -10.5 33.5t-3.5 65.5q0 38 3 77.5t11 67.5l43 -4q48 -103 122 -156.5t165 -65.5v479q-62 23 -121.5 48t-107 60.5t-76.5 85.5t-29 124q0 42 16.5 90.5t55.5 91t103 74.5t159 43v146 q14 8 20 12t11 6.5t11.5 4t21.5 5.5l26 -22v-148q46 -1 89.5 -7.5t81.5 -18.5t68 -28.5t50 -35.5q6 -7 -1.5 -25.5t-21.5 -40t-31 -42.5t-30 -33l-39 8q-40 46 -82 74t-84 40v-377q62 -24 123 -52t109 -68.5t78 -96t30 -134.5q0 -59 -19.5 -119t-61 -112t-106 -91 t-153.5 -55v-143v0z" />
<glyph unicode="%" horiz-adv-x="1413" d="M1194 289q0 70 -12.5 122t-33.5 86.5t-48 51t-56 16.5q-22 0 -43.5 -14.5t-38.5 -43.5t-27.5 -72.5t-10.5 -102.5q0 -72 11 -125t30.5 -87.5t46.5 -51.5t59 -17q25 0 47 15t39 45t27 74.5t10 103.5zM492 877q0 71 -12.5 123t-33.5 86t-48 50.5t-56 16.5 q-22 0 -43.5 -14.5t-39 -43.5t-28 -72.5t-10.5 -102.5q0 -72 11 -125t30.5 -87.5t47 -51.5t59.5 -17q24 0 46.5 15t39.5 45t27 74.5t10 103.5zM358 17q-9 -7 -26.5 -14.5t-37.5 -14l-39.5 -12.5t-31.5 -10l-24 35l856 1187q28 17 65 29t68 20l29 -33zM1337 309 q0 -69 -24 -130.5t-64 -108t-93.5 -73.5t-111.5 -27t-107 27t-84 73.5t-55 108t-20 130.5t24.5 130.5t65 107.5t93.5 72.5t110 26.5q60 0 109 -26.5t84 -72t54 -107t19 -131.5zM637 897q0 -69 -24 -130.5t-64.5 -108t-94 -73.5t-112.5 -27t-107.5 27t-84 73.5t-55 108 t-19.5 130.5t24 130.5t64.5 107t93.5 72.5t111 27q60 0 109 -26.5t84.5 -72.5t55 -107t19.5 -131z" />
<glyph unicode="&#x26;" horiz-adv-x="1366" d="M444 1130q0 -58 17 -121t46 -129q3 1 9 5q64 35 105.5 72t65.5 73.5t33 72t9 68.5q0 35 -9 66t-26.5 54.5t-44 37.5t-61.5 14q-36 0 -63 -18.5t-45 -48.5t-27 -68.5t-9 -77.5zM528 84q85 0 156 27t128 72l-103 112.5t-103.5 127t-97 137.5t-83.5 143q-51 -44 -86 -85 t-56.5 -81.5t-31 -81t-9.5 -82.5q0 -70 24 -124t64 -90.5t91.5 -55.5t106.5 -19zM1346 748q-25 -31 -49.5 -51.5t-49.5 -37.5q-18 9 -41 16t-46.5 12.5t-45.5 8.5t-39 4q11 -18 17.5 -33.5t10 -33.5t4.5 -39.5t1 -50.5q0 -71 -31 -150t-88 -154q69 -66 127 -112 q38 -32 82 -42.5t102 3.5l9 -43q-87 -38 -146.5 -56.5t-81.5 -18.5t-77 40t-127 109q-78 -66 -174 -107.5t-205 -41.5q-93 0 -170 24.5t-132 72.5t-85.5 119.5t-30.5 165.5q0 112 77 226.5t223 220.5q-29 71 -46 139.5t-17 134.5q0 81 27 150t72 119.5t103.5 79t121.5 28.5 q64 0 107.5 -20.5t70 -54.5t38 -78.5t11.5 -92.5q0 -105 -65.5 -196.5t-184.5 -165.5l-36 -23.5l-33 -22.5q35 -65 78.5 -130t92 -128t100 -122t102.5 -111q32 50 48.5 101t16.5 96q0 42 -14 79t-36.5 64.5t-51.5 43.5t-58 16l-22 28q11 13 32.5 28t41.5 23h444l23 -36v0z " />
<glyph unicode="'" horiz-adv-x="512" d="M309 834q-8 -4 -19.5 -8t-24.5 -7t-26.5 -4.5t-25.5 -1.5l-53 613q11 6 32 14.5t43.5 16.5l42.5 14.5t31 8.5l43 -21z" />
<glyph unicode="(" horiz-adv-x="649" d="M578 -315q-113 52 -198.5 145.5t-143 216.5t-86.5 270t-29 306q0 164 32.5 317t92.5 282t144.5 226.5t187.5 151.5l32 -45q-65 -54 -123 -142t-101.5 -204t-69 -257t-25.5 -301q0 -146 21 -284.5t62 -259t100 -217.5t136 -160z" />
<glyph unicode=")" horiz-adv-x="649" d="M530 664q0 -165 -33 -318.5t-93 -282.5t-144.5 -226.5t-187.5 -151.5l-31 45q64 54 122 142t102 204t69.5 257t25.5 302q0 145 -21 283.5t-61.5 259.5t-100 218t-136.5 159l31 45q113 -51 198.5 -144.5t143.5 -216.5t87 -269.5t29 -305.5z" />
<glyph unicode="*" horiz-adv-x="915" d="M489 1188l261 196l49.5 -32t44.5 -35l2 -41l-326 -141l301 -129q-2 -25 -3 -59t-9 -56l-37 -23l-282 211l38 -323l-24 -13.5t-27.5 -14l-28 -12t-24.5 -7.5l-39 18l42 352l-261 -196l-24.5 15.5l-26.5 17.5l-24.5 17.5t-18.5 16.5l-2 43l326 140l-302 129q1 12 1.5 27.5 t1.5 31.5t3 30.5t6 24.5l35 23l285 -212l-39 326l25 13l28.5 14t28.5 12.5t25 8.5l36 -21z" />
<glyph unicode="+" horiz-adv-x="840" d="M477 236q-20 -10 -44 -18t-46 -13l-25 22v279h-276l-25 24q5 20 13.5 44t17.5 44h270v273q19 6 44 15t47 14l24 -23v-279h277l24 -24q-5 -20 -13.5 -45.5t-16.5 -42.5h-271v-270v0z" />
<glyph unicode="," horiz-adv-x="469" d="M391 70q0 -39 -15.5 -88t-45 -100t-71 -99.5t-93.5 -87.5l-45 35q28 32 47.5 62t31.5 62t17.5 67.5t5.5 78.5q0 44 -27.5 70t-91.5 22l-16 47q9 12 38 27.5t63.5 30t68 24t51.5 8.5q48 -23 65 -62.5t17 -96.5z" />
<glyph unicode="-" horiz-adv-x="690" d="M629 545q-6 -22 -14.5 -47.5t-16.5 -42.5h-512l-25 24q5 22 13.5 46t17.5 44h512l25 -24v0z" />
<glyph unicode="." horiz-adv-x="469" d="M369 123q0 -35 -10.5 -64.5t-29 -51.5t-44 -34.5t-54.5 -12.5q-54 0 -77 29t-23 83q0 34 11 63.5t30 52t44.5 35.5t53.5 13q50 0 74.5 -29.5t24.5 -83.5z" />
<glyph unicode="/" d="M211 -284q-10 -7 -26 -14.5t-34 -14l-35.5 -12.5l-29.5 -10l-37 25l701 1861q27 17 60 29t62 20l37 -22z" />
<glyph unicode="0" d="M721 565q0 137 -21.5 241t-57.5 173.5t-83 105t-98 35.5t-92 -27.5t-69.5 -85t-44 -147.5t-15.5 -215q0 -137 20 -242t54.5 -175.5t82 -106.5t103.5 -36q52 0 93 27.5t69.5 86t43.5 149t15 217.5zM885 602q0 -129 -30.5 -244t-86 -201t-134 -136.5t-173.5 -50.5 t-167 50.5t-120.5 136.5t-73 201t-24.5 244t31 244t86.5 201.5t133.5 137t173 50.5t167 -50t120.5 -136t73 -201.5t24.5 -245.5z" />
<glyph unicode="1" d="M170 0v53q78 9 130 20.5t83 23.5t44 23.5t13 22.5v797q0 40 -3 62t-15 36q-6 6 -23 10t-48 3t-78 -7t-113 -20l-21 51q42 12 99.5 33t116.5 45.5t112 49t86 42.5l37 -35v-1067q0 -10 11 -21.5t39 -23.5t76.5 -24t123.5 -21v-53h-670z" />
<glyph unicode="2" d="M821 0h-694l-29 74l207.5 244l151.5 187.5t104 143t65 110t33 88t9 77.5q0 46 -11 85.5t-35 69t-62.5 46t-92.5 16.5q-41 0 -75 -19t-59 -49t-38.5 -67t-13.5 -72q-17 -9 -30.5 -17t-28 -14.5t-31 -11t-39.5 -6.5l-27 30q0 52 35 108.5t93 103.5t131.5 77.5t150.5 30.5 q60 0 112.5 -17t91 -51.5t60.5 -88t22 -126.5q0 -44 -12.5 -89.5t-40 -98t-71 -114.5t-105.5 -139.5l-143 -173.5l-183 -216h418q27 0 45.5 18.5t29.5 44t17 52.5t8 44.5t2 18.5l50 -12z" />
<glyph unicode="3" d="M825 381q0 -84 -27 -159t-80 -131t-131 -88.5t-181 -32.5q-39 0 -80 7t-83.5 24.5t-86 46t-88.5 71.5l34 67q45 -34 82.5 -56t71 -35t66.5 -18t71 -5q61 0 111 19t86 55t56 87t20 115q0 75 -23.5 127.5t-60.5 85.5t-82.5 47.5t-89.5 14.5h-21q-6 0 -11.5 -1t-13 -2 t-22.5 -4l-14 60q92 25 147 58t84.5 68.5t39 71t9.5 66.5q0 34 -10.5 70t-33 65t-56.5 47.5t-82 18.5q-40 0 -71.5 -13.5t-52.5 -36.5t-29.5 -53.5t-2.5 -64.5q-34 -17 -65 -26.5t-74 -12.5l-27 31q0 42 31 89.5t83 87.5t120.5 66.5t144.5 26.5q75 0 128.5 -24t88 -63.5 t50.5 -89t16 -100.5q0 -38 -14.5 -75t-42 -71t-66.5 -63t-88 -51q57 -7 106.5 -34.5t85.5 -70t57 -97t21 -115.5z" />
<glyph unicode="4" d="M586 1040l-373 -579h373v579zM874 430q-21 -32 -38.5 -47.5t-40.5 -32.5h-70v-246q0 -8 6 -14.5t22 -14t43 -15.5t68 -17v-43h-489v43q65 11 106 20.5t64.5 18t32 16.5t8.5 17v235h-498l-33 33l496 791q42 18 75 37t62 34l37 -35v-749h123l26 -31v0z" />
<glyph unicode="5" d="M836 410q0 -87 -26.5 -166.5t-77 -140.5t-124.5 -97t-168 -36q-93 0 -184 34t-178 115l35 67q53 -37 96.5 -59.5t80.5 -34.5t68 -16t60 -4q65 0 113.5 24.5t80.5 66t48 94.5t16 110q0 68 -16.5 124t-50 95.5t-85 61.5t-121.5 22q-21 0 -48 -5t-56.5 -15t-59 -25 t-55.5 -35l-47 33l14 83.5l16.5 100.5l17 108t15.5 107.5t12 99.5t7 82h436q57 0 89 9.5l32 9.5l29 -29q-11 -16 -25.5 -33.5t-29.5 -33.5t-29.5 -29.5t-26.5 -22.5h-387q-2 -29 -7 -74.5t-11.5 -93t-13.5 -89.5t-11 -64q40 12 94 19t105 7q91 0 160.5 -30.5t116.5 -81.5 t71.5 -118t24.5 -140z" />
<glyph unicode="6" d="M500 659q-51 0 -112.5 -28t-117.5 -95q0 -119 19.5 -205.5t55.5 -143t87 -84t113 -27.5q54 0 89.5 25t57 64.5t30.5 88t9 94.5q0 94 -22.5 154t-56.5 95t-74.5 48.5t-77.5 13.5zM881 412q0 -47 -10.5 -98t-32 -100t-53 -93t-73 -77.5t-93.5 -53.5t-113 -20 q-82 0 -154 36.5t-125.5 102.5t-84.5 158.5t-31 205.5q0 141 40.5 270.5t124 233.5t211 175.5t301.5 96.5l19 -59q-118 -27 -209.5 -81.5t-157 -126.5t-106 -157.5t-55.5 -174.5q35 34 71.5 57t71 37t65.5 20t54 6q81 0 144 -25t106.5 -71.5t66.5 -113t23 -148.5z" />
<glyph unicode="7" d="M885 1167l-93 -217.5l-91.5 -217.5l-85.5 -208l-75.5 -190l-62.5 -163t-45 -127q-35 -25 -73.5 -43t-88.5 -31l-41 33q87 153 156 292t128 269.5l112 256.5l108 254h-454q-15 0 -29 -1t-29 -13.5t-32.5 -42.5t-38.5 -88l-46 18q3 23 8 57.5t11 71.5l12 71t12 56h705 l33 -37v0z" />
<glyph unicode="8" d="M274 950q0 -44 21.5 -76.5t57.5 -58.5t82.5 -47.5l96.5 -43.5q74 53 105 106.5t31 107.5q0 52 -15.5 90.5t-44 63.5t-68.5 37t-89 12q-45 0 -78 -17t-55 -44.5t-33 -61.5t-11 -68zM707 309q0 66 -23.5 113t-61.5 81t-87 59t-101 48q-48 -35 -82 -68.5t-55.5 -68.5 t-32 -74t-10.5 -84q0 -52 17 -97t49 -78t77.5 -51.5t102.5 -18.5q55 0 94.5 21t64.5 55t36.5 76.5t11.5 86.5zM864 352q0 -78 -32.5 -147t-89 -121.5t-131.5 -83t-160 -30.5q-86 0 -152 26t-112 70t-69.5 100.5t-23.5 118.5q0 54 18.5 104.5t53 96t83 85.5t108.5 73 q-43 20 -81.5 44t-67.5 56t-46 73.5t-17 97.5q0 69 27.5 128t75.5 101.5t113.5 66.5t140.5 24t133.5 -20t98 -55t60.5 -84t21 -107q0 -42 -15 -79.5t-42 -72t-64.5 -66.5t-81.5 -63q49 -24 95 -53.5t80.5 -69.5t55.5 -92t21 -121z" />
<glyph unicode="9" d="M481 555q69 0 127.5 38t100.5 100q-2 126 -25.5 210t-58.5 134.5t-77.5 71.5t-82.5 21q-51 0 -91.5 -20.5t-68.5 -57t-42.5 -87t-14.5 -109.5q0 -92 22.5 -150.5t57 -92t75.5 -46t78 -12.5zM870 731q0 -152 -41 -282.5t-125 -231t-212 -168t-302 -92.5l-18 59 q133 33 229 87t160 125.5t98.5 159t44.5 188.5q-54 -60 -125.5 -96t-140.5 -36q-80 0 -142.5 27t-106 74t-66.5 111t-23 139q0 50 13.5 102.5t39 101.5t62 92t81.5 75t98 50.5t112 18.5q70 0 135.5 -29t116.5 -90.5t81.5 -156.5t30.5 -228z" />
<glyph unicode=":" horiz-adv-x="469" d="M369 123q0 -35 -10.5 -64.5t-29 -51.5t-44 -34.5t-54.5 -12.5q-54 0 -77 29t-23 83q0 34 11 63.5t30 52t44.5 35.5t53.5 13q50 0 74.5 -29.5t24.5 -83.5zM369 848q0 -35 -10.5 -64.5t-29 -51.5t-44 -34.5t-54.5 -12.5q-54 0 -77 29t-23 83q0 34 11 63.5t30 52t44.5 35.5 t53.5 13q50 0 74.5 -29.5t24.5 -83.5z" />
<glyph unicode=";" horiz-adv-x="469" d="M391 70q0 -39 -15.5 -88t-45 -100t-71 -99.5t-93.5 -87.5l-45 35q28 32 47.5 62t31.5 62t17.5 67.5t5.5 78.5q0 44 -27.5 70t-91.5 22l-16 47q9 12 38 27.5t63.5 30t68 24t51.5 8.5q48 -23 65 -62.5t17 -96.5zM369 848q0 -35 -10.5 -64.5t-29 -51.5t-44 -34.5 t-54.5 -12.5q-54 0 -77 29t-23 83q0 34 11 63.5t30 52t44.5 35.5t53.5 13q50 0 74.5 -29.5t24.5 -83.5z" />
<glyph unicode="&#x3c;" horiz-adv-x="899" d="M838 322l-19.5 -18t-18 -15.5l-20.5 -15.5t-26 -17l-668 250l-25 24q0 2 0.5 3t0.5 3l3 9q0 2 2 8q2 8 3 13q1 2 3 8q1 3 1.5 6.5t2.5 6.5q1 2 1 4t1 4q2 5 3 9.5t3 8.5q2 3 2.5 6t2.5 6l2 4l721 270l25 -25l-6.5 -24l-7.5 -27l-8 -27l-7 -22l-555 -206l567 -210l17 -36 v0z" />
<glyph unicode="=" horiz-adv-x="899" d="M838 743q-5 -20 -14 -45.5l-15 -42.5h-723l-25 25q5 20 13.5 44.5t17.5 43.5h721l25 -25v0zM838 444q-5 -21 -14 -46t-15 -44h-723l-25 27q5 20 13.5 44t17.5 44h721l25 -25v0z" />
<glyph unicode="&#x3e;" horiz-adv-x="899" d="M832 601q-2 -8 -4 -14q-1 -2 -1 -4t-1 -4q-2 -6 -4 -14q-4 -9 -5 -16q-1 -2 -2 -5t-2 -5q-2 -4 -3 -8t-3 -7l-721 -268l-25 25l7 23l8 27t8 26.5t8 21.5l551 206l-565 210l-17 39l44.5 34t39.5 31l670 -250l23 -24z" />
<glyph unicode="?" horiz-adv-x="887" d="M539 123q0 -35 -10.5 -64.5t-29 -51.5t-44 -34.5t-54.5 -12.5q-54 0 -77 29t-23 83q0 34 11 63.5t30 52t44.5 35.5t53.5 13q50 0 74.5 -29.5t24.5 -83.5zM807 1165q0 -75 -23.5 -135t-59.5 -112t-78.5 -99.5t-80 -98t-64.5 -107.5t-32 -128l-6 -96q-19 -14 -33.5 -23.5 t-42.5 -17.5l-25 21l-8 116q-3 57 17 113.5t52 111t70 108t71 104.5t55 100.5t22 97.5q0 124 -56 194t-161 70q-36 0 -68.5 -16.5t-57.5 -43.5t-39.5 -63t-14.5 -75q0 -14 3.5 -29t8.5 -29q-32 -17 -67 -25t-80 -13l-27 30q-2 8 -2 16v17q0 70 34.5 130t93 104t134.5 68.5 t160 24.5q73 0 130 -23t96 -64.5t59 -99.5t20 -128z" />
<glyph unicode="@" horiz-adv-x="1653" d="M1014 731q-14 28 -29 50t-33 38t-41 24.5t-53 8.5q-55 0 -100.5 -24t-78.5 -71t-51 -117.5t-18 -164.5q0 -85 20.5 -154t52 -117.5t69.5 -75t73 -26.5q19 0 37 6.5t39 23t48 45t65 73.5v481zM1583 549q0 -86 -20 -163t-53 -141t-76.5 -115t-90.5 -86.5t-95.5 -54.5 t-90.5 -19q-24 0 -46 10.5t-40 33.5t-31 59.5t-20 88.5q-41 -57 -72.5 -94t-61.5 -59t-61 -30.5t-71 -8.5q-51 0 -103.5 32.5t-95 93.5t-69.5 149t-27 199q0 57 14 118t40 118t63.5 108t85.5 89.5t105 60.5t122 22q23 0 42 -3.5t37.5 -13.5t39.5 -28t47 -47q26 16 53 38.5 t55 53.5l31 -30l-5 -16.5t-10.5 -45t-10.5 -66t-5 -79.5v-438q0 -90 30.5 -133t78.5 -43q25 0 58 31.5t63 86t50.5 128t20.5 157.5q0 168 -43 299t-120 220.5t-183 136t-233 46.5q-102 0 -191 -26t-163 -72.5t-132 -111t-98 -141t-61 -163t-21 -176.5q0 -181 56 -325.5 t150.5 -245.5t218 -155t259.5 -54q84 0 164.5 17.5t149.5 44t122.5 56.5t83.5 56l27 -55q-36 -38 -93.5 -80t-133 -77t-168.5 -58t-201 -23q-172 0 -316 59t-248 168.5t-162 265t-58 347.5q0 113 30.5 221.5t86.5 205t134 177.5t173 139.5t204 91.5t226 33 q149 0 270.5 -50.5t208 -149.5t133.5 -245.5t47 -338.5z" />
<glyph unicode="A" horiz-adv-x="1219" d="M411 535h347l-176 514zM776 0v43q78 5 109 20.5t18 47.5l-114 333h-408l-111 -333q-9 -31 27.5 -45t118.5 -23v-43h-416v43q68 12 107.5 25.5t50.5 42.5l372 1126q23 25 57 45.5t60 34.5l420 -1206q9 -28 37.5 -44.5t93.5 -23.5v-43h-422z" />
<glyph unicode="B" horiz-adv-x="1126" d="M413 1206q-14 0 -28.5 -0.5t-29.5 -1.5v-479h34q114 0 184.5 22.5t109.5 57.5t52.5 79t13.5 87q0 50 -16 93t-55 74.5t-103.5 49.5t-161.5 18zM520 649q-48 0 -88.5 -4t-76.5 -10v-531q0 -8 9 -15q17 -6 39 -9.5t45 -5.5t46 -3t43 -1q72 0 130 18.5t99.5 51.5t63.5 79.5 t22 102.5q0 55 -19.5 113t-60 105.5t-103 78t-149.5 30.5zM1016 356q0 -85 -33.5 -153.5t-94 -116.5t-144.5 -74t-185 -26q-29 0 -73 1t-92 2.5t-96.5 3.5l-87.5 3.5t-63 2.5l-24 1h-73v43q68 14 106.5 30.5t38.5 30.5v1086q-38 -5 -74.5 -10.5t-70.5 -11.5l-9 62 q39 11 90.5 21.5t108.5 19t116 14t113 5.5q100 0 181 -18.5t137.5 -53.5t87 -85t30.5 -113q0 -108 -51 -185.5t-139 -111.5q64 -12 119 -45t95.5 -81.5t63.5 -110t23 -130.5z" />
<glyph unicode="C" horiz-adv-x="1098" d="M1018 211q-64 -68 -122.5 -114.5t-113 -74.5t-107 -40t-104.5 -12q-93 0 -182.5 42t-160.5 121t-114.5 193.5t-43.5 259.5q0 160 48.5 290t131.5 222t193 142t233 50q108 0 189.5 -29t133.5 -71q6 -5 -3 -20t-24.5 -34t-33 -38l-29.5 -31l-35 6q-51 47 -121 77t-161 30 q-34 0 -74.5 -12.5t-81.5 -39.5t-79 -70.5t-67.5 -105.5t-47 -143.5t-17.5 -185.5q0 -133 38.5 -233t99 -166.5t135 -100t145.5 -33.5q54 0 141 37t197 129q5 -2 10.5 -8.5t10.5 -13.5t9 -13.5t7 -9.5z" />
<glyph unicode="D" horiz-adv-x="1214" d="M453 1206q-50 0 -98 -3v-1049q0 -22 10 -36q14 -17 54 -25.5t118 -8.5q69 0 142.5 33.5t134 102t99.5 172.5t39 245q0 133 -33 238.5t-96.5 179t-156.5 112.5t-213 39zM1124 676q0 -125 -25.5 -223.5t-68.5 -174t-100 -128t-119.5 -86t-127.5 -49t-124 -15.5h-509v43 q68 14 106.5 30.5t38.5 30.5v1084q-40 -5 -76 -10l-69 -10l-9 62q44 12 101.5 23t121.5 19.5t129.5 13t124.5 4.5q139 0 251 -41.5t191 -120.5t121.5 -193t42.5 -259z" />
<glyph unicode="E" horiz-adv-x="1016" d="M954 244q-8 -86 -20.5 -150.5t-20.5 -93.5h-863v43q68 14 106.5 30.5t38.5 30.5v1051q0 12 -36.5 30t-108.5 32v43h806l33 -25q-2 -26 -6 -57t-10 -62t-12.5 -59t-12.5 -47h-45q-2 46 -8.5 77t-16.5 49.5t-24.5 26t-32.5 7.5h-366v-435h405l26 -28q-8 -14 -19.5 -29.5 t-24 -30t-25 -27t-23.5 -20.5q-15 15 -32.5 25t-40 17t-53 10t-72.5 3h-141v-501q0 -15 7 -26.5t29 -20t62 -13t106 -4.5h129q46 0 78.5 5t57.5 22.5t45.5 51.5t41.5 93l43 -18v0z" />
<glyph unicode="F" horiz-adv-x="979" d="M50 0v43q68 14 106.5 30.5t38.5 30.5v1051q0 12 -36.5 30t-108.5 32v43h816l31 -25q-1 -26 -5 -57t-9.5 -62t-12 -59t-12.5 -47h-47q-2 46 -7.5 77t-16 49.5t-25 26t-33.5 7.5h-374v-435h374l29 -28q-9 -14 -21 -29.5t-25 -30t-25.5 -27t-22.5 -20.5q-15 15 -32 25 t-39.5 17t-53 10t-72.5 3h-112v-551q0 -12 38.5 -27t136.5 -34v-43h-480z" />
<glyph unicode="G" horiz-adv-x="1194" d="M1042 1188q7 -5 -2 -19.5t-25.5 -32.5t-36 -35.5l-32.5 -29.5l-33 6q-33 31 -68 51.5t-73.5 31.5t-81.5 15.5t-92 4.5q-25 0 -62.5 -11.5t-79 -37t-83.5 -67t-75 -102t-54 -141t-21 -184.5q0 -139 37.5 -242t97.5 -170.5t135.5 -101t151.5 -33.5q73 0 134.5 14.5 t110.5 41.5v339q0 11 -9.5 21.5t-33 20.5t-63 20t-100.5 20v43h461v-43q-57 -14 -81 -36.5t-24 -45.5v-325l-1 -1t-3 -2q2 -1 4 -3q-74 -61 -132.5 -97t-107.5 -55.5t-93 -25.5t-89 -6q-101 0 -199 37.5t-175.5 114t-125.5 191t-48 269.5q0 166 52.5 297.5t143.5 223 t212.5 139.5t258.5 48q33 0 72.5 -7t80.5 -20t80.5 -32t71.5 -43z" />
<glyph unicode="H" horiz-adv-x="1339" d="M50 0v43q68 14 106.5 30.5t38.5 30.5v1051q0 12 -36.5 30t-108.5 32v43h450v-43q-68 -14 -106.5 -31t-38.5 -31v-450h610v450q0 12 -36.5 30t-108.5 32v43h450v-43q-68 -14 -106.5 -31t-38.5 -31v-1051q0 -12 36.5 -29.5t108.5 -31.5v-43h-450v43q68 14 106.5 30.5 t38.5 30.5v511h-610v-511q0 -12 36 -29.5t109 -31.5v-43h-450z" />
<glyph unicode="I" horiz-adv-x="610" d="M70 0v43q68 14 106.5 30.5t38.5 30.5v1051q0 12 -36.5 30t-108.5 32v43h450v-43q-68 -14 -106.5 -31t-38.5 -31v-1051q0 -12 36.5 -29.5t108.5 -31.5v-43h-450z" />
<glyph unicode="J" horiz-adv-x="625" d="M555 1217q-68 -14 -106.5 -31t-38.5 -31v-950q0 -119 -16.5 -198.5t-44 -134.5t-63.5 -91.5t-75 -68.5q-27 -21 -60 -38t-65.5 -29t-62 -18.5t-48.5 -6.5q-30 0 -60 9.5t-53 22t-37.5 26t-14.5 22.5q0 8 13 23t31 30t38 28.5t34 18.5q28 -18 49 -29.5t39 -17.5t34.5 -8 t35.5 -2q26 0 55.5 17t54 60.5t40.5 119.5t16 193v1022q0 6 -8 13t-29.5 15t-59.5 16.5t-98 17.5v43h500v-43v0z" />
<glyph unicode="K" horiz-adv-x="1184" d="M1174 37q-59 -19 -118.5 -35t-107.5 -16q-29 0 -51.5 9t-42.5 34l-497 614l407 485q23 27 29 43t-4 25t-35 13.5t-64 7.5v43h420v-43q-32 -4 -57 -8t-45 -10.5t-36.5 -16.5t-31.5 -27l-434 -484l479 -544q18 -20 38.5 -31t44 -15.5t48.5 -4t51 3.5l7 -43v0zM50 0v43 q68 14 106.5 30.5t38.5 30.5v1051q0 12 -36.5 30t-108.5 32v43h450v-43q-68 -14 -106.5 -31t-38.5 -31v-1051q0 -12 36 -29.5t109 -31.5v-43h-450z" />
<glyph unicode="L" horiz-adv-x="975" d="M944 244q-8 -87 -20.5 -151t-20.5 -93h-853v43q68 14 106.5 30.5t38.5 30.5v1051q0 12 -36.5 30t-108.5 32v43h450v-43q-68 -14 -106.5 -31t-38.5 -31v-991q0 -18 8.5 -31.5t29.5 -23t57 -14.5t91 -5h143q46 0 77.5 5t55.5 22.5t43.5 51.5t40.5 93l43 -18v0z" />
<glyph unicode="M" horiz-adv-x="1651" d="M1550 1217q-29 0 -64 -9t-71 -26l10 -1078q0 -12 36.5 -29.5t108.5 -31.5v-43h-453v43q68 14 111.5 30.5t43.5 30.5l-9 943q-1 -3 -3 -7l-437 -1040h-49l-448 1039l-9 -935q0 -12 36.5 -29.5t108.5 -31.5v-43h-402v43q69 14 107 30.5t38 30.5l10 1073q-38 23 -76.5 31.5 t-68.5 8.5v43h286q10 0 16.5 -3t13 -12t14.5 -25.5t20 -43.5l398 -902l382 902q13 30 21 46.5t14.5 25t13 10.5t15.5 2h286v-43v0z" />
<glyph unicode="N" horiz-adv-x="1329" d="M50 0v43q74 9 109.5 28t35.5 33v1045q-34 31 -70 46t-75 22v43h212q15 0 24.5 -2.5t19 -10.5t21.5 -23.5l31 -41.5l657 -906v879q0 12 -32.5 31.5t-112.5 30.5v43h410v-43q-72 -10 -108.5 -29t-36.5 -33v-1185q-50 6 -78.5 20t-40.5 31l-701 972v-889q0 -12 33.5 -31 t111.5 -30v-43h-410z" />
<glyph unicode="O" horiz-adv-x="1229" d="M983 629q0 69 -12.5 136.5t-35.5 128t-56.5 112.5t-75.5 89.5t-92 59t-107 21.5q-89 0 -159.5 -38t-119 -107.5t-74.5 -168.5t-26 -221q0 -112 30.5 -212t82 -175.5t120.5 -119.5t146 -44q83 0 152.5 34.5t120 102.5t78.5 169t28 233zM1138 647q0 -136 -45 -258.5 t-122.5 -215.5t-179.5 -148t-216 -55q-120 0 -214 53t-158.5 142t-98.5 205t-34 242q0 136 44 259t120 216t178.5 148t220.5 55q124 0 218 -54.5t158 -144.5t96.5 -206t32.5 -238z" />
<glyph unicode="P" horiz-adv-x="1071" d="M50 0v43q68 14 106.5 30.5t38.5 30.5v1086q-37 -5 -73.5 -10.5t-71.5 -11.5l-9 62q48 13 104.5 24t117.5 19t123.5 12.5t123.5 4.5q108 0 195 -23t148.5 -68t95 -111t33.5 -152q0 -69 -19.5 -126t-52 -101.5t-74.5 -77t-87.5 -54t-91 -32t-84.5 -10.5q-94 0 -161 30 l-23 76q42 -19 80.5 -24.5t73.5 -5.5q46 0 96 18t92 53.5t69 88.5t27 124q0 82 -29.5 141t-80.5 96.5t-119 55.5t-145 18q-25 0 -49.5 -0.5t-48.5 -1.5v-1100q0 -6 8 -13t27.5 -15t53.5 -16t86 -17v-43h-480z" />
<glyph unicode="Q" horiz-adv-x="1229" d="M983 629q0 69 -12.5 136.5t-35.5 128t-56.5 112.5t-75.5 89.5t-92 59t-107 21.5q-89 0 -159.5 -38t-119 -107.5t-74.5 -168.5t-26 -221q0 -112 30.5 -212t82 -175.5t120.5 -119.5t146 -44q83 0 152.5 34.5t120 102.5t78.5 169t28 233zM1282 -117q-24 -44 -49 -78.5 t-49 -59t-45.5 -37.5t-36.5 -13q-62 0 -122.5 30.5t-120.5 74l-119.5 91t-119.5 82.5q-23 -3 -45 -3q-110 0 -203 51t-160 138t-104.5 204t-37.5 249q0 136 44 259t120 216t178.5 148t220.5 55q124 0 218 -54.5t158 -144.5t96.5 -206t32.5 -238q0 -106 -28 -205t-78 -182.5 t-118.5 -147.5t-148.5 -100q46 -24 91.5 -54t89 -56t84.5 -44t78 -18q12 0 25.5 4t30.5 13t39 24l52 37l27 -35v0z" />
<glyph unicode="R" horiz-adv-x="1149" d="M432 1206q-38 0 -77 -3v-512q27 -5 47 -6t42 -1q166 0 257 69.5t91 202.5q0 55 -21.5 101t-65.5 79t-112 51.5t-161 18.5zM50 0v43q68 14 106.5 30.5t38.5 30.5v1085l-71.5 -10.5t-73.5 -10.5l-9 62q47 12 95 22.5t100 19t109.5 13.5t123.5 5q120 0 209.5 -23t149 -64 t89 -96.5t29.5 -119.5q0 -77 -24.5 -138.5t-68.5 -108.5t-104 -78.5t-132 -47.5l331 -475q15 -21 32.5 -34t39 -19.5t48 -7.5t60.5 2l11 -43q-66 -22 -125.5 -36.5t-98.5 -14.5q-29 0 -56.5 16.5t-41.5 38.5l-340 557h-16q-26 0 -52 2.5t-54 8.5v-505q0 -12 36 -29.5 t109 -31.5v-43h-450z" />
<glyph unicode="S" horiz-adv-x="975" d="M885 377q0 -45 -12 -92t-36.5 -92.5t-61 -86t-86 -70.5t-112 -48t-137.5 -18q-33 0 -72 7t-80 19.5t-81.5 30.5t-75.5 41q-7 4 -10.5 34t-3.5 70q0 41 3 83t11 69l41 -5q23 -59 57.5 -102t76.5 -71.5t90.5 -42t99.5 -13.5q45 0 90.5 18.5t82.5 50.5t60 74.5t23 90.5 q0 61 -27 105t-71 78t-100 61l-114.5 54t-114.5 57t-100 70t-71 92.5t-27 125.5q0 31 9 67t29 72t51.5 69.5t76 59t102.5 40.5t131 15q45 0 90.5 -7t85 -19t71.5 -29t50 -37q7 -6 0.5 -23.5t-20 -38t-30 -40.5t-28.5 -31l-36 6q-28 33 -58.5 55t-62 35.5t-62.5 19t-59 5.5 q-56 0 -96 -16t-66 -41.5t-38.5 -56t-12.5 -58.5q0 -47 27 -83.5t71.5 -67t101 -57.5l116 -56.5t116 -63.5t101 -78t71.5 -100.5t27 -130.5z" />
<glyph unicode="T" horiz-adv-x="1128" d="M307 0v43q46 9 77.5 19t50.5 19.5t27.5 18t8.5 15.5v1055h-299q-15 0 -27.5 -5.5t-25 -23.5t-28.5 -53t-38 -93l-43 19q5 59 13.5 126t19.5 120h1010l30 -25q-2 -51 -10 -111.5t-20 -123.5h-45l-16.5 74t-17 53.5t-23.5 32t-36 10.5h-284v-1055q0 -13 36 -33t128 -39v-43 h-488z" />
<glyph unicode="U" horiz-adv-x="1339" d="M1275 1217q-68 -14 -106.5 -31t-38.5 -31v-631q0 -131 -32 -234t-92 -174t-146 -108.5t-194 -37.5q-103 0 -189.5 28.5t-149 87t-97.5 147.5t-35 211v711q0 12 -36.5 30t-108.5 32v43h450v-43q-68 -14 -106.5 -31t-38.5 -31v-661q0 -96 22.5 -172t67 -129t109.5 -81 t151 -28q71 0 126 34.5t92.5 90.5t57 128t19.5 146v672q0 12 -36.5 30t-108.5 32v43h420v-43v0z" />
<glyph unicode="V" horiz-adv-x="1331" d="M1290 1217q-68 -13 -107 -25.5t-48 -40.5l-383 -1092q-8 -22 -27.5 -37.5t-42.5 -26t-45 -16.5t-35 -9l-440 1181q-17 50 -142 66v43h435v-43q-78 -5 -109 -20t-18 -46l352 -948l336 948q11 29 -24.5 42.5t-117.5 23.5v43h416v-43v0z" />
<glyph unicode="W" horiz-adv-x="1741" d="M1702 1217l-57 -13t-46 -13t-33 -15.5t-16 -20.5l-229 -1096q-5 -22 -22.5 -37.5t-39 -26t-43 -16.5t-34.5 -9l-326 974l-287 -885q-7 -23 -26.5 -38.5t-42.5 -26t-46 -16l-36 -8.5l-260 1177q-6 25 -36.5 41t-101.5 29v43h429v-43q-49 -5 -77 -12.5t-42 -16.5 t-16.5 -19.5t-0.5 -21.5l199 -897l324 1010h55l354 -1010l187 905q2 12 -9 21t-32 16t-50 13t-63 12v43h424v-43v0z" />
<glyph unicode="X" horiz-adv-x="1260" d="M778 0v43q44 4 71 10.5t39 16t10.5 23.5t-15.5 34l-279 408l-252 -408q-28 -44 4.5 -61t124.5 -23v-43h-450v43q65 5 111 23.5t71 60.5l317 517l-333 489q-15 22 -29 36t-31.5 23t-40 14.5t-55.5 10.5v43h451v-43q-85 -8 -110.5 -24t3.5 -60l247 -363l226 363 q14 23 12 37.5t-19 24t-48 14.5t-76 8v43h453v-43q-36 -4 -64.5 -9.5t-50.5 -15t-38.5 -24t-29.5 -35.5l-291 -471l365 -535q15 -21 30.5 -35.5t34 -24t41.5 -15t52 -9.5v-43h-451z" />
<glyph unicode="Y" horiz-adv-x="1217" d="M360 0v43q91 19 127.5 38.5t36.5 33.5v422q-37 81 -84 169t-96 171l-95 154.5t-81 119.5q-9 11 -20.5 21t-29.5 17.5t-45 12t-69 4.5l-4 43q59 8 118 14.5t101 6.5q46 0 78 -39q37 -48 80 -113.5t86 -138.5t84 -150l76 -149l268 471q15 26 -9.5 41t-101.5 25v43h396v-43 q-69 -13 -105.5 -26.5t-50.5 -39.5l-336 -610v-426q0 -6 8.5 -14.5t28 -18.5t51 -20t78.5 -19v-43h-490z" />
<glyph unicode="Z" horiz-adv-x="1071" d="M991 293q-2 -32 -3.5 -71l-3 -78.5l-3 -77t-2.5 -66.5h-891l-29 45l711 1115h-459q-16 0 -35 -11t-37 -35t-34 -61.5t-27 -89.5l-57 12l29 301q27 -6 49.5 -9.5t44 -5t44.5 -1.5h52h616l25 -43l-705 -1117h523q21 0 38 9.5t32.5 32.5t31.5 63t35 102l55 -14v0z" />
<glyph unicode="[" horiz-adv-x="631" d="M590 -249q-5 -20 -13 -44.5t-16 -41.5h-422v1935h416l33 -26q-5 -25 -13 -49.5t-14 -36.5h-280v-1708h274l35 -29v0z" />
<glyph unicode="\" d="M870 -335q-12 4 -28 10l-32 12.5t-30.5 14t-23.5 14.5l-701 1862l37 22q58 -15 113 -49l700 -1861z" />
<glyph unicode="]" horiz-adv-x="631" d="M76 -335l-33 29q3 23 10.5 48t14.5 38h282v1708h-274l-35 26q3 22 11.5 45.5t15.5 40.5h421v-1935h-413z" />
<glyph unicode="^" horiz-adv-x="1008" d="M907 635q-25 -23 -48.5 -38.5t-57.5 -31.5l-37 27l-283 723l-250 -680q-11 -10 -25 -20.5t-29 -20t-29.5 -17l-24.5 -12.5l-23 27l322 870q12 12 29.5 24.5l35.5 24.5t36 22t32 17l352 -915v0z" />
<glyph unicode="_" d="M897 -156q-5 -21 -13 -46t-16 -44h-782l-25 27q5 20 13.5 44t17.5 44h782l23 -25v0z" />
<glyph unicode="`" horiz-adv-x="653" d="M438 1078q-9 -8 -24 -17t-32 -14l-352 377l22 41q10 2 29.5 5.5l41 7.5t42.5 7t33 4l240 -411v0z" />
<glyph unicode="a" horiz-adv-x="940" d="M352 100q60 0 127.5 30.5t143.5 96.5v261l-119 -23q-68 -12 -117.5 -35t-81.5 -54t-47 -68.5t-15 -78.5q0 -40 12 -65t29.5 -39.5t36 -19.5t31.5 -5zM926 82q-85 -59 -140.5 -85.5t-83.5 -26.5q-33 0 -55 46t-24 127q-45 -45 -90 -78t-88 -54t-81.5 -31t-70.5 -10 q-36 0 -74 12t-68.5 38t-50.5 67t-20 99q0 59 21.5 112.5t64 97.5t105.5 76.5t147 49.5l205 41v139q0 34 -8 63.5t-27 51t-51.5 33t-81.5 10.5q-32 -1 -63 -11t-54 -28t-36 -42.5t-10 -54.5q1 -9 -20.5 -20.5t-51 -20.5t-58 -14t-40.5 -2l-14 39q23 50 70 96t107.5 81 t128 56t130.5 21q110 0 169.5 -57.5t59.5 -160.5v-564q0 -42 11 -60t29 -18q14 0 36 5t62 22l15 -45v0z" />
<glyph unicode="b" horiz-adv-x="1040" d="M816 408q0 100 -21 177.5t-55.5 130.5t-79.5 81t-93 28q-18 0 -47.5 -10.5t-66.5 -35t-79 -66t-84 -103.5v-407q40 -30 81.5 -50t79 -31.5t68 -16.5t48.5 -5q61 0 107.5 26.5t78 70t47.5 98.5t16 113zM949 492q0 -58 -15 -119t-44 -119t-70.5 -110t-95 -90.5t-117.5 -61 t-138 -22.5q-19 0 -52.5 8.5t-77 24.5t-94.5 39.5t-105 53.5v1200q0 46 -5 71t-19 37.5t-39.5 16.5t-66.5 9v40q66 16 126 32.5t117 47.5l14 -13.5t15.5 -14t7.5 -6.5v-789q50 60 99.5 104t95 72.5t84.5 42.5t68 14q68 0 125.5 -32t99 -92.5t64.5 -147.5t23 -196z" />
<glyph unicode="c" horiz-adv-x="895" d="M840 190q-65 -77 -114.5 -120.5t-91.5 -66t-82 -28t-87 -5.5q-73 0 -142.5 32.5t-123.5 93.5t-86.5 149t-32.5 199q0 108 39.5 202t108 163.5t161.5 110t201 40.5q33 0 67.5 -5.5t66 -16t58 -25t43.5 -32.5q2 -12 -3 -34t-14 -46.5t-20 -47t-20 -36.5l-37 10 q-8 18 -26 39t-46.5 40t-68 31.5t-90.5 12.5q-53 0 -101.5 -23.5t-86 -70.5t-60 -117t-22.5 -164q0 -85 25.5 -154t68 -117.5t98 -75t115.5 -26.5q28 0 52 2.5t52.5 14.5t66 38t93.5 74l39 -41v0z" />
<glyph unicode="d" horiz-adv-x="1065" d="M745 272v458q-33 57 -93 88.5t-132 31.5q-64 0 -117 -23.5t-91.5 -70.5t-60 -117t-21.5 -164q0 -85 24.5 -154t62.5 -117.5t83.5 -75t86.5 -26.5q34 0 67 13.5t65.5 36t63.5 51l62 58.5v11zM1051 84q-46 -31 -81.5 -52.5t-62 -35t-45.5 -20t-33 -6.5q-33 0 -54 45 t-28 154q-38 -46 -75.5 -83t-77 -62.5t-83.5 -39.5t-95 -14q-56 0 -115 32.5t-108.5 93.5t-81 149t-31.5 199q0 57 15.5 118t44.5 118t71 108t94 89.5t114 60.5t132 22q47 0 93.5 -11.5t100.5 -51.5v377q0 55 -3 87.5t-17 50t-43 24t-82 10.5v39q82 11 147 29.5t117 35.5 l31 -30v-1266q0 -35 1.5 -60t4.5 -42t7 -28t10 -18q9 -11 34.5 -6.5t85.5 27.5l13 -43v0z" />
<glyph unicode="e" horiz-adv-x="946" d="M496 856q-51 0 -94 -20t-76.5 -56t-56 -87t-32.5 -113h427q23 0 30.5 7.5t7.5 28.5q0 18 -3 43t-11.5 51.5t-23 52.5t-37.5 46.5t-55.5 33.5t-75.5 13zM866 557q-18 -20 -48 -37t-62 -30h-526v-3q0 -75 20.5 -144.5t58.5 -123t93 -85.5t124 -32q31 0 60.5 3.5t63.5 17 t75.5 40.5t97.5 73q13 -7 22.5 -20t14.5 -21q-67 -73 -117.5 -117.5t-95 -68.5t-88 -31.5t-94.5 -7.5q-77 0 -146.5 33t-122.5 93.5t-84.5 146t-31.5 191.5q0 67 15 132t43.5 123t69.5 107t93 85q22 15 49.5 29.5t57.5 25.5t59.5 17.5t56.5 6.5q66 0 116.5 -18t88.5 -48.5 t64 -71t42.5 -85.5t23.5 -91.5t7 -88.5z" />
<glyph unicode="f" horiz-adv-x="637" d="M817 1454q0 -8 -14.5 -24t-34.5 -33t-41.5 -32t-36.5 -22q-24 21 -48.5 36.5t-47 26t-42 16t-32.5 5.5q-26 0 -55.5 -18t-55 -64t-42.5 -125.5t-17 -203.5v-86h258l29 -29q-9 -14 -22.5 -29.5l-27 -30t-26.5 -25.5t-22 -15q-23 12 -66 23.5t-123 11.5v-734q0 -6 10.5 -12 t35.5 -12.5t64.5 -15t98.5 -19.5v-43h-499v43q69 12 104.5 29.5t35.5 29.5v734h-134l-21 28l78 66h77v31q0 118 16 198.5t43.5 136t63.5 93t76 69.5q27 22 59 39t63.5 29t60 18t47.5 6q31 0 64 -12t60.5 -27.5t45.5 -31.5t18 -25z" />
<glyph unicode="g" horiz-adv-x="999" d="M690 600q0 53 -17.5 100t-52 82t-86 55.5t-118.5 20.5q-25 0 -55.5 -12.5t-57.5 -37.5t-45 -62.5t-18 -86.5q0 -53 16.5 -100.5t50 -83t85 -56t122.5 -20.5q29 0 60.5 13t57 38t42 62.5t16.5 87.5zM518 -4q-38 4 -70 9t-60 11q-72 -39 -113.5 -70t-62.5 -55.5 t-26.5 -44.5t-5.5 -36q0 -42 28 -79.5t75 -65.5t109 -44.5t130 -16.5q67 0 122 18t94 50t60.5 75.5t21.5 95.5q0 28 -13 51.5t-47 42.5t-92.5 34t-149.5 25zM830 641q0 -77 -34.5 -140.5t-90.5 -109.5t-127 -71.5t-144 -25.5h-5q-47 -39 -65 -65.5t-18 -32.5 q0 -12 10.5 -23.5t39 -22t78.5 -21t128 -19.5q109 -12 180 -36t113 -55.5t58.5 -67.5t16.5 -71q0 -55 -21 -104.5t-57 -91.5t-85 -76t-105 -58t-116 -37t-119 -13q-47 0 -97 6.5t-99 20.5t-92.5 35.5t-76.5 52t-52.5 69t-19.5 87.5q0 26 9.5 54.5t38.5 61.5t81 71t138 84 q-65 23 -90 52t-25 59q0 8 5 21.5t20.5 32.5t43.5 44t74 57q-51 14 -92.5 40.5t-71 64.5t-45.5 85.5t-16 103.5q0 73 33 138.5t87 114t123 77t142 28.5q60 0 112.5 -17t95.5 -48q52 5 94 13t75.5 17t59.5 18t47 17l20 -30l-23 -51.5t-34 -48.5q-38 -7 -74.5 -11t-82.5 -6 q26 -38 40.5 -81t14.5 -91z" />
<glyph unicode="h" horiz-adv-x="1130" d="M670 0v43q72 19 106 33t34 28v529q0 61 -7.5 99t-23.5 60t-40 30t-57 8q-35 0 -75.5 -18t-84.5 -53t-89 -87.5t-88 -122.5v-445q0 -15 37.5 -31t102.5 -30v-43h-430v43q66 17 103 30.5t37 30.5v1194q0 42 -3.5 65.5t-18 36.5t-42.5 18.5t-76 11.5v40q42 8 76.5 16 t64 17.5t56.5 20.5t56 26l37 -34v-832q43 64 95.5 115t105.5 87t103.5 55t89.5 19q43 0 83 -13t70.5 -40t49 -68.5t18.5 -97.5v-637q0 -14 30.5 -27.5t109.5 -33.5v-43h-430z" />
<glyph unicode="i" horiz-adv-x="555" d="M390 1261q0 -28 -9 -53t-24.5 -43.5t-36.5 -29.5t-46 -11q-45 0 -64.5 25t-19.5 71q0 28 9 53t25 43.5t36.5 29t44.5 10.5q85 0 85 -95zM70 0v43q68 14 104 30.5t36 30.5v566q0 51 -2 82.5t-15 49t-41.5 25.5t-81.5 13v40q31 6 65.5 14.5t68.5 19t65 22.5t57 24h34v-856 q0 -12 33.5 -29.5t106.5 -31.5v-43h-430z" />
<glyph unicode="j" horiz-adv-x="530" d="M365 1261q0 -28 -9 -53t-24.5 -43.5t-36.5 -29.5t-45 -11q-45 0 -64.5 25t-19.5 71q0 28 9 53t24.5 43.5t36.5 29t45 10.5q84 0 84 -95zM335 99q0 -115 -14.5 -195.5t-40 -137t-60.5 -95.5t-75 -71q-27 -21 -57 -39.5t-60 -32t-56.5 -21t-45.5 -7.5q-31 0 -60.5 7.5 t-53 18.5t-38 23t-14.5 20q0 9 14.5 24.5t34.5 32.5t41.5 32t36.5 22q32 -28 66 -36.5t72 -8.5q29 0 57.5 18.5t51.5 64.5t37 125t14 200v627q0 51 -2.5 82t-15.5 48.5t-41.5 25.5t-80.5 14v40q42 7 74.5 16t62 18.5t57 21l59.5 24.5h37v-861v0z" />
<glyph unicode="k" horiz-adv-x="1024" d="M55 0v43q66 17 103 30t37 31v1192q0 46 -5.5 71t-21 37.5t-43 16.5t-70.5 9v40q69 14 135.5 32.5t117.5 47.5l37 -34v-990l308 273q33 29 40 46.5t-2.5 26.5t-32 12t-48.5 3v43h379v-43q-44 -5 -81 -16.5t-79 -45.5l-337 -272l372 -442q14 -16 29 -26.5t33 -16.5 t40.5 -7.5t51.5 0.5l6 -43q-29 -7 -57.5 -12t-53 -8.5t-44 -5.5t-29.5 -2q-42 0 -67.5 12t-47.5 41l-377 482l-3 1v-422q0 -8 3.5 -14t14.5 -12.5t33 -14.5t59 -20v-43h-400z" />
<glyph unicode="l" horiz-adv-x="555" d="M60 0v43q43 7 72 14.5t46 15t24.5 15.5t7.5 16v1192q0 45 -6 70t-22 37.5t-43 17t-69 9.5v40q72 14 132 31t122 49l36 -34v-1412q0 -15 34 -31t116 -30v-43h-450z" />
<glyph unicode="m" horiz-adv-x="1645" d="M1186 0v43q72 19 105.5 33t33.5 28v529q0 61 -6.5 101.5t-20 63.5t-35 32.5t-51.5 9.5q-33 0 -70 -18.5t-76 -53t-78.5 -84t-77.5 -111.5v-469q0 -14 31 -27.5t110 -33.5v-43h-430v43q72 19 105.5 33t33.5 28v529q0 61 -6 101.5t-19.5 63.5t-35 32.5t-52.5 9.5 q-68 0 -142.5 -70t-159.5 -197v-469q0 -15 37.5 -31t102.5 -30v-43h-430v43q66 17 103 30.5t37 30.5v607q0 40 -3.5 63t-18 35.5t-42.5 18.5t-76 12v40q38 6 70 14.5t61 18.5t55.5 22l53.5 25l35 -35l11 -229q45 66 91 115.5t91 82.5t87 49.5t78 16.5q48 0 88.5 -12t70 -40 t46.5 -73t17 -112v-19q42 63 87 110.5t89.5 80t87 49t79.5 16.5q48 0 88.5 -13t70 -40t46.5 -68.5t17 -97.5v-637q0 -14 31 -27.5t110 -33.5v-43h-430z" />
<glyph unicode="n" horiz-adv-x="1130" d="M670 0v43q72 19 106 33t34 28v529q0 61 -7 99t-22 60t-39.5 30t-59.5 8q-31 0 -69 -15t-81.5 -48t-91 -86.5t-95.5 -131.5v-445q0 -15 37.5 -31t102.5 -30v-43h-430v43q66 17 103 30.5t37 30.5v607q0 39 -3 62t-16.5 36t-41.5 19t-79 12v40q68 11 126 31.5t114 48.5 l35 -35l11 -249q44 67 97 119.5t107 89t104.5 56t89.5 19.5q43 0 83 -13t70.5 -40t49 -68.5t18.5 -97.5v-637q0 -14 30.5 -27.5t109.5 -33.5v-43h-430z" />
<glyph unicode="o" horiz-adv-x="1030" d="M797 455q0 79 -26 150.5t-68 126t-94 86.5t-103 32q-76 0 -128 -29t-84.5 -79.5t-46.5 -119.5t-14 -149q0 -79 28 -150.5t71 -125.5t94.5 -85.5t97.5 -31.5q71 0 122.5 26.5t85 75.5t49.5 118t16 155zM950 485q0 -66 -17 -130.5t-47 -121.5t-72 -105.5t-92.5 -83.5 t-107.5 -54.5t-118 -19.5q-95 0 -171.5 36t-131 99t-84 150t-29.5 189q0 66 16.5 130t46 121.5t71 106t92 83.5t108.5 55t121 20q94 0 170.5 -36t131 -99.5t84 -150.5t29.5 -189z" />
<glyph unicode="p" horiz-adv-x="1085" d="M871 426q0 87 -20.5 162t-55 129.5t-79.5 85.5t-93 31q-18 0 -47 -11t-66 -36.5t-79 -69t-86 -107.5v-397q45 -34 83.5 -56t72 -34.5t63.5 -17.5t57 -5q54 0 99.5 21t79 62t52.5 102t19 141zM1004 492q0 -58 -14.5 -119t-41 -119t-62 -110t-78 -90.5t-89.5 -61t-96 -22.5 q-59 0 -133 33t-145 95v-473q0 -16 37.5 -32t131.5 -30v-43h-459v43q66 16 103 30.5t37 31.5v1086q0 37 -4 61t-18.5 38.5t-42 21t-75.5 8.5v40q34 7 65 15.5t60 18t57.5 21t57.5 25.5l35 -35l9 -198q50 60 100.5 104t96.5 72.5t85.5 42.5t68.5 14q68 0 125.5 -32 t99.5 -92.5t65.5 -147.5t23.5 -196z" />
<glyph unicode="q" horiz-adv-x="1055" d="M487 102q34 0 67 13.5t65.5 36t63.5 51l62 58.5v469q-33 57 -93 89.5t-132 32.5q-56 0 -108 -24t-92.5 -71t-65 -117.5t-24.5 -164.5q0 -85 24.5 -154t62.5 -117.5t83.5 -75t86.5 -26.5zM575 -480v43q94 14 132 29.5t38 32.5v541q-38 -46 -75 -82t-76.5 -61.5t-83 -39 t-94.5 -13.5q-56 0 -115 32.5t-108.5 93.5t-81 149t-31.5 199q0 88 28 162t68.5 131.5t86.5 97.5t81 60q57 31 113 48t94 17q27 0 54 -3.5t55 -13.5t58 -28t64 -48q15 9 31 21.5l31 25t28.5 25l22.5 21.5l31 -30l-5 -16.5t-10.5 -45t-10.5 -67.5t-5 -84v-1092q0 -16 31 -32 t108 -30v-43h-459z" />
<glyph unicode="r" horiz-adv-x="811" d="M770 923q9 -6 8.5 -35t-8 -67t-19.5 -78t-24 -67h-43q-6 40 -17 68t-25.5 44.5t-32 24t-36.5 7.5q-22 0 -51.5 -18.5t-60.5 -58t-61.5 -101t-54.5 -146.5v-392q0 -15 37.5 -31t131.5 -30v-43h-459v43q66 15 103 29.5t37 31.5v582q0 33 -2 55.5t-5 36.5t-7.5 22t-8.5 13 q-7 7 -15.5 11.5t-22 7.5t-32.5 4.5t-47 3.5v40l127.5 34.5t112.5 45.5l35 -35l13 -227q27 55 58.5 103t67.5 83.5t75.5 55.5t82.5 20q32 0 69 -8t74 -29z" />
<glyph unicode="s" horiz-adv-x="791" d="M700 283q0 -71 -20 -121.5t-52 -85.5t-71 -56t-77 -32t-71.5 -14.5t-52.5 -3.5q-48 0 -115.5 18t-134.5 55q-7 3 -9.5 32.5t-1 68t6 77.5t11.5 62l43 -11q2 -42 22 -79t53.5 -65t78 -44t96.5 -16q36 0 66 11.5t52 32.5t34 50.5t12 64.5q0 40 -21.5 71t-56.5 56.5 t-79.5 48l-90.5 46.5q-42 21 -81 45t-69.5 54t-49 67t-18.5 85q0 62 25 110.5t66.5 81.5t95 50.5t110.5 17.5q31 0 68.5 -5.5t74 -15.5t68.5 -24t52 -32q6 -6 1.5 -27t-14 -46t-20.5 -47t-17 -30l-39 8q-48 72 -99.5 100.5t-100.5 28.5q-33 0 -59 -11t-44.5 -28.5t-28 -38.5 t-9.5 -42q0 -32 19 -57.5t50 -48t70.5 -43l81.5 -42.5q43 -22 87 -47t79 -57.5t57 -74t22 -97.5z" />
<glyph unicode="t" horiz-adv-x="705" d="M676 117q-49 -36 -97 -63.5t-91.5 -46t-80.5 -28t-63 -9.5q-35 0 -66.5 13t-55.5 42.5t-38 77.5t-14 118v615h-129l-21 28l78 66h72v246l119 104l31 -25v-325h327l29 -29q-9 -14 -22.5 -29.5t-27.5 -30t-27.5 -25.5t-23.5 -15q-24 12 -73 23.5t-130 11.5h-52v-529 q0 -60 5.5 -99.5t18.5 -63t33.5 -33t50.5 -9.5q35 0 88 13t131 53l29 -51v0z" />
<glyph unicode="u" horiz-adv-x="1085" d="M1069 82l-71 -44.5t-63 -35.5t-51 -23.5t-34 -8.5q-35 0 -57 46.5t-28 149.5q-62 -62 -113.5 -100.5t-95 -59.5t-80 -28.5t-68.5 -7.5q-47 0 -90 13t-76 47.5t-52.5 94.5t-19.5 154v432q0 48 -3 74.5t-15.5 40t-38.5 18.5t-72 10v40q36 4 67.5 10t61 14t59.5 18.5 t63 23.5l28 -39v-587q0 -70 10.5 -117t30 -75t48 -40t64.5 -12q32 0 65.5 9.5t69 30t74.5 53t83 79.5v449q0 45 -4.5 72t-19.5 42t-42.5 21t-73.5 8v40q72 9 138 28t122 38l30 -39v-667q0 -62 4.5 -101t18.5 -49q12 -8 41 -3.5t80 26.5l10 -45v0z" />
<glyph unicode="v" horiz-adv-x="1010" d="M989 887q-30 -7 -49 -13t-31 -13.5t-18.5 -17t-11.5 -24.5l-283 -760q-9 -22 -26 -37.5t-37 -26t-39.5 -16.5t-32.5 -9l-330 849q-9 28 -35 42.5t-76 25.5v43h386v-43q-39 -5 -63.5 -10t-38 -12.5t-15.5 -18.5t4 -27l246 -641l231 641q5 15 3.5 25.5t-13.5 18t-34.5 13 t-59.5 11.5v43h323v-43v0z" />
<glyph unicode="w" horiz-adv-x="1446" d="M1425 887q-31 -7 -49 -13.5t-28.5 -13t-15 -15t-7.5 -20.5l-221 -766q-6 -22 -23.5 -37.5t-38.5 -26t-41.5 -16.5t-33.5 -9l-238 678l-205 -589q-8 -23 -24.5 -38.5t-36.5 -26t-39.5 -16t-32.5 -8.5l-262 855q-9 39 -109 62v43h386v-43q-49 -5 -76 -11.5t-39 -15 t-12.5 -17.5t2.5 -18l188 -635l246 740h69l260 -740l173 635q6 23 -21 37t-96 25v43h325v-43v0z" />
<glyph unicode="x" horiz-adv-x="1030" d="M614 0v43q25 2 47 6t34.5 13t12.5 25q0 17 -20 44l-198 269l-189 -269q-19 -27 -15 -43.5t21 -25.5t42.5 -13t49.5 -6v-43h-379v43q40 6 68 15.5t47.5 22t33 27t24.5 29.5l243 338l-235 322q-13 18 -26 33.5t-31.5 27t-45.5 19t-67 10.5v43h420v-43q-31 -3 -53.5 -8.5 t-34 -15t-10 -25t19.5 -39.5l161 -222l154 222q18 24 20 40t-8.5 25.5t-32.5 14.5t-53 8v43h381v-43q-81 -6 -125.5 -29.5t-70.5 -60.5l-210 -295l267 -365q12 -15 26 -29.5t32.5 -27.5t43.5 -23t58 -14v-43h-402z" />
<glyph unicode="y" horiz-adv-x="1010" d="M989 887q-30 -7 -49 -13t-31 -13.5t-18.5 -17t-11.5 -24.5l-334 -901q-42 -111 -93.5 -190t-107 -129.5t-111.5 -74.5t-106 -24q-38 0 -70 5t-55 12.5t-36 17t-13 18.5q0 6 12 24t30 39.5t38.5 41.5t36.5 30q48 -28 95.5 -30t84.5 12q18 6 42 28t48.5 54t48 72.5 t41.5 83.5l29 69l-328 842q-9 28 -35 42.5t-76 25.5v43h386v-43q-39 -5 -63.5 -10t-38 -12.5t-15.5 -18.5t4 -27l246 -637l231 637q5 15 1.5 25.5t-17 18t-38 13t-61.5 11.5v43h334v-43z" />
<glyph unicode="z" horiz-adv-x="905" d="M829 248q0 -32 -1 -68t-2.5 -70t-3.5 -63t-5 -47h-715l-26 45l555 795h-346q-16 0 -32.5 -6t-32 -22.5t-29 -46t-23.5 -75.5l-49 12l18 244q22 -6 40 -9.5t37.5 -5t42.5 -1.5h56h492l22 -43l-557 -797h422q25 0 46 38.5t44 129.5l47 -10v0z" />
<glyph unicode="{" horiz-adv-x="688" d="M649 1553q-39 -24 -72.5 -55t-58.5 -68.5t-39 -81.5t-14 -96q0 -58 6.5 -95t14 -69.5t14 -69.5t6.5 -95q0 -42 -12.5 -82.5t-35.5 -76t-56.5 -64.5t-75.5 -47q50 -9 84.5 -31.5t55.5 -56.5t30.5 -79.5t9.5 -100.5q0 -60 -6.5 -102t-14 -79t-14 -74t-6.5 -87 q0 -55 7.5 -97.5t27 -77t53 -64t86.5 -58.5l-23 -61q-84 34 -144 71.5t-98.5 83.5t-56.5 103t-18 129q0 59 6.5 97.5t14 74t14 76t6.5 102.5q0 81 -40.5 122.5t-115.5 41.5h-21q-6 0 -11 -0.5t-11.5 -2t-21.5 -3.5l-17 53q118 31 178 93t60 137q0 40 -3 69t-7.5 52.5t-10 44 t-10 43.5t-7.5 52.5t-3 70.5q0 67 22.5 126.5t64.5 110t102 92.5t135 76l26 -47v0z" />
<glyph unicode="|" horiz-adv-x="469" d="M320 -353q-18 -16 -49 -30t-56 -22l-35 23v2003q28 17 51.5 29t52.5 20l36 -22v-2001v0z" />
<glyph unicode="}" horiz-adv-x="688" d="M588 651q-119 -31 -178.5 -91.5t-59.5 -137.5q0 -40 3 -69t7 -52t9.5 -43t9.5 -43.5t7 -52.5t3 -70q0 -68 -22.5 -127t-64.5 -110t-102 -93.5t-134 -76.5l-27 49q39 24 72.5 54.5t58.5 68t39 82t14 96.5q0 58 -6 94.5t-13.5 69t-13.5 70t-6 96.5q0 41 12 81t35.5 75 t57 63.5t76.5 46.5q-51 10 -85.5 32.5t-56 57t-30.5 80t-9 101.5q0 59 6 101t13.5 79t13.5 74t6 86q0 56 -7.5 99t-27 77.5t-53.5 63t-86 57.5l23 61q84 -33 144.5 -70.5t98.5 -83.5t56 -102.5t18 -128.5q0 -59 -6 -98t-13.5 -74.5t-13.5 -76t-6 -101.5q0 -81 40.5 -123 t115.5 -42h19t11 0.5t12.5 2l22.5 4.5l17 -56v0z" />
<glyph unicode="~" horiz-adv-x="999" d="M950 774q-21 -49 -53 -101.5t-71.5 -96t-85 -71.5t-93.5 -28q-42 0 -89 25t-95.5 55t-96 55t-90.5 25q-49 0 -90.5 -39t-83.5 -123l-53 27q21 49 53.5 101.5t72 96t84.5 71.5t93 28q46 0 94.5 -25t96 -55t93 -55t85.5 -25q48 0 91 39t85 121l53 -25v0z" />
<glyph unicode="&#xa2;" d="M256 616q0 -70 17 -127t46.5 -100t69.5 -71.5t86 -42.5v691q-45 -9 -84.5 -34t-69.5 -68t-47.5 -104.5t-17.5 -143.5zM565 -8q-9 -8 -16 -12.5t-13.5 -8t-15 -6t-20.5 -6.5l-25 25v145q-71 3 -137.5 34t-118.5 88.5t-83.5 141.5t-31.5 193q0 88 27.5 166t76.5 139.5 t117.5 105t149.5 64.5v153q14 9 20 13.5t10.5 7t11.5 4.5l22 6l26 -22v-146q12 1 24 1.5t25 0.5q33 0 67.5 -5.5t66.5 -16t58.5 -25t43.5 -33.5q2 -11 -3 -33t-14 -46t-20 -46.5t-20 -35.5l-35 10q-9 16 -24.5 35t-39 36t-55.5 30.5t-74 18.5v-706q27 0 51 2.5t52.5 15 t65.5 38.5t91 73l39 -41q-51 -60 -92 -100t-76.5 -64.5t-67 -36.5t-63.5 -16v-141v0z" />
<glyph unicode="&#xa3;" d="M615 536h-242q3 -68 -5 -131t-23.5 -118.5t-38 -102.5t-48.5 -83q46 4 80.5 5t63.5 0.5t54 -1.5t51.5 -2.5t55.5 -2t66 0.5q46 1 79 6t58.5 22t46.5 50.5t42 92.5l43 -18q-4 -43 -9.5 -82.5t-11 -73t-11 -58.5t-9.5 -40q-45 -25 -105.5 -28t-130 4t-143 18.5t-144.5 16.5 t-134.5 -2.5t-112.5 -38.5l-23 49q31 25 55 47t41 47.5t28 59t16 82.5t4 117.5t-8 163.5h-114l-22 25l10.5 32.5t11.5 33.5h108q-6 142 16 255t73.5 191.5t134 120t196.5 41.5q26 0 50.5 -2t52.5 -9.5t62.5 -21t81.5 -37.5q-1 -26 -5 -63t-9.5 -75.5t-12 -73t-12.5 -53.5 h-47q-14 124 -74.5 180t-160.5 56q-27 0 -53.5 -5.5t-50 -23t-42.5 -51t-29.5 -90t-11.5 -140t11 -199.5h251l25 -23z" />
<glyph unicode="&#xa4;" d="M363 721q-25 -25 -37.5 -56.5t-12.5 -63.5t12 -62.5t37 -54.5q26 -26 57 -38t63 -12t63 12t56 37q24 25 36.5 56t12.5 63t-12.5 63t-37.5 56t-55.5 37t-62.5 12t-63 -12t-56 -37zM738 280l-105 105q-34 -23 -72.5 -34.5t-78.5 -11.5t-79 11.5t-73 35.5l-108 -107l-33 2 q-8 14 -16 30t-15 32l107 107q-24 33 -35.5 71.5t-11.5 78.5t12 79t36 73l-107 108l2 33q14 8 30 16t32 15l107 -107q34 24 73 36.5t79 12.5t78 -12t72 -37l106 106l34 1l30 -66l-106 -106q24 -34 36.5 -73t12.5 -79t-12 -78.5t-36 -72.5l106 -105l1 -34z" />
<glyph unicode="&#xa5;" d="M236 0v43q91 19 127.5 38.5t36.5 33.5v321h-272l-22 25l10.5 32.5t11.5 33.5h272v53q-35 73 -73.5 146t-78 140l-77.5 125.5l-70 103.5q-9 11 -20.5 21t-29.5 17.5t-45 12t-69 4.5l-4 43q59 8 118 14.5t101 6.5q46 0 78 -39q37 -48 71 -99t66 -107l64.5 -118.5 l67.5 -134.5l214 379q15 26 -9.5 41t-101.5 25v43h396v-43q-69 -13 -105.5 -26.5t-50.5 -39.5l-282 -517v-51h271l25 -23l-25 -68h-271v-321q0 -6 8.5 -14.5t28 -18.5t51 -20t78.5 -19v-43h-490z" />
<glyph unicode="&#xa6;" horiz-adv-x="469" d="M326 -354q-10 -8 -24.5 -15.5t-30.5 -14.5t-32 -12.5l-28 -9.5l-37 23v872q29 17 56.5 29.5t58.5 22.5l37 -25v-870v0zM326 767q-10 -8 -24.5 -15.5t-30.5 -14t-32 -12l-28 -9.5l-37 22v883q29 17 56.5 29t58.5 20l37 -22v-881v0z" />
<glyph unicode="&#xa7;" d="M538 529l52.5 -27.5t51.5 -28.5q32 20 50.5 51.5t18.5 69.5q0 46 -18.5 83.5t-56.5 73t-95.5 71t-135.5 77.5q-23 12 -44 25.5l-41 27.5q-18 -6 -31 -21t-21.5 -34t-13 -39t-4.5 -36q0 -46 17 -81.5t52 -68t89.5 -66.5zM842 656q0 -44 -9.5 -82t-26 -69.5t-37.5 -55.5 t-43 -41q26 -28 41.5 -63t15.5 -82q0 -71 -20 -120t-52 -81.5t-71 -51t-77 -27.5t-71.5 -11t-52.5 -2q-24 0 -53.5 6t-62 17t-67 26.5t-67.5 33.5q-7 3 -9.5 32.5t-1 68t6 77.5t11.5 62l43 -11q2 -42 22 -80.5t53.5 -68.5t78 -47.5t96.5 -17.5q72 0 118 34t46 105 q0 40 -21.5 69t-57 52.5t-80 44.5t-89.5 46q-66 36 -119 72.5t-90 78t-57 91.5t-20 114q0 37 11.5 71.5t31 65t45 55t53.5 42.5q-35 40 -54 87t-19 104q0 62 25 107.5t66.5 75t95 43.5t110.5 14q31 0 68.5 -7t74 -19t68.5 -27.5t52 -33.5q6 -6 1.5 -27t-14 -46t-20.5 -47 t-17 -30l-39 8q-48 72 -99.5 105.5t-100.5 33.5q-66 0 -103.5 -28.5t-37.5 -81.5q0 -35 14 -63.5t41.5 -55.5t69 -54t96.5 -58q67 -38 122.5 -72.5t96 -74t63 -88.5t22.5 -118z" />
<glyph unicode="&#xa9;" horiz-adv-x="1460" d="M1018 369q-45 -43 -85.5 -72t-78.5 -47t-74.5 -25.5t-72.5 -7.5q-65 0 -127.5 26t-111.5 75.5t-79.5 121t-30.5 162.5q0 100 33.5 182t91.5 139.5t134.5 89t162.5 31.5q76 0 132 -18.5t94 -44.5q4 -3 -2.5 -16t-17 -29t-23 -31t-21.5 -22l-24 4q-36 28 -81 52t-106 24 q-32 0 -74 -16t-79.5 -54.5t-63 -103.5t-25.5 -162q0 -80 29.5 -140t74 -100.5t95 -61t92.5 -20.5q22 0 43 4t46 14t54.5 28t67.5 46q8 -3 15 -14t12 -14zM1274 631q0 118 -40.5 222.5t-113 182.5t-172.5 123t-219 45q-118 0 -217.5 -45t-172 -123t-113 -182.5t-40.5 -222.5 q0 -119 40.5 -224t113 -183t172 -123t217.5 -45q119 0 219 45t172.5 123t113 183t40.5 224zM1360 631q0 -91 -21.5 -175.5t-61 -158t-96 -134t-126.5 -103.5t-152.5 -66.5t-173.5 -23.5q-137 0 -252 52t-199 141.5t-131 210t-47 257.5q0 136 47 256.5t131 209.5t199 141 t252 52q91 0 173.5 -23.5t152.5 -66.5t126.5 -103t96 -133.5t61 -157.5t21.5 -175z" />
<glyph unicode="&#xad;" horiz-adv-x="690" d="M629 545q-6 -22 -14.5 -47.5t-16.5 -42.5h-512l-25 24q5 22 13.5 46t17.5 44h512l25 -24v0z" />
<glyph unicode="&#xae;" horiz-adv-x="730" d="M336 1256h-12q-5 0 -11 -1v-146q8 -2 13 -2h14q51 0 74.5 21t23.5 59q0 29 -22.5 49t-79.5 20zM214 887v18q44 9 44 19v326q-11 -2 -22 -3t-22 -3l-2 29q29 7 61 12.5t74 5.5q75 0 113.5 -27t38.5 -68q0 -47 -28 -77.5t-72 -41.5l103 -143q7 -11 18.5 -14t33.5 -1l2 -21 q-20 -6 -41.5 -11.5t-32.5 -5.5q-9 0 -18 6t-13 12l-105 171h-2q-15 0 -31 3v-149q0 -10 43 -19v-18h-142zM637 1084q0 59 -20.5 111.5t-56.5 91.5t-86 61.5t-110 22.5q-59 0 -108.5 -22.5t-85.5 -61.5t-56.5 -91.5t-20.5 -111.5q0 -60 20.5 -112t56.5 -91t85.5 -61.5 t108.5 -22.5q60 0 110 22.5t86 61.5t56.5 91t20.5 112zM696 1084q0 -72 -25 -135t-69 -110t-105 -74t-133 -27t-132 27t-104 74t-68.5 110t-24.5 135t24.5 135t68.5 110t104 74t132 27t133 -27t105 -74t69 -110t25 -135z" />
<glyph unicode="&#xb0;" horiz-adv-x="733" d="M484 995q0 29 -7.5 55.5t-21 47t-33.5 32.5t-44 12q-25 0 -48 -10t-41 -29t-28.5 -45.5t-10.5 -59.5q0 -28 7 -54.5t20.5 -47t33 -33t44.5 -12.5q24 0 47 9.5t41.5 28t29.5 45t11 61.5zM593 1045q0 -62 -24 -114t-62 -90.5t-85 -60t-93 -21.5q-41 0 -76 15t-60 41t-39 60 t-14 73q0 62 23.5 114.5t61.5 91t85 60t94 21.5q39 0 73.5 -15.5t60 -41.5t40.5 -60.5t15 -72.5z" />
<glyph unicode="&#xb1;" horiz-adv-x="840" d="M778 217q-5 -20 -13.5 -45.5t-16.5 -42.5h-662l-25 24q5 20 13.5 44t17.5 44h662l24 -24v0zM477 366q-20 -10 -44 -18t-46 -13l-25 22v279h-276l-25 24q5 20 13.5 44t17.5 44h270v273q19 6 44 15t47 14l24 -23v-279h277l24 -24q-5 -20 -13.5 -45.5t-16.5 -42.5h-271v-270 v0z" />
<glyph unicode="&#xb6;" horiz-adv-x="1135" d="M791 1159q-20 7 -40 12l-40 10v-1326q0 -11 14.5 -19.5t24.5 -11.5q12 3 26.5 11.5t14.5 19.5v1304zM591 610l1 590q-62 6 -103 6q-60 0 -110 -21t-86.5 -57t-57 -85t-20.5 -105q0 -54 19 -112t59.5 -106t103 -79t150.5 -31h44zM444 -250v43q69 14 107.5 31t38.5 31 l1 677q-18 -3 -39 -4.5t-48 -1.5q-93 0 -175.5 23.5t-145 71t-98.5 118t-36 164.5q0 85 33.5 156t94.5 122.5t145.5 80t185.5 28.5q29 0 75.5 -2t99.5 -5.5t106.5 -7.5l96.5 -7.5t70 -5.5l27 -2h72v-43q-68 -14 -107 -31t-39 -31v-1300q0 -13 36.5 -30.5t109.5 -31.5v-43 h-611z" />
<glyph unicode="&#xb7;" horiz-adv-x="300" d="M250 721q0 -28 -9 -53t-24.5 -43.5t-36.5 -29.5t-46 -11q-45 0 -64.5 25t-19.5 71q0 28 9 53t25 43.5t36.5 29t44.5 10.5q85 0 85 -95z" />
<glyph unicode="&#xc1;" horiz-adv-x="1219" d="M411 535h347l-176 514zM776 0v43q78 5 109 20.5t18 47.5l-114 333h-408l-111 -333q-9 -31 27.5 -45t118.5 -23v-43h-416v43q68 12 107.5 25.5t50.5 42.5l372 1126q23 25 57 45.5t60 34.5l420 -1206q9 -28 37.5 -44.5t93.5 -23.5v-43h-422zM467 1367q-17 7 -24.5 16.5 t-20.5 28.5l387 317l27 -15.5l35 -20t33 -20.5t23 -18l9 -45z" />
<glyph unicode="&#xc9;" horiz-adv-x="1016" d="M954 244q-8 -86 -20.5 -150.5t-20.5 -93.5h-863v43q68 14 106.5 30.5t38.5 30.5v1051q0 12 -36.5 30t-108.5 32v43h806l33 -25q-2 -26 -6 -57t-10 -62t-12.5 -59t-12.5 -47h-45q-2 46 -8.5 77t-16.5 49.5t-24.5 26t-32.5 7.5h-366v-435h405l26 -28q-8 -14 -19.5 -29.5 t-24 -30t-25 -27t-23.5 -20.5q-15 15 -32.5 25t-40 17t-53 10t-72.5 3h-141v-501q0 -15 7 -26.5t29 -20t62 -13t106 -4.5h129q46 0 78.5 5t57.5 22.5t45.5 51.5t41.5 93l43 -18v0zM370 1367q-17 7 -24.5 16.5t-20.5 28.5l387 317l27 -15.5l35 -20t33 -20.5t23 -18l9 -45z " />
<glyph unicode="&#xcd;" horiz-adv-x="610" d="M70 0v43q68 14 106.5 30.5t38.5 30.5v1051q0 12 -36.5 30t-108.5 32v43h450v-43q-68 -14 -106.5 -31t-38.5 -31v-1051q0 -12 36.5 -29.5t108.5 -31.5v-43h-450zM163 1367q-17 7 -24.5 16.5t-20.5 28.5l387 317l27 -15.5l35 -20t33 -20.5t23 -18l9 -45z" />
<glyph unicode="&#xd3;" horiz-adv-x="1229" d="M983 629q0 69 -12.5 136.5t-35.5 128t-56.5 112.5t-75.5 89.5t-92 59t-107 21.5q-89 0 -159.5 -38t-119 -107.5t-74.5 -168.5t-26 -221q0 -112 30.5 -212t82 -175.5t120.5 -119.5t146 -44q83 0 152.5 34.5t120 102.5t78.5 169t28 233zM1138 647q0 -136 -45 -258.5 t-122.5 -215.5t-179.5 -148t-216 -55q-120 0 -214 53t-158.5 142t-98.5 205t-34 242q0 136 44 259t120 216t178.5 148t220.5 55q124 0 218 -54.5t158 -144.5t96.5 -206t32.5 -238zM483 1367q-17 7 -24.5 16.5t-20.5 28.5l387 317l27 -15.5l35 -20t33 -20.5t23 -18l9 -45z " />
<glyph unicode="&#xda;" horiz-adv-x="1339" d="M1275 1217q-68 -14 -106.5 -31t-38.5 -31v-631q0 -131 -32 -234t-92 -174t-146 -108.5t-194 -37.5q-103 0 -189.5 28.5t-149 87t-97.5 147.5t-35 211v711q0 12 -36.5 30t-108.5 32v43h450v-43q-68 -14 -106.5 -31t-38.5 -31v-661q0 -96 22.5 -172t67 -129t109.5 -81 t151 -28q71 0 126 34.5t92.5 90.5t57 128t19.5 146v672q0 12 -36.5 30t-108.5 32v43h420v-43v0zM545 1367q-17 7 -24.5 16.5t-20.5 28.5l387 317l27 -15.5l35 -20t33 -20.5t23 -18l9 -45z" />
<glyph unicode="&#xe1;" horiz-adv-x="940" d="M352 100q60 0 127.5 30.5t143.5 96.5v261l-119 -23q-68 -12 -117.5 -35t-81.5 -54t-47 -68.5t-15 -78.5q0 -40 12 -65t29.5 -39.5t36 -19.5t31.5 -5zM926 82q-85 -59 -140.5 -85.5t-83.5 -26.5q-33 0 -55 46t-24 127q-45 -45 -90 -78t-88 -54t-81.5 -31t-70.5 -10 q-36 0 -74 12t-68.5 38t-50.5 67t-20 99q0 59 21.5 112.5t64 97.5t105.5 76.5t147 49.5l205 41v139q0 34 -8 63.5t-27 51t-51.5 33t-81.5 10.5q-32 -1 -63 -11t-54 -28t-36 -42.5t-10 -54.5q1 -9 -20.5 -20.5t-51 -20.5t-58 -14t-40.5 -2l-14 39q23 50 70 96t107.5 81 t128 56t130.5 21q110 0 169.5 -57.5t59.5 -160.5v-564q0 -42 11 -60t29 -18q14 0 36 5t62 22l15 -45v0zM437 1047q-18 3 -32 11t-25 17l234 414q12 -1 31.5 -3.5l41 -5.5t41.5 -7t31 -7l23 -39z" />
<glyph unicode="&#xe6;" horiz-adv-x="1417" d="M995 856q-23 0 -53.5 -10.5t-60.5 -40.5t-56.5 -84t-39.5 -141h348q21 0 29.5 7.5t8.5 28.5q0 48 -10 91.5t-31 76.5t-54.5 52.5t-80.5 19.5zM637 243q-7 29 -10.5 59t-3.5 63v7v3v110q-33 -2 -59 -5t-38 -7q-150 -37 -217 -99.5t-67 -144.5q0 -40 12.5 -65t29.5 -39.5 t36 -19.5t32 -5q27 0 61 9t71.5 26.5t76.5 44.5t76 63zM1337 557q-20 -20 -50 -37.5t-62 -30.5h-449q-2 -17 -2 -35v-36q0 -58 15.5 -114.5t45.5 -101.5t73.5 -72.5t99.5 -27.5q31 0 59.5 3.5t61 17t71.5 40.5t92 73q13 -7 22.5 -20t14.5 -21q-60 -72 -110 -116t-95.5 -68 t-89 -32.5t-90.5 -8.5q-44 0 -86.5 14t-80 41t-68 65.5t-51.5 88.5q-43 -52 -93.5 -91t-100.5 -65.5t-95 -39.5t-76 -13q-36 0 -74 12t-68.5 38t-50.5 67t-20 99q0 59 23.5 113.5t70.5 101.5t119 85.5t170 66.5q33 9 74.5 14.5t85.5 8.5v86q0 39 -6 75t-23 63t-47.5 43.5 t-79.5 16.5q-32 0 -68 -14.5t-64 -40t-41.5 -59t1.5 -70.5q3 -9 -18.5 -20t-51 -20t-59 -13.5t-41.5 -1.5l-14 36q5 39 29 77t59.5 71.5t79.5 62t89.5 49t88.5 32t78 11.5q88 0 139.5 -36t74.5 -108q32 40 68 68t72.5 44.5t71 24t63.5 7.5q61 0 108 -17.5t81.5 -47 t58.5 -69.5t38.5 -84.5t20.5 -92t6 -92.5z" />
<glyph unicode="&#xe9;" horiz-adv-x="946" d="M496 856q-51 0 -94 -20t-76.5 -56t-56 -87t-32.5 -113h427q23 0 30.5 7.5t7.5 28.5q0 18 -3 43t-11.5 51.5t-23 52.5t-37.5 46.5t-55.5 33.5t-75.5 13zM866 557q-18 -20 -48 -37t-62 -30h-526v-3q0 -75 20.5 -144.5t58.5 -123t93 -85.5t124 -32q31 0 60.5 3.5t63.5 17 t75.5 40.5t97.5 73q13 -7 22.5 -20t14.5 -21q-67 -73 -117.5 -117.5t-95 -68.5t-88 -31.5t-94.5 -7.5q-77 0 -146.5 33t-122.5 93.5t-84.5 146t-31.5 191.5q0 67 15 132t43.5 123t69.5 107t93 85q22 15 49.5 29.5t57.5 25.5t59.5 17.5t56.5 6.5q66 0 116.5 -18t88.5 -48.5 t64 -71t42.5 -85.5t23.5 -91.5t7 -88.5zM467 1047q-18 3 -32 11t-25 17l234 414q12 -1 31.5 -3.5l41 -5.5t41.5 -7t31 -7l23 -39z" />
<glyph unicode="&#xed;" horiz-adv-x="555" d="M70 0v43q68 14 104 30.5t36 30.5v566q0 51 -2 82.5t-15 49t-41.5 25.5t-81.5 13v40q31 6 65.5 14.5t68.5 19t65 22.5t57 24h34v-856q0 -12 33.5 -29.5t106.5 -31.5v-43h-430zM242 1047q-18 3 -32 11t-25 17l234 414q12 -1 31.5 -3.5l41 -5.5t41.5 -7t31 -7l23 -39z" />
<glyph unicode="&#xf3;" horiz-adv-x="1030" d="M797 455q0 79 -26 150.5t-68 126t-94 86.5t-103 32q-76 0 -128 -29t-84.5 -79.5t-46.5 -119.5t-14 -149q0 -79 28 -150.5t71 -125.5t94.5 -85.5t97.5 -31.5q71 0 122.5 26.5t85 75.5t49.5 118t16 155zM950 485q0 -66 -17 -130.5t-47 -121.5t-72 -105.5t-92.5 -83.5 t-107.5 -54.5t-118 -19.5q-95 0 -171.5 36t-131 99t-84 150t-29.5 189q0 66 16.5 130t46 121.5t71 106t92 83.5t108.5 55t121 20q94 0 170.5 -36t131 -99.5t84 -150.5t29.5 -189zM492 1047q-18 3 -32 11t-25 17l234 414q12 -1 31.5 -3.5l41 -5.5t41.5 -7t31 -7l23 -39z" />
<glyph unicode="&#xfa;" horiz-adv-x="1085" d="M1069 82l-71 -44.5t-63 -35.5t-51 -23.5t-34 -8.5q-35 0 -57 46.5t-28 149.5q-62 -62 -113.5 -100.5t-95 -59.5t-80 -28.5t-68.5 -7.5q-47 0 -90 13t-76 47.5t-52.5 94.5t-19.5 154v432q0 48 -3 74.5t-15.5 40t-38.5 18.5t-72 10v40q36 4 67.5 10t61 14t59.5 18.5 t63 23.5l28 -39v-587q0 -70 10.5 -117t30 -75t48 -40t64.5 -12q32 0 65.5 9.5t69 30t74.5 53t83 79.5v449q0 45 -4.5 72t-19.5 42t-42.5 21t-73.5 8v40q72 9 138 28t122 38l30 -39v-667q0 -62 4.5 -101t18.5 -49q12 -8 41 -3.5t80 26.5l10 -45v0zM502 1047q-18 3 -32 11 t-25 17l234 414q12 -1 31.5 -3.5l41 -5.5t41.5 -7t31 -7l23 -39z" />
<glyph unicode="&#x104;" horiz-adv-x="1219" d="M411 535h347l-176 514zM776 0v43q78 5 109 20.5t18 47.5l-114 333h-408l-111 -333q-9 -31 27.5 -45t118.5 -23v-43h-416v43q68 12 107.5 25.5t50.5 42.5l372 1126q23 25 57 45.5t60 34.5l420 -1206q9 -28 37.5 -44.5t93.5 -23.5v-43h-422zM1099 -299q-21 -27 -49.5 -53 t-58.5 -46.5t-60 -33t-55 -12.5q-29 0 -57 6t-50 22t-35.5 44t-13.5 73q0 90 78.5 175.5t229.5 166.5l45 -19q-72 -44 -116 -86t-68 -79t-32 -68t-8 -55q0 -37 24 -54.5t62 -17.5q25 0 61.5 18t78.5 56l24 -37v0z" />
<glyph unicode="&#x105;" horiz-adv-x="940" d="M352 100q60 0 127.5 30.5t143.5 96.5v261l-119 -23q-68 -12 -117.5 -35t-81.5 -54t-47 -68.5t-15 -78.5q0 -40 12 -65t29.5 -39.5t36 -19.5t31.5 -5zM926 82q-85 -59 -140.5 -85.5t-83.5 -26.5q-33 0 -55 46t-24 127q-45 -45 -90 -78t-88 -54t-81.5 -31t-70.5 -10 q-36 0 -74 12t-68.5 38t-50.5 67t-20 99q0 59 21.5 112.5t64 97.5t105.5 76.5t147 49.5l205 41v139q0 34 -8 63.5t-27 51t-51.5 33t-81.5 10.5q-32 -1 -63 -11t-54 -28t-36 -42.5t-10 -54.5q1 -9 -20.5 -20.5t-51 -20.5t-58 -14t-40.5 -2l-14 39q23 50 70 96t107.5 81 t128 56t130.5 21q110 0 169.5 -57.5t59.5 -160.5v-564q0 -42 11 -60t29 -18q14 0 36 5t62 22l15 -45v0zM854 -299q-21 -27 -49.5 -53t-58.5 -46.5t-60 -33t-55 -12.5q-29 0 -57 6t-50 22t-35.5 44t-13.5 73q0 90 78.5 175.5t229.5 166.5l45 -19q-72 -44 -116 -86t-68 -79 t-32 -68t-8 -55q0 -37 24 -54.5t62 -17.5q25 0 61.5 18t78.5 56l24 -37v0z" />
<glyph unicode="&#x10c;" horiz-adv-x="1098" d="M1018 211q-64 -68 -122.5 -114.5t-113 -74.5t-107 -40t-104.5 -12q-93 0 -182.5 42t-160.5 121t-114.5 193.5t-43.5 259.5q0 160 48.5 290t131.5 222t193 142t233 50q108 0 189.5 -29t133.5 -71q6 -5 -3 -20t-24.5 -34t-33 -38l-29.5 -31l-35 6q-51 47 -121 77t-161 30 q-34 0 -74.5 -12.5t-81.5 -39.5t-79 -70.5t-67.5 -105.5t-47 -143.5t-17.5 -185.5q0 -133 38.5 -233t99 -166.5t135 -100t145.5 -33.5q54 0 141 37t197 129q5 -2 10.5 -8.5t10.5 -13.5t9 -13.5t7 -9.5zM668 1391h-107l-264 307l12 17t9.5 12t10 9t13.5 9l275 -211l270 211 q17 -9 24 -18t19 -29z" />
<glyph unicode="&#x10d;" horiz-adv-x="895" d="M840 190q-65 -77 -114.5 -120.5t-91.5 -66t-82 -28t-87 -5.5q-73 0 -142.5 32.5t-123.5 93.5t-86.5 149t-32.5 199q0 108 39.5 202t108 163.5t161.5 110t201 40.5q33 0 67.5 -5.5t66 -16t58 -25t43.5 -32.5q2 -12 -3 -34t-14 -46.5t-20 -47t-20 -36.5l-37 10 q-8 18 -26 39t-46.5 40t-68 31.5t-90.5 12.5q-53 0 -101.5 -23.5t-86 -70.5t-60 -117t-22.5 -164q0 -85 25.5 -154t68 -117.5t98 -75t115.5 -26.5q28 0 52 2.5t52.5 14.5t66 38t93.5 74l39 -41v0zM544 1071h-107l-264 357l12 17t9.5 12t10 9t13.5 9l275 -251l270 251 q17 -9 24 -18t19 -29z" />
<glyph unicode="&#x12e;" horiz-adv-x="610" d="M70 0v43q68 14 106.5 30.5t38.5 30.5v1051q0 12 -36.5 30t-108.5 32v43h450v-43q-68 -14 -106.5 -31t-38.5 -31v-1051q0 -12 36.5 -29.5t108.5 -31.5v-43h-450zM484 -299q-21 -27 -49.5 -53t-58.5 -46.5t-60 -33t-55 -12.5q-29 0 -57 6t-50 22t-35.5 44t-13.5 73 q0 90 78.5 175.5t229.5 166.5l45 -19q-72 -44 -116 -86t-68 -79t-32 -68t-8 -55q0 -37 24 -54.5t62 -17.5q25 0 61.5 18t78.5 56l24 -37v0z" />
<glyph unicode="&#x12f;" horiz-adv-x="555" d="M390 1261q0 -28 -9 -53t-24.5 -43.5t-36.5 -29.5t-46 -11q-45 0 -64.5 25t-19.5 71q0 28 9 53t25 43.5t36.5 29t44.5 10.5q85 0 85 -95zM70 0v43q68 14 104 30.5t36 30.5v566q0 51 -2 82.5t-15 49t-41.5 25.5t-81.5 13v40q31 6 65.5 14.5t68.5 19t65 22.5t57 24h34v-856 q0 -12 33.5 -29.5t106.5 -31.5v-43h-430zM474 -299q-21 -27 -49.5 -53t-58.5 -46.5t-60 -33t-55 -12.5q-29 0 -57 6t-50 22t-35.5 44t-13.5 73q0 90 78.5 175.5t229.5 166.5l45 -19q-72 -44 -116 -86t-68 -79t-32 -68t-8 -55q0 -37 24 -54.5t62 -17.5q25 0 61.5 18t78.5 56 l24 -37v0z" />
<glyph unicode="&#x131;" horiz-adv-x="555" d="M70 0v43q68 14 104 30.5t36 30.5v566q0 51 -2 82.5t-15 49t-41.5 25.5t-81.5 13v40q31 6 65.5 14.5t68.5 19t65 22.5t57 24h34v-856q0 -12 33.5 -29.5t106.5 -31.5v-43h-430z" />
<glyph unicode="&#x147;" horiz-adv-x="1329" d="M50 0v43q74 9 109.5 28t35.5 33v1045q-34 31 -70 46t-75 22v43h212q15 0 24.5 -2.5t19 -10.5t21.5 -23.5l31 -41.5l657 -906v879q0 12 -32.5 31.5t-112.5 30.5v43h410v-43q-72 -10 -108.5 -29t-36.5 -33v-1185q-50 6 -78.5 20t-40.5 31l-701 972v-889q0 -12 33.5 -31 t111.5 -30v-43h-410zM719 1391h-107l-264 307l12 17t9.5 12t10 9t13.5 9l275 -211l270 211q17 -9 24 -18t19 -29z" />
<glyph unicode="&#x148;" horiz-adv-x="1130" d="M670 0v43q72 19 106 33t34 28v529q0 61 -7 99t-22 60t-39.5 30t-59.5 8q-31 0 -69 -15t-81.5 -48t-91 -86.5t-95.5 -131.5v-445q0 -15 37.5 -31t102.5 -30v-43h-430v43q66 17 103 30.5t37 30.5v607q0 39 -3 62t-16.5 36t-41.5 19t-79 12v40q68 11 126 31.5t114 48.5 l35 -35l11 -249q44 67 97 119.5t107 89t104.5 56t89.5 19.5q43 0 83 -13t70.5 -40t49 -68.5t18.5 -97.5v-637q0 -14 30.5 -27.5t109.5 -33.5v-43h-430zM631 1071h-107l-264 357l12 17t9.5 12t10 9t13.5 9l275 -251l270 251q17 -9 24 -18t19 -29z" />
<glyph unicode="&#x14a;" horiz-adv-x="1235" d="M1124 277q0 -104 -21.5 -190.5t-57 -156.5t-82 -124.5t-97.5 -93.5q-27 -21 -62 -38t-73.5 -29t-77.5 -18.5t-75 -6.5q-44 0 -88 11t-79.5 27.5t-58 35t-22.5 34.5q0 9 16 25t38 33t45 32t38 21q27 -27 58 -46.5t62 -32t61 -18.5t56 -6q47 0 94 30t84 90.5t60 152 t23 215.5v648q0 82 -12 135.5t-34.5 85.5t-53.5 45t-68 13q-40 0 -85.5 -17.5t-99.5 -62.5t-117.5 -123t-140.5 -200v-644q0 -12 36.5 -29.5t109.5 -31.5v-43h-451v43q68 14 107 30.5t39 30.5v926q0 39 -3 63.5t-16.5 39t-41.5 22t-79 12.5v43q68 13 139 32.5t125 47.5 l35 -35v-327q77 106 146 175.5t132 111t120.5 58.5t111.5 17q43 0 89 -13t84 -47.5t62.5 -94.5t24.5 -154v-704v0z" />
<glyph unicode="&#x14b;" horiz-adv-x="1120" d="M961 88q0 -117 -18.5 -197t-49 -135.5t-69.5 -93t-79 -69.5q-27 -23 -61 -40t-68 -29t-64.5 -18t-49.5 -6q-34 0 -73.5 10t-74 25t-57.5 32t-23 32q0 9 15 24.5t35.5 32.5t42.5 32t36 22q29 -27 59.5 -44t59 -27.5t52.5 -14.5t39 -4q28 0 62.5 18.5t64.5 65.5t50.5 127 t20.5 204v598q0 61 -7 99t-22.5 59.5t-40 29.5t-59.5 8q-31 0 -69.5 -14.5t-82 -47.5t-91 -86.5t-95.5 -131.5v-445q0 -15 38 -31t103 -30v-43h-430v43q66 17 103 30.5t37 30.5v607q0 39 -3 62t-16.5 36t-41.5 19t-79 12v41q68 11 126 31.5t114 48.5l35 -35l10 -250 q44 67 97 119.5t107 89t105 56t90 19.5q43 0 83 -13t71 -40t49.5 -68.5t18.5 -97.5v-653v0z" />
<glyph unicode="&#x160;" horiz-adv-x="975" d="M885 377q0 -45 -12 -92t-36.5 -92.5t-61 -86t-86 -70.5t-112 -48t-137.5 -18q-33 0 -72 7t-80 19.5t-81.5 30.5t-75.5 41q-7 4 -10.5 34t-3.5 70q0 41 3 83t11 69l41 -5q23 -59 57.5 -102t76.5 -71.5t90.5 -42t99.5 -13.5q45 0 90.5 18.5t82.5 50.5t60 74.5t23 90.5 q0 61 -27 105t-71 78t-100 61l-114.5 54t-114.5 57t-100 70t-71 92.5t-27 125.5q0 31 9 67t29 72t51.5 69.5t76 59t102.5 40.5t131 15q45 0 90.5 -7t85 -19t71.5 -29t50 -37q7 -6 0.5 -23.5t-20 -38t-30 -40.5t-28.5 -31l-36 6q-28 33 -58.5 55t-62 35.5t-62.5 19t-59 5.5 q-56 0 -96 -16t-66 -41.5t-38.5 -56t-12.5 -58.5q0 -47 27 -83.5t71.5 -67t101 -57.5l116 -56.5t116 -63.5t101 -78t71.5 -100.5t27 -130.5zM554 1391h-107l-264 307l12 17t9.5 12t10 9t13.5 9l275 -211l270 211q17 -9 24 -18t19 -29z" />
<glyph unicode="&#x161;" horiz-adv-x="791" d="M700 283q0 -71 -20 -121.5t-52 -85.5t-71 -56t-77 -32t-71.5 -14.5t-52.5 -3.5q-48 0 -115.5 18t-134.5 55q-7 3 -9.5 32.5t-1 68t6 77.5t11.5 62l43 -11q2 -42 22 -79t53.5 -65t78 -44t96.5 -16q36 0 66 11.5t52 32.5t34 50.5t12 64.5q0 40 -21.5 71t-56.5 56.5 t-79.5 48l-90.5 46.5q-42 21 -81 45t-69.5 54t-49 67t-18.5 85q0 62 25 110.5t66.5 81.5t95 50.5t110.5 17.5q31 0 68.5 -5.5t74 -15.5t68.5 -24t52 -32q6 -6 1.5 -27t-14 -46t-20.5 -47t-17 -30l-39 8q-48 72 -99.5 100.5t-100.5 28.5q-33 0 -59 -11t-44.5 -28.5t-28 -38.5 t-9.5 -42q0 -32 19 -57.5t50 -48t70.5 -43l81.5 -42.5q43 -22 87 -47t79 -57.5t57 -74t22 -97.5zM451 1071h-107l-264 357l12 17t9.5 12t10 9t13.5 9l275 -251l270 251q17 -9 24 -18t19 -29z" />
<glyph unicode="&#x172;" horiz-adv-x="1339" d="M1275 1217q-68 -14 -106.5 -31t-38.5 -31v-631q0 -131 -32 -234t-92 -174t-146 -108.5t-194 -37.5q-103 0 -189.5 28.5t-149 87t-97.5 147.5t-35 211v711q0 12 -36.5 30t-108.5 32v43h450v-43q-68 -14 -106.5 -31t-38.5 -31v-661q0 -96 22.5 -172t67 -129t109.5 -81 t151 -28q71 0 126 34.5t92.5 90.5t57 128t19.5 146v672q0 12 -36.5 30t-108.5 32v43h420v-43v0zM899 -299q-21 -27 -49.5 -53t-58.5 -46.5t-60 -33t-55 -12.5q-29 0 -57 6t-50 22t-35.5 44t-13.5 73q0 90 78.5 175.5t229.5 166.5l45 -19q-72 -44 -116 -86t-68 -79t-32 -68 t-8 -55q0 -37 24 -54.5t62 -17.5q25 0 61.5 18t78.5 56l24 -37v0z" />
<glyph unicode="&#x173;" horiz-adv-x="1085" d="M1069 82l-71 -44.5t-63 -35.5t-51 -23.5t-34 -8.5q-35 0 -57 46.5t-28 149.5q-62 -62 -113.5 -100.5t-95 -59.5t-80 -28.5t-68.5 -7.5q-47 0 -90 13t-76 47.5t-52.5 94.5t-19.5 154v432q0 48 -3 74.5t-15.5 40t-38.5 18.5t-72 10v40q36 4 67.5 10t61 14t59.5 18.5 t63 23.5l28 -39v-587q0 -70 10.5 -117t30 -75t48 -40t64.5 -12q32 0 65.5 9.5t69 30t74.5 53t83 79.5v449q0 45 -4.5 72t-19.5 42t-42.5 21t-73.5 8v40q72 9 138 28t122 38l30 -39v-667q0 -62 4.5 -101t18.5 -49q12 -8 41 -3.5t80 26.5l10 -45v0zM999 -299 q-21 -27 -49.5 -53t-58.5 -46.5t-60 -33t-55 -12.5q-29 0 -57 6t-50 22t-35.5 44t-13.5 73q0 90 78.5 175.5t229.5 166.5l45 -19q-72 -44 -116 -86t-68 -79t-32 -68t-8 -55q0 -37 24 -54.5t62 -17.5q25 0 61.5 18t78.5 56l24 -37v0z" />
<glyph unicode="&#x17d;" horiz-adv-x="1071" d="M991 293q-2 -32 -3.5 -71l-3 -78.5l-3 -77t-2.5 -66.5h-891l-29 45l711 1115h-459q-16 0 -35 -11t-37 -35t-34 -61.5t-27 -89.5l-57 12l29 301q27 -6 49.5 -9.5t44 -5t44.5 -1.5h52h616l25 -43l-705 -1117h523q21 0 38 9.5t32.5 32.5t31.5 63t35 102l55 -14v0zM609 1391 h-107l-264 307l12 17t9.5 12t10 9t13.5 9l275 -211l270 211q17 -9 24 -18t19 -29z" />
<glyph unicode="&#x17e;" horiz-adv-x="905" d="M829 248q0 -32 -1 -68t-2.5 -70t-3.5 -63t-5 -47h-715l-26 45l555 795h-346q-16 0 -32.5 -6t-32 -22.5t-29 -46t-23.5 -75.5l-49 12l18 244q22 -6 40 -9.5t37.5 -5t42.5 -1.5h56h492l22 -43l-557 -797h422q25 0 46 38.5t44 129.5l47 -10v0zM534 1071h-107l-264 357l12 17 t9.5 12t10 9t13.5 9l275 -251l270 251q17 -9 24 -18t19 -29z" />
<glyph unicode="&#x1dd;" horiz-adv-x="930" d="M444 74q115 0 178 77.5t75 229.5h-400q-31 0 -48.5 -24t-17.5 -64q0 -47 19 -87t49.5 -69.5t68.5 -46t76 -16.5zM850 485q0 -118 -39.5 -219.5t-108.5 -175.5q-57 -62 -126.5 -91t-159.5 -29q-72 0 -135 23.5t-110 65t-74 98t-27 122.5q0 40 9.5 73t26.5 56q29 15 64 31 t70 30h459q-2 82 -26.5 148t-65 112.5t-95 71t-115.5 24.5q-27 0 -55 -4t-61 -16t-73 -34.5t-91 -59.5q-13 6 -23 20.5t-16 22.5q61 64 112.5 104.5t98 63t90.5 30.5t90 8q73 0 141.5 -32.5t122 -93.5t85.5 -149.5t32 -199.5z" />
<glyph unicode="&#x1e6;" horiz-adv-x="1194" d="M1042 1188q7 -5 -2 -19.5t-25.5 -32.5t-36 -35.5l-32.5 -29.5l-33 6q-33 31 -68 51.5t-73.5 31.5t-81.5 15.5t-92 4.5q-25 0 -62.5 -11.5t-79 -37t-83.5 -67t-75 -102t-54 -141t-21 -184.5q0 -139 37.5 -242t97.5 -170.5t135.5 -101t151.5 -33.5q73 0 134.5 14.5 t110.5 41.5v339q0 11 -9.5 21.5t-33 20.5t-63 20t-100.5 20v43h461v-43q-57 -14 -81 -36.5t-24 -45.5v-325l-1 -1t-3 -2q2 -1 4 -3q-74 -61 -132.5 -97t-107.5 -55.5t-93 -25.5t-89 -6q-101 0 -199 37.5t-175.5 114t-125.5 191t-48 269.5q0 166 52.5 297.5t143.5 223 t212.5 139.5t258.5 48q33 0 72.5 -7t80.5 -20t80.5 -32t71.5 -43zM694 1391h-107l-264 307l12 17t9.5 12t10 9t13.5 9l275 -211l270 211q17 -9 24 -18t19 -29z" />
<glyph unicode="&#x1e7;" horiz-adv-x="999" d="M690 600q0 53 -17.5 100t-52 82t-86 55.5t-118.5 20.5q-25 0 -55.5 -12.5t-57.5 -37.5t-45 -62.5t-18 -86.5q0 -53 16.5 -100.5t50 -83t85 -56t122.5 -20.5q29 0 60.5 13t57 38t42 62.5t16.5 87.5zM518 -4q-38 4 -70 9t-60 11q-72 -39 -113.5 -70t-62.5 -55.5 t-26.5 -44.5t-5.5 -36q0 -42 28 -79.5t75 -65.5t109 -44.5t130 -16.5q67 0 122 18t94 50t60.5 75.5t21.5 95.5q0 28 -13 51.5t-47 42.5t-92.5 34t-149.5 25zM830 641q0 -77 -34.5 -140.5t-90.5 -109.5t-127 -71.5t-144 -25.5h-5q-47 -39 -65 -65.5t-18 -32.5 q0 -12 10.5 -23.5t39 -22t78.5 -21t128 -19.5q109 -12 180 -36t113 -55.5t58.5 -67.5t16.5 -71q0 -55 -21 -104.5t-57 -91.5t-85 -76t-105 -58t-116 -37t-119 -13q-47 0 -97 6.5t-99 20.5t-92.5 35.5t-76.5 52t-52.5 69t-19.5 87.5q0 26 9.5 54.5t38.5 61.5t81 71t138 84 q-65 23 -90 52t-25 59q0 8 5 21.5t20.5 32.5t43.5 44t74 57q-51 14 -92.5 40.5t-71 64.5t-45.5 85.5t-16 103.5q0 73 33 138.5t87 114t123 77t142 28.5q60 0 112.5 -17t95.5 -48q52 5 94 13t75.5 17t59.5 18t47 17l20 -30l-23 -51.5t-34 -48.5q-38 -7 -74.5 -11t-82.5 -6 q26 -38 40.5 -81t14.5 -91zM554 1071h-107l-264 357l12 17t9.5 12t10 9t13.5 9l275 -251l270 251q17 -9 24 -18t19 -29z" />
<glyph unicode="&#x1f0;" horiz-adv-x="530" d="M335 99q0 -115 -14.5 -195.5t-40 -137t-60.5 -95.5t-75 -71q-27 -21 -57 -39.5t-60 -32t-56.5 -21t-45.5 -7.5q-31 0 -60.5 7.5t-53 18.5t-38 23t-14.5 20q0 9 14.5 24.5t34.5 32.5t41.5 32t36.5 22q32 -28 66 -36.5t72 -8.5q29 0 57.5 18.5t51.5 64.5t37 125t14 200v627 q0 51 -2.5 82t-15.5 48.5t-41.5 25.5t-80.5 14v40q42 7 74.5 16t62 18.5t57 21l59.5 24.5h37v-861v0zM314 1071h-107l-264 357l12 17t9.5 12t10 9t13.5 9l275 -251l270 251q17 -9 24 -18t19 -29z" />
<glyph unicode="&#x21e;" horiz-adv-x="1339" d="M50 0v43q68 14 106.5 30.5t38.5 30.5v1051q0 12 -36.5 30t-108.5 32v43h450v-43q-68 -14 -106.5 -31t-38.5 -31v-450h610v450q0 12 -36.5 30t-108.5 32v43h450v-43q-68 -14 -106.5 -31t-38.5 -31v-1051q0 -12 36.5 -29.5t108.5 -31.5v-43h-450v43q68 14 106.5 30.5 t38.5 30.5v511h-610v-511q0 -12 36 -29.5t109 -31.5v-43h-450zM714 1361h-107l-264 307l12 17t9.5 12t10 9t13.5 9l275 -211l270 211q17 -9 24 -18t19 -29z" />
<glyph unicode="&#x21f;" horiz-adv-x="1130" d="M670 0v43q72 19 106 33t34 28v529q0 61 -7.5 99t-23.5 60t-40 30t-57 8q-35 0 -75.5 -18t-84.5 -53t-89 -87.5t-88 -122.5v-445q0 -15 37.5 -31t102.5 -30v-43h-430v43q66 17 103 30.5t37 30.5v1194q0 42 -3.5 65.5t-18 36.5t-42.5 18.5t-76 11.5v40q42 8 76.5 16 t64 17.5t56.5 20.5t56 26l37 -34v-832q43 64 95.5 115t105.5 87t103.5 55t89.5 19q43 0 83 -13t70.5 -40t49 -68.5t18.5 -97.5v-637q0 -14 30.5 -27.5t109.5 -33.5v-43h-430zM631 1601h-107l-264 307l12 17t9.5 12t10 9t13.5 9l275 -211l270 211q17 -9 24 -18t19 -29z" />
<glyph unicode="&#x2bc;" horiz-adv-x="457" d="M372 1328q-5 -69 -49.5 -138t-141.5 -130l-39 33q42 38 64 78t25 86q2 27 -5 51t-24 42t-44.5 29t-66.5 11l-11 42q8 10 34.5 22t59 22t63 16.5t46.5 4.5q27 -12 45 -30t28.5 -40.5t14 -48t1.5 -50.5z" />
<glyph unicode="&#x301;" horiz-adv-x="0" d="M-586 1047q-18 3 -32 11t-25 17l234 414q12 -1 31.5 -3.5l41 -5.5t41.5 -7t31 -7l23 -39z" />
<glyph unicode="&#x30c;" horiz-adv-x="0" d="M-460 1071h-107l-264 357l12 17t9.5 12t10 9t13.5 9l275 -251l270 251q17 -9 24 -18t19 -29z" />
<glyph unicode="&#x328;" horiz-adv-x="0" d="M-325 -299q-21 -27 -49.5 -53t-58.5 -46.5t-60 -33t-55 -12.5q-29 0 -57 6t-50 22t-35.5 44t-13.5 73q0 90 78.5 175.5t229.5 166.5l45 -19q-72 -44 -116 -86t-68 -79t-32 -68t-8 -55q0 -37 24 -54.5t62 -17.5q25 0 61.5 18t78.5 56l24 -37v0z" />
<glyph unicode="&#x2013;" d="M900 545q-5 -22 -13 -47.5t-16 -42.5h-785l-25 24q5 22 13.5 46t17.5 44h785l23 -24v0z" />
<glyph unicode="&#x2014;" horiz-adv-x="1569" d="M1508 545q-5 -22 -13.5 -47.5t-16.5 -42.5h-1392l-25 24q5 22 13.5 46t17.5 44h1392l24 -24v0z" />
<glyph unicode="&#x2018;" horiz-adv-x="469" d="M383 1051q-9 -12 -38.5 -28.5t-64 -31t-67.5 -23.5t-51 -7q-34 29 -52 63.5t-18 93.5q0 39 13.5 84t39.5 90t64 86t86 72l43 -35q-21 -22 -37 -49.5t-26.5 -55.5t-15.5 -54.5t-5 -47.5q0 -45 27 -77.5t86 -34.5l16 -45v0z" />
<glyph unicode="&#x2019;" horiz-adv-x="469" d="M377 1296q0 -39 -13.5 -84.5t-39.5 -90.5t-63 -86.5t-85 -71.5l-45 34q21 22 37 50t26.5 56t15.5 54.5t5 46.5q0 45 -27 78.5t-84 36.5l-16 45q9 12 38 27.5t63.5 30t68 24t51.5 8.5q32 -31 50 -66t18 -92z" />
<glyph unicode="&#x201a;" horiz-adv-x="469" d="M377 61q0 -39 -13.5 -84.5t-39.5 -90.5t-63 -86t-85 -72l-45 34q21 22 37 50t26.5 56t15.5 54.5t5 46.5q0 45 -27 78.5t-84 36.5l-16 45q9 12 38 27.5t63.5 30t68 24t51.5 8.5q32 -31 50 -66t18 -92z" />
<glyph unicode="&#x201c;" horiz-adv-x="893" d="M805 1051q-9 -12 -38.5 -28.5t-64 -31t-67.5 -23.5t-51 -7q-16 14 -29 29.5t-22 34t-14 41.5t-5 52q0 39 13.5 84t39.5 90t64 86t86 72l43 -35q-22 -22 -37.5 -49.5t-26 -55.5t-15.5 -54.5t-5 -47.5q0 -45 27 -77.5t85 -34.5l17 -45v0zM383 1051q-9 -12 -38.5 -28.5 t-64 -31t-67.5 -23.5t-51 -7q-34 29 -52 63.5t-18 93.5q0 39 13.5 84t39.5 90t64 86t86 72l43 -35q-21 -22 -37 -49.5t-26.5 -55.5t-15.5 -54.5t-5 -47.5q0 -45 27 -77.5t86 -34.5l16 -45v0z" />
<glyph unicode="&#x201d;" horiz-adv-x="893" d="M799 1296q0 -39 -13.5 -84.5t-39.5 -90.5t-63 -86.5t-85 -71.5l-43 34q21 22 36.5 50t26 56t16 54.5t5.5 46.5q0 45 -28 78.5t-85 36.5l-16 45q8 12 37 27.5t64 30t68.5 24t51.5 8.5q32 -31 50 -66t18 -92zM377 1296q0 -39 -13.5 -84.5t-39.5 -90.5t-63 -86.5t-85 -71.5 l-45 34q21 22 37 50t26.5 56t15.5 54.5t5 46.5q0 45 -27 78.5t-84 36.5l-16 45q9 12 38 27.5t63.5 30t68 24t51.5 8.5q32 -31 50 -66t18 -92z" />
<glyph unicode="&#x201e;" horiz-adv-x="920" d="M799 61q0 -39 -13.5 -84.5t-39.5 -90.5t-63 -86t-85 -72l-43 34q21 22 36.5 50t26 56t16 54.5t5.5 46.5q0 45 -28 78.5t-85 36.5l-16 45q8 12 37 27.5t64 30t68.5 24t51.5 8.5q32 -31 50 -66t18 -92zM377 61q0 -39 -13.5 -84.5t-39.5 -90.5t-63 -86t-85 -72l-45 34 q21 22 37 50t26.5 56t15.5 54.5t5 46.5q0 45 -27 78.5t-84 36.5l-16 45q9 12 38 27.5t63.5 30t68 24t51.5 8.5q32 -31 50 -66t18 -92z" />
<glyph unicode="&#x2020;" horiz-adv-x="977" d="M907 1074q-14 -34 -35.5 -76.5t-46.5 -80.5q-68 24 -137.5 34.5t-153.5 15.5q1 -70 9.5 -144t27.5 -143q-20 -111 -27.5 -222.5t-9.5 -207.5q-1 -58 3.5 -124t9.5 -127q-19 -14 -44 -22.5l-50 -16.5l-29 21q6 67 10.5 137.5t3.5 131.5q-2 99 -9.5 209.5t-27.5 220.5 q19 69 26.5 143.5t9.5 143.5q-46 -2 -88.5 -6t-84 -10t-83 -14.5t-86.5 -19.5l-25 43q14 34 35.5 76.5t46.5 80.5q67 -24 135 -35t150 -15q-2 91 -13.5 174t-37.5 157q38 25 80.5 46.5t76.5 35.5l43 -25q-23 -94 -35 -193t-16 -194q46 2 89.5 5.5t85.5 9.5t84.5 14.5 t87.5 19.5z" />
<glyph unicode="&#x2021;" horiz-adv-x="977" d="M907 1074q-14 -34 -35.5 -76.5t-46.5 -80.5q-69 22 -137 33.5t-152 16.5q1 -62 9.5 -120.5t27.5 -126.5q-18 -66 -26 -127.5t-10 -119.5q46 2 88.5 6t84.5 10t84.5 14.5t87.5 19.5l25 -43q-14 -34 -35.5 -76.5t-46.5 -80.5q-67 18 -136 31t-153 18q1 -96 13 -175t39 -155 q-38 -25 -80.5 -46.5t-76.5 -35.5l-43 25q24 96 36.5 191t14.5 196q-46 -2 -88.5 -6.5t-84.5 -10.5t-84 -14t-87 -18l-25 43q14 34 35.5 76.5t46.5 80.5q67 -24 135.5 -35t151.5 -15q-2 58 -10.5 120t-25.5 127q19 69 26.5 127t9.5 120q-92 -5 -173 -17.5t-171 -32.5l-25 43 q14 34 35.5 76.5t46.5 80.5q67 -24 135.5 -35t151.5 -15q-2 95 -15 175.5t-36 155.5q38 25 80.5 46.5t76.5 35.5l43 -25q-20 -94 -33 -190.5t-18 -196.5q92 4 173.5 15t171.5 34z" />
<glyph unicode="&#x2022;" horiz-adv-x="569" d="M498 662q0 -61 -17.5 -111t-49 -86t-75 -56t-96.5 -20q-48 0 -83.5 16.5t-59 46.5t-35.5 71t-12 89q0 60 18.5 110t50.5 86.5t75.5 56.5t94.5 20q45 0 80.5 -16.5t59.5 -46t36.5 -70.5t12.5 -90z" />
<glyph unicode="&#x2026;" horiz-adv-x="1370" d="M819 123q0 -35 -10.5 -64.5t-29 -52t-43.5 -35t-54 -12.5q-54 0 -77 29.5t-23 83.5q0 34 11 63.5t30 52t44 35.5t54 13q49 0 73.5 -29.5t24.5 -83.5zM369 123q0 -35 -10.5 -64.5t-29 -52t-44 -35t-54.5 -12.5q-54 0 -77 29.5t-23 83.5q0 34 11 63.5t30 52t44.5 35.5 t53.5 13q50 0 74.5 -29.5t24.5 -83.5zM1270 123q0 -35 -11 -64.5t-30 -52t-44.5 -35t-54.5 -12.5q-52 0 -76 29.5t-24 83.5q0 34 11 63.5t30 52t44.5 35.5t53.5 13q51 0 76 -29.5t25 -83.5z" />
<glyph unicode="&#x20ac;" d="M625 466h-327q12 -104 41 -175.5t69.5 -116t89.5 -64.5t102 -20q31 0 60.5 8.5t63 28t73.5 51.5t91 78q5 -2 10.5 -8.5t10.5 -13.5t9 -13.5t7 -9.5q-60 -68 -108.5 -114.5t-94.5 -74.5t-92.5 -40t-101.5 -12q-75 0 -141.5 29.5t-118.5 90.5t-85.5 154.5t-43.5 221.5h-93 l-22 25l10.5 32.5t11.5 33.5h90v4q0 65 6 125h-66l-22 25l10.5 32.5t11.5 33.5h78q21 113 64 198.5t104.5 143.5t140 87t170.5 29q50 0 89 -8t71.5 -21.5t59.5 -31.5t53 -39q6 -5 -3 -20t-24.5 -34t-33 -38l-29.5 -31l-35 6l-47.5 42.5t-48.5 34t-58.5 22.5t-77.5 8 q-34 0 -72 -15t-72.5 -54t-62.5 -106.5t-41 -172.5h354l25 -23l-25 -68h-362q-1 -21 -1.5 -43t-0.5 -45v-41h334l25 -23z" />
<glyph unicode="&#xe900;" horiz-adv-x="530" d="M335 99q0 -115 -14.5 -195.5t-40 -137t-60.5 -95.5t-75 -71q-27 -21 -57 -39.5t-60 -32t-56.5 -21t-45.5 -7.5q-31 0 -60.5 7.5t-53 18.5t-38 23t-14.5 20q0 9 14.5 24.5t34.5 32.5t41.5 32t36.5 22q32 -28 66 -36.5t72 -8.5q29 0 57.5 18.5t51.5 64.5t37 125t14 200v627 q0 51 -2.5 82t-15.5 48.5t-41.5 25.5t-80.5 14v40q42 7 74.5 16t62 18.5t57 21l59.5 24.5h37v-861v0z" />
<glyph horiz-adv-x="0" d="M-675 1047q-17 7 -24.5 16.5t-20.5 28.5l387 317l27 -15.5l35 -20t33 -20.5t23 -18l9 -45z" />
<glyph horiz-adv-x="0" d="M-460 1071h-107l-264 307l12 17t9.5 12t10 9t13.5 9l275 -211l270 211q17 -9 24 -18t19 -29z" />
</font>
</defs>
</svg>
