<?xml version="1.0" standalone="no"?>
<!DOCTYPE svg PUBLIC "-//W3C//DTD SVG 1.1//EN" "http://www.w3.org/Graphics/SVG/1.1/DTD/svg11.dtd" >
<svg xmlns="http://www.w3.org/2000/svg">
<metadata>
This is a custom SVG webfont generated by Font Squirrel.
Designer    : J Victor Gaultney
Foundry     : SIL Lakota Language Consortium
Foundry URL : httpwwwsilorg
</metadata>
<defs>
<font id="webfontplLFhby9" horiz-adv-x="823" >
<font-face units-per-em="2048" ascent="1638" descent="-410" />
<missing-glyph horiz-adv-x="410" />
<glyph unicode=" "  horiz-adv-x="410" />
<glyph unicode="&#x09;" horiz-adv-x="410" />
<glyph unicode="&#xa0;" horiz-adv-x="410" />
<glyph unicode="!" horiz-adv-x="410" d="M302 167q0 -33 -11.5 -68t-33 -63.5t-52 -47t-67.5 -18.5q-48 0 -74.5 31.5t-26.5 84.5q0 31 13 65t35 62t52.5 46.5t64.5 18.5q45 0 72.5 -30.5t27.5 -80.5zM268 387q-12 -9 -22 -15.5t-20.5 -12t-22.5 -10.5t-29 -10l-40 34l86 962q15 11 37.5 25.5t48.5 29.5t53 28 t51 20l53 -37z" />
<glyph unicode="&#x22;" horiz-adv-x="791" d="M645 858q-23 -13 -50 -18t-60 -5l34 542l31.5 14l37.5 15.5l37 14l30 10.5l55 -32zM328 857q-25 -12 -50.5 -17t-59.5 -5l34 542l31.5 14l37.5 15.5l37 14l30 10.5l56 -32z" />
<glyph unicode="#" d="M385 613h130l39.5 104l39.5 106h-129zM791 974h118l31 -41q-9 -25 -24 -56l-26 -54h-155l-19.5 -53.5l-19 -50.5l-19.5 -51l-21 -55h125l30 -44l-21.5 -50.5t-27.5 -56.5h-161l-53.5 -144l-53.5 -145q-23 -18 -50 -30t-59 -22l-37 37l112 304h-129l-54.5 -144l-53.5 -145 q-24 -18 -50.5 -30t-56.5 -22l-42 36l113 305h-111l-32 42q8 20 20.5 47t31.5 62h147q20 56 39 104l40 106h-117l-31 40l21.5 52.5t29.5 58.5h152l51 137.5l51 136.5q22 17 39.5 24.5t34.5 13.5q7 3 18 7t15 6l39 -39l-106 -286h130l50.5 137l50.5 137q21 16 38.5 24 t34.5 14q6 2 17 6.5t17 6.5l40 -39z" />
<glyph unicode="$" d="M272 944q0 -15 5 -31.5t17.5 -34t35 -37t58.5 -40.5l11 76l10 71.5l10 72l11 77.5q-37 -5 -66 -20.5t-49.5 -37t-31.5 -47t-11 -49.5zM588 353q0 51 -27.5 93t-93.5 85l-27.5 -195.5l-28.5 -197.5q38 11 70.5 32t56 49t37 62.5t13.5 71.5zM793 1149q10 -7 -1 -31 t-30 -51.5t-39.5 -52t-31.5 -31.5l-41 6q-21 28 -48.5 53t-55.5 41l-25 -169t-24 -171q68 -36 116 -70t78 -71.5t44 -80.5t14 -95q0 -75 -28 -145.5t-76 -129t-113.5 -101.5t-140.5 -63l-8.5 -57l-8.5 -55q-12 -10 -20 -16t-16.5 -10t-19.5 -7t-28 -7l-33 36l13 99h-5 q-25 0 -56 6.5t-63.5 17t-63 25.5t-54.5 32.5t-38.5 36t-14.5 37.5q0 13 13 38t32 49.5t40 42.5t37 18q14 0 24.5 -11l25.5 -28l25 -29t31.5 -30.5t40 -26.5t49.5 -18l32.5 230.5l32.5 230.5q-2 1 -5.5 2.5t-5.5 2.5q-62 31 -105.5 66t-70.5 71.5t-39 74t-12 72.5 q0 57 23 113t65.5 103t103.5 81.5t136 49.5l8 54t7 52q17 9 23 14q6 4 9.5 6t8 4t10.5 4t16 5l12 6l38 -38l-13 -98q66 -5 125 -30t102 -58z" />
<glyph unicode="%" horiz-adv-x="1315" d="M1044 396q0 78 -24 116t-57 38q-26 0 -46 -17.5t-34.5 -45.5t-24 -63.5t-15.5 -71t-8.5 -68t-2.5 -55.5q0 -72 22.5 -106t60.5 -34q25 0 44.5 16.5t33.5 43t24 60t16 68t8.5 66t2.5 53.5zM491 968q0 78 -24.5 116t-60.5 38q-26 0 -45.5 -17.5t-34 -45.5t-24 -63.5 t-15 -71t-8 -68t-2.5 -55.5q0 -72 24 -106t59 -34q25 0 44.5 16.5t34 43t24.5 60t16 68t9 66t3 53.5zM283 22q-22 -15 -55 -27t-60 -20q-8 -2 -22 -6t-19 -6l-32 58l946 1169q27 17 62 28.5t64 19.5l11.5 4t10.5 4l42 -56zM1217 386q0 -45 -11 -93.5t-31.5 -94.5 t-50.5 -87.5t-67 -72.5t-81.5 -49.5t-94.5 -18.5q-51 0 -91.5 22t-69 60t-43.5 90t-15 113q0 44 11 92t31.5 94t50 87t66.5 72t81.5 49.5t94.5 18.5q53 0 93.5 -21.5t69 -59.5t43 -89.5t14.5 -111.5zM661 958q0 -67 -24 -140t-68 -134.5t-106 -101.5t-139 -40q-51 0 -91 22 t-68 60t-43 90t-15 112q0 67 24 140t68.5 134t106 100.5t136.5 39.5q52 0 92.5 -21.5t68.5 -59.5t43 -89.5t15 -111.5z" />
<glyph unicode="&#x26;" horiz-adv-x="1190" d="M540 1116q-2 -16 -3 -31.5t-1 -29.5q0 -37 5 -74t14 -75q54 31 91.5 62.5t62 63t37.5 62t17 59.5q6 27 6 50q0 45 -21.5 74.5t-69.5 29.5q-30 0 -54 -16.5t-41 -43.5t-28 -61t-15 -69v-1zM452 121q70 0 129 20t110 55q-35 48 -71 103.5t-69 116t-62 125.5t-52 132 q-88 -72 -134 -141t-56 -143v1q-3 -22 -3 -44q0 -53 17 -95t46 -71t66.5 -44t78.5 -15zM1280 743q-33 -38 -62 -62t-56 -44q-29 17 -61 26.5t-58 14.5q2 -14 3.5 -29t1.5 -32q0 -37 -6 -93q-10 -68 -44 -141t-88 -143q39 -45 77 -83q36 -40 88 -40q11 0 30.5 3.5t44.5 8.5 l2 -78q-91 -42 -149.5 -61.5t-79.5 -19.5q-23 0 -64 34t-92 94q-77 -60 -165 -94t-192 -34q-78 0 -142 22t-110.5 64.5t-72 104.5t-25.5 142q0 18 1.5 35.5t3.5 36.5q14 112 99.5 219.5t234.5 211.5q-23 97 -23 180q0 21 1 41.5t4 38.5q12 81 46.5 151t83 122t108 81.5 t120.5 29.5q53 0 90 -17t60.5 -46.5t34.5 -68t11 -82.5q0 -14 -1 -29t-3 -29q-9 -51 -33.5 -100t-62 -94.5t-86 -87t-104.5 -78.5q-18 -10 -28 -16.5l-27 -17.5q22 -58 49.5 -117t59 -115.5t65.5 -109.5l68 -101q24 38 38 76t22 74v-1q3 23 3 40q0 34 -9 62.5t-24 49.5 t-34.5 32.5t-40.5 11.5l-30 50q17 18 42.5 37.5t47.5 28.5h407z" />
<glyph unicode="'" horiz-adv-x="410" d="M323 857q-24 -12 -49.5 -17t-60.5 -5l34 542l31.5 14t36.5 15.5l37 14t32 10.5l56 -32z" />
<glyph unicode="(" horiz-adv-x="604" d="M721 1530q-67 -46 -132 -129.5t-119.5 -195.5t-96.5 -247.5t-65 -287.5q-8 -64 -13.5 -132t-5.5 -128q0 -103 12 -199t35.5 -180.5t57.5 -154t79 -118.5l-56 -70q-79 42 -139.5 114t-100.5 166t-60.5 206t-20.5 234q0 57 4.5 118.5t12.5 119.5q24 159 76 310t126 278.5 t167.5 224t200.5 146.5z" />
<glyph unicode=")" horiz-adv-x="604" d="M512 627q-23 -162 -74.5 -310t-126 -271t-168.5 -215t-201 -143l-41 75q67 47 132 127.5t120.5 188.5t98.5 241t65 284q8 64 13 131.5t5 129.5q0 105 -12 204t-35 186t-57.5 159t-78.5 121l56 70q80 -43 140 -118t100 -172.5t59.5 -213t19.5 -240.5q0 -118 -15 -234z" />
<glyph unicode="*" horiz-adv-x="725" d="M445 1222l118.5 85l115.5 83q3 -3 12.5 -10t14.5 -11l37.5 -30t30.5 -33l-6 -58l-287 -126l116.5 -57l114.5 -56q-2 -7 -4.5 -21.5t-4.5 -22.5q-4 -22 -9.5 -46.5t-13.5 -45.5l-55 -32l-206 186q-2 -70 -4.5 -143t-4.5 -142q-2 -2 -8 -4.5t-9 -3.5l-51.5 -26t-54.5 -19 l-50 29l75 304l-118 -85.5l-116 -83.5q-10 11 -11.5 12.5t-3.5 2.5l-40.5 32.5t-38.5 38.5l9 60l284 124l-117.5 57l-114.5 56q2 8 5.5 25t5.5 28q4 20 9 41.5t14 41.5l54 32l205 -186q2 70 5 142.5t5 141.5q12 8 28 16.5t33.5 16.5t34 14.5t28.5 9.5l51 -32z" />
<glyph unicode="+" horiz-adv-x="780" d="M737 601q-8 -27 -22 -58t-25 -51h-234l-19 -128l-19 -128q-12 -6 -27 -12t-31 -11.5t-32 -9.5t-28 -6l-33 37l36 258h-234l-31 41q16 43 51 107h235q8 63 18.5 130.5l19.5 130.5q10 4 24.5 8.5l30.5 9.5t32 9.5t29 7.5l35 -37l-36 -259h231z" />
<glyph unicode="," horiz-adv-x="410" d="M318 119q0 -26 -12 -61t-33.5 -74.5t-50.5 -80.5t-62.5 -79.5t-70 -71t-73.5 -54.5l-57 59q157 166 157 262q0 14 -5 26.5t-17 21.5t-31.5 12.5t-48.5 -0.5l-14 72q8 8 25.5 20t40.5 24.5t49 25t50.5 22t45 15t31.5 4.5q21 -11 35.5 -22t23.5 -26.5t13 -38t4 -56.5z" />
<glyph unicode="-" horiz-adv-x="641" d="M595 549q-10 -27 -22 -51l-22 -43q-1 -1 -5 -6t-5 -6h-483l-30 40q10 26 24 53t29 53h483z" />
<glyph unicode="." horiz-adv-x="410" d="M299 167q0 -33 -11.5 -68t-33 -63.5t-51.5 -47t-67 -18.5q-48 0 -74.5 31.5t-26.5 84.5q0 31 13 65t35 62t52.5 46.5t64.5 18.5q45 0 72 -30.5t27 -80.5z" />
<glyph unicode="/" horiz-adv-x="819" d="M69 -270q-11 -9 -27 -16.5t-33 -14.5t-33.5 -12.5l-29.5 -9.5q-3 -2 -9 -4.5t-8 -3.5l-50 43l888 1829q29 19 65.5 32t69.5 22l52 -36z" />
<glyph unicode="0" d="M623 784q0 75 -11.5 132.5t-32 96t-47 58t-56.5 19.5q-51 0 -89.5 -35.5t-66.5 -92t-46 -127.5t-29 -142t-15.5 -136t-4.5 -109q0 -163 39.5 -244t109.5 -81q52 0 91 36.5t66.5 95t45.5 131.5t28 146.5t14 140t4 111.5zM812 782q0 -58 -6.5 -126t-21.5 -139.5t-40 -142.5 t-62 -135q-33 -55 -71.5 -104t-83 -86t-95.5 -58t-110 -21q-73 0 -126.5 35t-88.5 96.5t-52 145.5t-17 183q0 58 6 124t20.5 135t38 139t58.5 136q32 57 69.5 107.5t82.5 88t98 59t114 21.5q74 0 128 -34.5t89.5 -95.5t52.5 -145t17 -183z" />
<glyph unicode="1" d="M675 0h-626l12 89q70 9 116.5 18.5t75 19t41 18.5t14.5 16l52.5 388l52.5 388l5 34t2 23q0 8 -0.5 13.5t-3.5 10.5q-5 4 -42 4q-26 0 -72 -6.5t-117 -23.5l-20 87q41 13 98.5 35t116 47.5l111.5 50.5t86 43l43 -54l-142 -1045q-1 -6 7.5 -14.5t32 -17.5t65 -18t105.5 -18 z" />
<glyph unicode="2" d="M793 998q0 -40 -11 -86t-37.5 -100.5t-69.5 -120t-107 -146t-151 -178l-201 -216.5h319q11 0 21.5 8t19.5 21t17 29.5t14 33.5q15 40 27 92l80 -23l-55 -312h-651l-19 97q178 177 298 313t193 240.5t104 182t31 137.5q0 62 -39 101t-111 39q-31 0 -57.5 -18t-46.5 -46 t-32.5 -62.5t-16.5 -67.5q-5 -2 -13.5 -7.5l-13.5 -8.5q-25 -16 -50.5 -26t-69.5 -14l-32 46q5 36 23.5 75t47.5 76t67 70.5t81 58.5t90.5 39.5t94.5 14.5q52 0 98.5 -14t81.5 -44t55.5 -75.5t20.5 -108.5z" />
<glyph unicode="3" d="M742 993q0 -49 -13.5 -92t-38.5 -79.5t-59 -65.5t-76 -52q38 -15 68 -42t51.5 -62t33 -77t11.5 -87q0 -96 -31.5 -180.5t-89.5 -148t-141 -100.5t-185 -37q-74 0 -145.5 38t-152.5 124l57 99q41 -37 72.5 -60.5t59 -37t54.5 -19t59 -5.5q64 0 112.5 25t81.5 66.5t49.5 96 t16.5 113.5q0 51 -15 88t-40 61t-56 35.5t-63 11.5h-18q-3 0 -8 -1l-19 -4h1q-2 -1 -7 -2t-10 -2.5t-9 -3t-5 -1.5l-10 99q57 16 109 38.5t91.5 55t63 77t23.5 104.5q0 27 -7 53t-22 46t-39 32.5t-58 12.5q-30 0 -54 -12.5t-41.5 -33.5t-26.5 -49.5t-8 -60.5 q-41 -21 -75.5 -31.5t-79.5 -14.5l-32 46q6 45 40 95t86 92.5t115.5 70.5t129.5 28q64 0 111 -20.5t78 -55t46 -79t15 -92.5z" />
<glyph unicode="4" d="M205 482h274l17 125.5l15.5 110.5l15.5 110.5l18 126.5zM770 433q-24 -31 -39.5 -45t-30.5 -25l-13.5 -11.5l-13.5 -11.5h-52q-6 -53 -14 -110l-15 -110q-2 -7 22 -17t94 -27l-11 -76h-468l11 78q57 11 93.5 19t58 14.5t30.5 12t10 10.5l12.5 103t13.5 103h-418l-42 51 l550 786q33 14 59.5 28.5t49.5 28.5q7 3 20.5 10.5t18.5 10.5l42 -54l-97 -717h92z" />
<glyph unicode="5" d="M812 1181q-14 -19 -31 -38.5t-34 -36.5t-33 -31.5t-29 -24.5h-329q-6 -30 -15.5 -68.5l-19.5 -76.5l-19.5 -71t-16.5 -53q34 8 73 12.5t75 4.5q72 0 128 -26t94.5 -69.5t58.5 -100.5t20 -118q0 -60 -13 -122t-38 -119t-62 -107t-84.5 -86.5t-105.5 -58t-125 -21.5 q-86 0 -165 38t-157 124l58 98q48 -37 85.5 -61t67.5 -37t55 -18t48 -5q68 0 115.5 30.5t78.5 79.5t45 110t14 122q0 44 -12.5 80.5t-36 63.5t-58 42t-78.5 15q-94 0 -205 -84l-56 51l8 29t9 31l35 124.5l38 141.5l36 141t28 124h400q23 0 43 3.5t36 8.5q18 5 34 11z" />
<glyph unicode="6" d="M451 641q-52 0 -99.5 -23t-99.5 -82q-6 -38 -9 -77t-3 -77q0 -137 46.5 -203t126.5 -66q53 0 88.5 33t56.5 81t29.5 103t8.5 100q0 63 -13 104t-34 64.5t-46.5 33t-51.5 9.5zM810 1162q-97 -21 -177.5 -62.5t-144.5 -100t-111.5 -130.5t-77.5 -153q56 41 107 56.5 t96 15.5q135 0 203 -78.5t68 -220.5q0 -55 -13 -114.5t-38 -117.5t-60.5 -110t-81.5 -91.5t-100.5 -62.5t-117.5 -23q-67 0 -123 29t-96 81.5t-62.5 126.5t-22.5 163q0 107 23 210t67.5 196.5t109 174.5t146.5 144t181 105t213 57z" />
<glyph unicode="7" d="M878 1156l-111 -212.5l-110 -214.5l-104 -206l-93 -188.5l-77.5 -161t-56.5 -124.5q-35 -26 -78.5 -46.5t-94.5 -34.5l-51 51l146 236l125.5 218.5l111.5 204l103 193.5l24 46.5l22 42.5l22.5 43l25.5 47h-366q-11 0 -22 -1.5t-25 -15t-33.5 -45t-48.5 -90.5l-68 33 q2 6 6.5 21t6.5 23l15 56l17 63t18.5 62t19.5 54h641z" />
<glyph unicode="8" d="M310 934q0 -32 14.5 -58t39 -48t56.5 -41.5l67 -39.5q29 20 52.5 43t41 50t27 59t9.5 69q0 69 -40 105.5t-108 36.5q-34 0 -63 -15t-50.5 -39.5t-33.5 -56.5t-12 -65zM567 352q0 48 -15 83.5t-40 63.5t-57.5 49.5t-67.5 42.5q-40 -29 -73.5 -60.5t-58 -68.5t-38 -80.5 t-13.5 -95.5q0 -37 11.5 -70t32.5 -57t52 -38t70 -14q49 0 86 22t61.5 57t37 79t12.5 87zM787 993q0 -55 -16 -99.5t-43 -81t-63.5 -67t-77.5 -57.5q33 -23 63 -50t52.5 -61t35.5 -76t13 -95q0 -87 -35.5 -166t-96 -139t-139.5 -95.5t-166 -35.5q-72 0 -126.5 24t-90.5 64.5 t-54.5 93.5t-18.5 111q0 65 22 122t58.5 105.5t84.5 88.5t99 71q-27 19 -52 41.5t-44 51t-30 63.5t-11 78q0 76 31.5 141t84 113t120 75t140.5 27q65 0 113.5 -18.5t81 -51t49 -78t16.5 -99.5z" />
<glyph unicode="9" d="M420 579q66 0 114.5 33t86.5 89q4 34 5.5 65.5t1.5 66.5q0 73 -13 124t-33.5 82.5t-46.5 45.5t-53 14q-61 0 -101.5 -32.5t-65.5 -81.5t-35.5 -107t-10.5 -109q0 -58 15 -95t37.5 -58t49 -29t49.5 -8zM812 858q0 -170 -49 -323.5t-143.5 -274.5t-233.5 -201t-318 -104 l-11 95q104 24 188.5 68.5t149.5 105t111.5 134.5t74.5 157q-46 -39 -99 -61t-113 -22q-63 0 -114 22t-86.5 61t-55 92.5t-19.5 117.5q0 57 15 117.5t43 117.5t67.5 108t88 89t105.5 60.5t119 22.5q57 0 108 -23t89 -70t60.5 -119t22.5 -170z" />
<glyph unicode=":" horiz-adv-x="410" d="M398 862q0 -33 -11.5 -67.5t-32.5 -63t-51 -46.5t-68 -18q-50 0 -75.5 31t-25.5 84q0 31 12.5 65t35 62t52.5 46.5t65 18.5q45 0 72 -30t27 -82zM301 167q0 -33 -11.5 -68t-33 -63.5t-52 -47t-67.5 -18.5q-48 0 -74.5 31.5t-26.5 84.5q0 31 13 65t35 62t52.5 46.5 t64.5 18.5q45 0 72.5 -30.5t27.5 -80.5z" />
<glyph unicode=";" horiz-adv-x="410" d="M397 862q0 -33 -11.5 -67.5t-32.5 -63t-51 -46.5t-68 -18q-50 0 -75.5 31t-25.5 84q0 31 12.5 65t35 62t52.5 46.5t65 18.5q45 0 72 -30t27 -82zM319 119q0 -26 -12 -61t-33.5 -74.5t-50.5 -80.5t-62.5 -79.5t-70 -71t-73.5 -54.5l-57 59q157 166 157 262q0 14 -5 26.5 t-17 21.5t-31 12.5t-48 -0.5l-15 72q8 8 25.5 20t40.5 24.5t49 25t50.5 22t45 15t31.5 4.5q21 -11 35.5 -22t23.5 -26.5t13 -38t4 -56.5z" />
<glyph unicode="&#x3c;" horiz-adv-x="838" d="M750 319l-24.5 -21t-21 -17t-23 -15.5l-30.5 -18.5l-580 245l-29 36q0 5 0.5 9.5t2.5 9.5q1 1 1 6q2 2 4 6.5t2 5.5q1 3 2 5t1.5 5.5t1.5 5.5q2 6 4.5 12.5t4.5 13.5l2 4l2 4l2 4q2 4 3 7l2 3q1 4 1 7v5l722 276l33 -44q-2 -7 -7 -19.5l-8 -20.5q-6 -19 -14 -39.5 t-18 -38.5l-494 -189l224.5 -94.5l222.5 -94.5z" />
<glyph unicode="=" horiz-adv-x="838" d="M815 744l-23.5 -52.5t-27.5 -54.5h-675l-30 42l23 52t31 55h671zM775 455q-11 -29 -22 -52.5l-20 -41.5l-9 -17h-678l-25 44q8 25 21 54t29 53h670z" />
<glyph unicode="&#x3e;" horiz-adv-x="838" d="M795 634q0 -1 -0.5 -6t-0.5 -6l-5 -14v2v-2l-2 -5q2 2 2 4q0 -6 -4 -11q-1 -3 -2 -6.5t-2 -5.5t-1 -3t-1 -3t0 -1t-1 -1q0 -4 -2 -7q-1 -2 -1 -4q0 -1 -2 -3l-7.5 -17t-8.5 -16l2 4q-3 -9 -183 -79.5l-538 -208.5l-34 45q6 13 9.5 23t6.5 20q5 17 11.5 36.5t17.5 38.5 l497 187l-224 96l-222 94l-15 56q10 10 14 13.5t7 5.5l15 13t16 12l20 13.5t27 16.5l582 -247z" />
<glyph unicode="?" horiz-adv-x="813" d="M463 167q0 -33 -11.5 -68t-33.5 -63.5t-52 -47t-68 -18.5q-46 0 -73.5 31.5t-27.5 84.5q0 31 12.5 65t35 62t52.5 46.5t64 18.5q48 0 75 -30.5t27 -80.5zM820 1173q0 -73 -17.5 -130.5t-46 -105t-64.5 -88l-73 -79.5l-56.5 -60.5t-51 -64.5t-40.5 -72.5t-24 -84.5v1 l-6.5 -51l-6.5 -51q-12 -9 -22 -15.5t-20.5 -12.5t-23 -11.5t-29.5 -11.5l-37 35l5 121v-1q1 51 16 96.5t39 86.5t53.5 79l59.5 74l54 66.5t48.5 69.5t34.5 74.5t13 79.5q0 88 -37.5 135t-112.5 47q-30 0 -53.5 -12t-40 -33t-25.5 -50t-9 -63q0 -11 1.5 -26.5t6.5 -37.5 q-27 -12 -48.5 -20.5t-41 -13.5t-39.5 -8.5t-46 -5.5l-29 46q0 67 28.5 131t82 113.5t129 80t168.5 30.5q67 0 116 -20t81.5 -55t48 -81.5t15.5 -100.5z" />
<glyph unicode="@" horiz-adv-x="1593" d="M958 670l9 48t6 37q-26 20 -57.5 36.5t-67.5 16.5q-41 0 -76.5 -21t-64.5 -55.5t-51 -78.5t-37.5 -90.5t-23.5 -92t-8 -82.5q0 -58 9 -105.5t24.5 -81t36.5 -51.5t45 -18q21 0 47.5 28t55 72.5t58 100t55.5 109.5q9 57 20.5 117.5t19.5 110.5zM1147 755 q-15 -70 -27.5 -143.5t-21.5 -138t-14 -113t-5 -69.5q0 -49 3 -80.5t8.5 -49.5t13 -24.5t15.5 -6.5q23 0 56.5 31t67.5 84t62.5 123.5t41.5 150.5q5 37 7.5 71.5t2.5 66.5q0 126 -36.5 224t-98.5 164.5t-144 101t-174 34.5q-86 0 -163.5 -26.5t-144 -73.5t-122 -111 t-98 -139t-71 -157.5t-41.5 -166.5q-5 -36 -7.5 -70.5t-2.5 -64.5q0 -139 41.5 -247.5t114.5 -183t172 -113t213 -38.5q71 0 143.5 18.5t137.5 46.5t118.5 60t86.5 59l27 -94q-39 -39 -97.5 -82t-133 -79.5t-161.5 -60t-183 -23.5q-148 0 -270 47.5t-209 136.5t-135 216 t-48 285q0 38 2.5 77t8.5 78q18 110 59.5 216.5t102.5 202t139.5 176.5t169.5 140t193 92.5t210 33.5q119 0 221 -41.5t176.5 -121t117 -196t42.5 -266.5q0 -38 -3 -79t-9 -81q-13 -85 -42.5 -161.5t-70 -142.5t-88 -119t-96.5 -90.5t-96.5 -57.5t-87.5 -20 q-19 0 -37.5 10.5t-34.5 38.5t-27.5 77t-15.5 126q-25 -43 -56 -88t-64.5 -81.5t-70 -59.5t-73.5 -23q-36 0 -76 19.5t-73.5 62t-55 110.5t-21.5 164q0 78 15.5 154t48 145.5t83.5 130.5t122 109q27 18 60 35t67.5 30t69.5 21t67 8q40 0 74.5 -16.5t63.5 -35.5 q22 15 48.5 30t55.5 29l36 -65q-25 -19 -38.5 -32.5t-19.5 -27.5l-18 27z" />
<glyph unicode="A" horiz-adv-x="1147" d="M442 559h268l-20 115l-18 104l-18.5 105l-20.5 117zM1071 0h-415l7 80q67 5 96.5 15t26.5 30l-54 307h-344l-67.5 -156l-67.5 -156q-7 -16 22.5 -24.5t101.5 -17.5l-11 -78h-408l10 78q62 11 99.5 24t48.5 33l116.5 268l121.5 279l121.5 278.5l116.5 267.5 q14 13 34.5 27.5t43.5 28.5t45 26l38 21l215 -1200q2 -9 7 -17t17 -14.5t32.5 -11.5t52.5 -9z" />
<glyph unicode="B" horiz-adv-x="1014" d="M317 116q0 2 2 2l-2 1v-3zM549 1173h-47t-41 -1q-7 -55 -14.5 -108l-14.5 -105.5l-14.5 -105.5t-14.5 -109h8q65 0 125.5 10t106.5 36t73.5 72t27.5 118q0 54 -19 91t-48 59.5t-63.5 32.5t-64.5 10zM517 631q-37 0 -69 -2.5t-62 -7.5l-34.5 -251.5l-34.5 -249.5 q18 -9 39 -14.5t43.5 -9t45 -5t41.5 -1.5q60 0 108.5 25t83 66t53.5 94t19 109q0 45 -13 89t-40.5 79.5t-72 57t-107.5 21.5zM941 418q0 -99 -38.5 -181.5t-104.5 -141.5t-153 -92t-184 -33q-20 0 -47 1t-58 3t-64 5l-64 6q-6 1 -13 1q-6 0 -12 1q-32 3 -60 6l-47 5h1 q-5 0 -16.5 0.5t-26 1t-31.5 0.5h-33l11 78q61 14 97 26t38 20l71 516.5l71 517.5q-72 -12 -148 -30v100q49 14 99 26t104 21t114 14t128 5q83 0 149.5 -18t113.5 -52t72 -82.5t25 -110.5q0 -47 -13.5 -92t-37.5 -84.5t-57.5 -72.5t-74.5 -56q42 -18 76.5 -48.5t59.5 -70 t39 -87.5t14 -102z" />
<glyph unicode="C" horiz-adv-x="995" d="M1019 1189q6 -8 -5.5 -29.5t-30.5 -47t-40.5 -49.5t-36.5 -37l-45 11q-39 44 -93.5 72t-129.5 28q-17 0 -38 -5t-42.5 -13t-43 -19.5t-39.5 -25.5q-56 -47 -97.5 -117.5t-68.5 -148t-40.5 -153.5t-13.5 -134q0 -101 27 -174.5t69 -121t93 -70.5t99 -23q26 0 57.5 8.5 t69.5 27t84.5 49t101.5 74.5q22 -10 30.5 -24t13.5 -25q2 -5 5 -9q2 -4 4 -7t2 -5q-71 -71 -132.5 -118.5t-116.5 -76t-105 -40.5t-98 -12q-76 0 -146.5 33t-124.5 96t-86.5 154.5t-32.5 208.5q0 94 18.5 190.5t57.5 188t99.5 175t144.5 150.5q74 57 158.5 90.5t180.5 33.5 q101 0 172.5 -29.5t116.5 -72.5z" />
<glyph unicode="D" horiz-adv-x="1118" d="M476 1173q-8 0 -6 0.5t-6 -0.5l-69.5 -510.5l-69.5 -510.5q-2 -9 3 -14.5t20 -9.5t41.5 -5.5t67.5 -1.5q69 0 127.5 26.5t106 71.5t84 105.5t61 127.5t37 138t12.5 137q0 99 -25 181t-73 141t-119 91.5t-163 32.5h-29zM1082 744q0 -88 -17 -177t-51 -172t-84.5 -155 t-117 -125.5t-149 -84t-180.5 -30.5h-440v2l-51 -2l11 78q61 14 97 26t38 20l70.5 516l70.5 518q-16 -2 -35 -4t-38.5 -4.5t-38 -4.5t-33.5 -4v98q124 30 237.5 42.5t213.5 12.5q118 0 210.5 -39t156 -111t97 -173.5t33.5 -226.5z" />
<glyph unicode="E" horiz-adv-x="946" d="M868 268q-23 -97 -44.5 -166.5t-34.5 -101.5h-799l11 78q61 14 97 26t38 20l71.5 511l70.5 512q1 5 -30 16t-94 25l10 77h743l38 -38q-5 -27 -13.5 -60.5t-19 -67.5t-21.5 -64.5t-21 -51.5h-77q4 32 5.5 51.5t1.5 30.5q0 42 -9.5 57t-26.5 15h-309l-26 -190.5l-26 -192.5 h352l32 -47q-12 -16 -27.5 -34.5t-32 -36l-32.5 -33.5t-29 -27q-17 19 -35.5 31t-44.5 18.5t-61.5 9t-87.5 2.5h-50q-15 -118 -32 -235.5t-32 -235.5q0 -8 6 -15t23 -12.5t47 -9t78 -3.5h117q38 0 64 5t48 23t43 52.5t49 93.5z" />
<glyph unicode="F" horiz-adv-x="891" d="M953 1227q-5 -27 -14 -60l-19 -66.5t-21 -64.5t-20 -53h-74q2 27 3.5 45t1.5 29q0 47 -10 63.5t-28 16.5h-317l-13.5 -96.5l-12.5 -94.5l-12.5 -94.5l-13.5 -97.5h301l36 -47q-26 -32 -59 -69t-61 -61q-37 38 -79.5 49t-103.5 11h-52l-70 -519q-1 -4 33 -13.5t119 -27.5 l-11 -77h-466l11 78q61 14 97 26t38 20l71.5 511l70.5 512q1 5 -30 16t-94 25l11 77h751z" />
<glyph unicode="G" horiz-adv-x="1073" d="M1061 529q-53 -15 -76.5 -33t-25.5 -35l-40 -287q2 -2 3.5 -4.5t3.5 -4.5q-81 -64 -141.5 -103t-109 -59t-89.5 -26.5t-82 -6.5q-84 0 -162.5 34t-139 99t-96.5 160t-36 217q0 95 22.5 190.5t62.5 183.5t96 163.5t123 129.5q85 66 188.5 106.5t224.5 40.5q31 0 67 -7 t72 -20.5t69.5 -33t59.5 -43.5q8 -9 -3 -31t-30 -47.5t-41.5 -49.5t-38.5 -36l-41 9q-50 60 -111.5 82t-144.5 22q-35 0 -84 -23.5t-99 -64.5q-48 -38 -86.5 -100.5t-65.5 -136t-41.5 -150t-14.5 -143.5q0 -99 29.5 -171.5t76.5 -120.5t105 -71.5t115 -23.5q46 0 91.5 13.5 t77.5 34.5l19 142.5l19 142.5q0 6 -7 12t-29.5 13t-64.5 15.5t-113 19.5l11 78h488z" />
<glyph unicode="H" horiz-adv-x="1235" d="M597 1187q-61 -14 -97.5 -26.5t-38.5 -20.5l-28 -207.5l-28 -207.5h501l29 211l29 211q1 5 -29.5 16t-91.5 25l6 77h442l-11 -78q-61 -14 -97 -26.5t-38 -20.5l-71 -511.5l-71 -510.5q-2 -5 29.5 -16t94.5 -25l-10 -77h-439l12 78q60 14 95.5 26t37.5 20l32.5 236.5 l32.5 236.5h-502l-31.5 -237.5l-31.5 -237.5q-2 -7 29.5 -19t92.5 -26l-11 -77h-439l11 78q61 14 97 26t38 20l71 511l71 512q1 5 -30 16t-94 25l10 77h439z" />
<glyph unicode="I" horiz-adv-x="573" d="M608 1187q-61 -14 -97 -26.5t-38 -20.5l-71.5 -511.5l-71.5 -510.5q-1 -5 30 -16t95 -25l-11 -77h-438l11 78q61 14 97 26t38 20l70 511l70 512q1 5 -30.5 16t-92.5 25l12 77h437z" />
<glyph unicode="J" horiz-adv-x="578" d="M629 1187q-62 -14 -98.5 -26.5t-38.5 -20.5l-63.5 -462l-63.5 -462q-16 -117 -41.5 -197t-58.5 -135t-71.5 -92t-79.5 -69q-27 -22 -60 -39.5t-64.5 -29.5t-60 -18.5t-46.5 -6.5q-31 0 -59 11t-49 27t-33.5 32.5t-12.5 27.5q0 12 16.5 31.5t38.5 38t45 32.5t37 14 q11 0 21.5 -5.5t21.5 -15.5v1q14 -11 33.5 -23t52.5 -12q20 0 45 17t50 59t48 112t39 176l69 497.5l68 497.5q0 2 -6.5 5.5t-25 8t-51 11t-83.5 15.5l6 78h485z" />
<glyph unicode="K" horiz-adv-x="1102" d="M596 1187q-62 -14 -98.5 -26.5t-38.5 -20.5l-29.5 -217t-29.5 -221l405 428q15 17 22.5 26.5t7.5 15.5q0 4 -23.5 7t-67.5 7l11 79h413l-11 -79q-33 -4 -57.5 -8.5t-43.5 -10.5t-34 -15t-29 -23l-227.5 -229l-228.5 -230l164 -244l164 -244q12 -17 24 -26t31 -9 q20 0 52 10.5t83 30.5l33 -66q-84 -64 -155 -100t-113 -36q-34 0 -59 15.5t-51 57.5l-161.5 263l-164.5 267l-31.5 -236l-31.5 -231q-2 -7 29.5 -19t92.5 -26l-11 -77h-439l11 78q61 14 97 26t38 20l71.5 511l70.5 512q1 5 -30 16t-94 25l11 77h438z" />
<glyph unicode="L" horiz-adv-x="918" d="M859 268q-22 -95 -44.5 -165t-37.5 -103h-788l11 78q61 14 97 26t38 20l71 511l71 512q1 5 -30 16t-94 25l10 77h439l-11 -78q-61 -14 -97.5 -26.5t-38.5 -20.5l-66.5 -487l-66.5 -487q0 -10 7 -17.5t22.5 -12.5t42 -7.5t66.5 -2.5h124q38 0 64 5t48 23t43.5 52.5 t49.5 93.5z" />
<glyph unicode="M" horiz-adv-x="1511" d="M1530 1184q-30 0 -65 -7.5t-65 -21.5l-58 -519l-58 -518q-1 -5 32 -16t96 -25l-11 -77h-438l10 78q61 14 99.5 25.5t40.5 19.5l47 410l46 412l-482 -945h-66l-250 941l-60 -412l-59 -411q-1 -5 29 -16t94 -25l-11 -77h-399l11 78q63 14 97.5 26t36.5 20l75.5 515.5 l74.5 517.5q-26 15 -59 21t-62 6l10 81h276q12 0 20.5 -4.5t15 -15.5t12.5 -29.5t14 -47.5l114 -409.5l114 -413.5l212.5 414l212.5 413q15 30 25.5 48t20 28t18.5 13.5t21 3.5h275z" />
<glyph unicode="N" horiz-adv-x="1239" d="M1288 1186q-65 -10 -96 -22.5t-33 -23.5l-163 -1173q-28 4 -50 9t-39.5 14t-32 24t-28.5 40l-455 878l-55 -405l-55 -405q-2 -8 26 -20.5t94 -23.5l-11 -78h-395l11 79q66 9 97.5 22t33.5 23l71 506l70 506q-23 23 -53.5 33t-75.5 19l11 77h190q25 0 40.5 -3t26.5 -12.5 t21.5 -26.5t24.5 -45l220 -419.5l222 -423.5l56 405.5l56 405.5q1 7 -27 18t-96 23l11 78h394z" />
<glyph unicode="O" horiz-adv-x="1116" d="M907 755q0 78 -16 146.5t-47.5 120t-77.5 81.5t-106 30q-70 0 -126.5 -27.5t-99.5 -74t-74 -107.5t-51 -127t-29 -133.5t-9 -126.5q0 -87 17.5 -160.5t50 -127t78 -83.5t101.5 -30q72 0 128.5 29.5t100 78t74 112.5t49.5 132.5t28 137.5t9 129zM1091 772 q0 -68 -13 -140.5t-36.5 -144t-57.5 -138t-76 -122.5q-41 -52 -89.5 -98.5t-103 -81.5t-115 -56t-126.5 -21q-98 0 -171.5 41.5t-122 112.5t-72.5 166t-24 201q0 62 11 132.5t32.5 140.5t52.5 136.5t71 120.5q42 56 90.5 106t105 87t120 58.5t135.5 21.5q101 0 174 -41.5 t121 -112.5t71 -166t23 -202z" />
<glyph unicode="P" horiz-adv-x="965" d="M462 1173l-35 -251.5l-34 -252.5q41 -16 76.5 -26.5t61.5 -10.5q60 0 109.5 19.5t85.5 55t56 85t20 108.5q0 76 -24.5 128t-66.5 84.5t-97.5 46.5t-117.5 14h-27q-6 0 -3.5 0.5t-3.5 -0.5zM981 936q0 -87 -33.5 -163t-92 -132.5t-137 -88.5t-167.5 -32q-38 0 -81.5 11.5 t-75.5 29.5l-8 56l-34.5 -251.5l-33.5 -249.5q-1 -2 6 -5.5t24 -8t46.5 -11t73.5 -14.5l-11 -77h-466l11 78q60 14 96.5 26t38.5 20l71 517l71 518q-33 -5 -68 -12t-80 -19v97q45 16 91.5 29t98.5 22t110.5 13.5t125.5 4.5q98 0 176.5 -23t133.5 -68t84.5 -112t29.5 -155z " />
<glyph unicode="Q" horiz-adv-x="1135" d="M907 755q0 78 -16 146.5t-47.5 120t-77.5 81.5t-106 30q-70 0 -126.5 -27.5t-99.5 -74t-74 -107.5t-51 -127t-29 -133.5t-9 -126.5q0 -87 17.5 -160.5t50 -127t78 -83.5t101.5 -30q72 0 128.5 29.5t100 78t74 112.5t49.5 132.5t28 137.5t9 129zM1114 -94 q-31 -47 -62 -83.5t-59 -61.5t-51 -37.5t-39 -12.5q-37 0 -73.5 14.5t-71 37.5t-67 51.5t-62.5 57.5q-26 25 -57 52t-61 48q-8 -1 -17 -1.5t-20 -0.5q-98 0 -171 41.5t-122 112.5t-73 166t-24 201q0 62 11.5 132.5t33 140.5t52.5 136.5t71 120.5q42 56 90.5 106t104.5 87 t119.5 58.5t135.5 21.5q101 0 174.5 -41.5t121 -112.5t70.5 -166t23 -202q0 -68 -13 -140.5t-36.5 -144t-57.5 -138t-76 -122.5q-46 -58 -102.5 -111.5t-116.5 -88.5q18 -12 35 -25l35 -27q45 -36 87.5 -64t82.5 -28q10 0 21.5 4.5t28 14t40 26l57.5 40.5z" />
<glyph unicode="R" horiz-adv-x="1077" d="M480 1173h-9q0 1 -8 0l-32 -239.5l-33 -240.5q43 -10 88 -10q58 0 110.5 15.5t93 47t64.5 79t24 111.5q0 66 -25 111.5t-63.5 73.5t-85 40t-89.5 12h-35zM1088 119q-42 -28 -82.5 -52t-75.5 -42t-62 -28.5t-42 -10.5q-19 0 -37 5.5t-35 21t-35 42.5t-39 70l-18 37l-16 34 l-28.5 58.5l-29.5 62.5l-25 52l-25 52l-42.5 90l-30.5 62q-20 2 -41 5t-42 7l-30.5 -232l-31.5 -231q-2 -7 29.5 -19t92.5 -26l-11 -77h-439l11 78q61 14 97 26t38 20l71 516l71 517q-35 -5 -75.5 -12.5t-72.5 -14.5v98q47 14 94.5 26t98.5 21t108.5 14t124.5 5 q90 0 163.5 -21.5t125.5 -63t80.5 -103t28.5 -142.5q0 -38 -16.5 -93.5t-53.5 -111t-97.5 -103t-148.5 -69.5l107.5 -189.5l107.5 -189.5q17 -31 32 -45t35 -14t51 9.5t82 28.5z" />
<glyph unicode="S" horiz-adv-x="899" d="M872 1200q6 -4 2.5 -17t-12.5 -30.5t-22.5 -37.5t-27.5 -37.5t-27 -31t-21 -18.5l-41 10q-16 23 -36 43.5t-43 37t-48 26t-51 9.5q-48 0 -85 -15.5t-62.5 -39.5t-39 -53.5t-13.5 -58.5q0 -19 6.5 -39.5t26.5 -44t57.5 -50t99.5 -57.5q80 -42 135 -79.5t89.5 -77.5t50 -86 t15.5 -105q0 -95 -39.5 -181.5t-107 -152.5t-157 -105t-189.5 -39q-40 0 -90.5 14.5t-95.5 37.5t-76 52t-31 57q0 14 13.5 39.5t32.5 51.5t40.5 45t36.5 19q14 0 26 -11.5t27 -31.5q12 -16 28.5 -35.5t38.5 -36t50.5 -28t64.5 -11.5q55 0 102.5 18.5t83 50.5t55.5 75.5 t20 93.5q0 70 -56.5 131t-185.5 125q-63 31 -106.5 67.5t-70 75t-38 78t-11.5 75.5q0 68 31 134.5t88 119.5t137 85.5t178 32.5q75 0 137 -28t111 -66z" />
<glyph unicode="T" horiz-adv-x="1067" d="M1125 1227q-4 -26 -11.5 -59.5l-15.5 -68t-17 -67.5t-18 -60h-72q-2 49 -5 81t-8.5 50.5t-14 26t-22.5 7.5h-234l-68 -504l-69 -505q-2 -6 29.5 -20t110.5 -32l-10 -76h-474l11 78q83 18 116.5 33t35.5 23l69.5 501.5l69.5 501.5h-240q-9 0 -18.5 -5.5t-22 -23.5t-31 -53 t-45.5 -94l-66 33q3 29 10.5 64.5t16.5 72.5t19.5 72t20.5 62h920z" />
<glyph unicode="U" horiz-adv-x="1227" d="M1282 1187q-60 -14 -93.5 -26.5t-35.5 -20.5l-43.5 -312.5l-43.5 -312.5q-19 -129 -63 -230t-109 -171t-149 -107t-183 -37q-85 0 -155 25.5t-120 75t-78 121.5t-28 166q0 27 2 56.5t7 58.5l47.5 337l47.5 337q1 5 -30 16t-94 25l11 77h438l-10 -78q-62 -14 -98.5 -26.5 t-38.5 -20.5l-42.5 -313.5l-42.5 -313.5v1q-6 -57 -6 -108q0 -64 15.5 -116t45.5 -89t75 -57.5t103 -20.5q59 0 108.5 30t87.5 79.5t63.5 114t36.5 132.5l44 331.5l45 331.5q1 7 -27 19.5t-91 26.5l10 77h405z" />
<glyph unicode="V" horiz-adv-x="1214" d="M1300 1187q-64 -13 -100 -24t-47 -33v1l-243.5 -531l-242.5 -531q-12 -24 -36.5 -42t-51.5 -30t-52.5 -19.5l-39.5 -11.5l-238 1169q-4 19 -30 31t-87 21l11 78h427l-10 -80q-67 -5 -95.5 -15t-24.5 -27l173 -871l202 438l201 438q6 13 -25.5 21t-98.5 18l11 78h410z" />
<glyph unicode="W" horiz-adv-x="1571" d="M1663 1187q-8 -2 -22 -5t-21 -5l1 1q-43 -11 -72 -19.5t-34 -22.5v1l-175 -533l-175 -533q-10 -25 -31.5 -43.5t-46.5 -30.5t-49.5 -20t-40.5 -12l-153 908l-174 -402l-174 -402q-12 -24 -36 -42t-51 -30.5t-52.5 -20t-40.5 -11.5l-72 1169q-2 17 -27 28.5t-89 25.5 l10 77h420l-10 -79q-42 -4 -67.5 -10t-40 -12t-19 -13t-3.5 -14l53 -789l100.5 232l98.5 227l98.5 226.5l100.5 231.5h83l164 -918l130.5 402l130.5 401q2 4 -7.5 8.5t-27.5 9t-43 9.5l-54 11l11 77h413z" />
<glyph unicode="X" horiz-adv-x="1171" d="M1089 0h-440l11 79q60 6 86 13t26 20q0 9 -7 22l-187 381l-133.5 -191.5l-133.5 -191.5q-12 -15 -12 -26t32 -16.5t94 -10.5l-11 -79h-440l11 80q63 5 107.5 21.5t67.5 52.5l348 502l-112 228.5l-112 228.5v-1q-10 19 -20.5 31t-25.5 20t-36.5 13.5t-54.5 10.5l11 78h440 l-11 -79q-59 -7 -87 -13.5t-28 -18.5q0 -11 8 -24l162 -326l115 164.5l114 164.5q12 17 12 25q0 11 -33.5 17t-93.5 11l12 79h440l-11 -79q-33 -4 -59.5 -9.5t-47.5 -14t-37.5 -21t-30.5 -31.5v1l-156 -223l-156 -223l254 -513q17 -37 48.5 -51.5t88.5 -22.5z" />
<glyph unicode="Y" horiz-adv-x="1145" d="M748 0h-473l10 78q84 19 118 33.5t36 22.5l28.5 210.5l28.5 210.5q-17 69 -45 150t-61 160t-68.5 149t-67.5 118h1q-11 17 -25.5 24.5t-43.5 7.5q-25 0 -76 -6l-16 77q30 8 65.5 16t70 14.5t64.5 10.5t49 4q17 0 33.5 -12t32.5 -34q29 -45 62 -110t64 -136t57.5 -140 t41.5 -122l137.5 212l138.5 212q7 12 -16 20t-83 17l10 78h390l-10 -78q-64 -14 -99 -26t-49 -33l-188.5 -294l-188.5 -294l-28.5 -205.5l-28.5 -206.5q-1 -3 6 -8t23.5 -11.5t43.5 -14.5t67 -17z" />
<glyph unicode="Z" horiz-adv-x="1022" d="M287 136h435q16 0 30.5 9.5t31 33.5t36.5 65.5t46 105.5l81 -22q-6 -32 -13.5 -77l-15.5 -91.5l-15.5 -89l-12.5 -70.5h-842l-26 65l754 1070h-374q-12 0 -29 -10.5t-35.5 -34.5t-38 -62.5t-37.5 -93.5l-86 19l80 344q29 -12 51.5 -18.5t43.5 -9.5t41.5 -3.5t44.5 -0.5 h570l25 -66z" />
<glyph unicode="[" horiz-adv-x="586" d="M698 1557q-8 -31 -22.5 -62.5t-25.5 -47.5h-247l-114 -811l-114 -812h234l42 -42q-8 -26 -21 -56.5t-26 -52.5h-415l269 1921h400z" />
<glyph unicode="\" horiz-adv-x="819" d="M644 -329q-12 4 -30.5 11t-37.5 15t-36 17t-27 19l-383 1830l56 32q32 -9 66.5 -23t64.5 -34l380 -1829z" />
<glyph unicode="]" horiz-adv-x="586" d="M344 -327h-400l-43 43l23.5 58.5t24.5 49.5h248l114 811l114 812h-231l-43 38q9 32 22 60.5t24 48.5h414z" />
<glyph unicode="^" horiz-adv-x="938" d="M865 630q-33 -28 -62.5 -46t-70.5 -37l-44 39l-145 653l-148.5 -307l-148.5 -306q-12 -11 -29.5 -23t-35.5 -23t-35.5 -20.5l-29.5 -15.5l-34 49l416 860q14 13 35 27.5l44 29t45.5 26.5l39.5 21z" />
<glyph unicode="_" horiz-adv-x="893" d="M742 -128q-8 -27 -22 -57.5t-26 -53.5h-731l-26 43q8 26 21 54.5t29 52.5h726z" />
<glyph unicode="`" horiz-adv-x="606" d="M584 1029q-15 -9 -26.5 -14.5t-22 -9t-21 -5t-24.5 -2.5l-257 396l46 53q12 2 33 3.5t44 3.5t45.5 3t37.5 1z" />
<glyph unicode="a" horiz-adv-x="922" d="M336 132q20 0 50 28t64 72.5t68 99.5t61 110l19.5 116.5l19.5 110.5q6 31 10 49.5t6 33.5q-27 21 -61.5 38.5t-73.5 17.5q-41 0 -78.5 -21t-68.5 -55.5t-56 -78.5t-42.5 -90.5t-27 -92t-9.5 -82.5q0 -58 9 -105.5t25 -81t38 -51.5t47 -18zM808 755q-15 -70 -27.5 -143.5 t-22 -138t-15 -113t-5.5 -69.5q0 -50 2 -84t5.5 -55t8.5 -30t12 -9q18 0 46.5 6.5t77.5 27.5l23 -70q-94 -62 -151 -89.5t-89 -27.5q-19 0 -37.5 10.5t-33.5 38.5t-24.5 78t-12.5 129q-28 -44 -63.5 -89.5t-74 -82.5t-78 -60.5t-77.5 -23.5q-35 0 -75 19.5t-73.5 62 t-56 110.5t-22.5 164q0 79 18.5 155t55.5 145.5t91 130t125 108.5q27 18 60 35t68 30t70 21t66 8q38 0 77 -17.5t69 -36.5l49 31t57 30l36 -65q-25 -19 -38.5 -32.5t-20.5 -27.5l-17 27z" />
<glyph unicode="b" horiz-adv-x="956" d="M601 781q-17 0 -49.5 -23t-71.5 -63.5t-80.5 -97t-76.5 -124.5q-11 -70 -16.5 -123t-5.5 -81q0 -23 13.5 -48.5t36 -47.5t51 -36t58.5 -14q32 0 59.5 11.5t51 30.5t42.5 42t34 46q21 33 34.5 69.5t21 73t10 72.5t2.5 67q0 62 -10.5 108.5t-27 77t-36.5 45.5t-40 15z M894 613q-2 -106 -31.5 -213t-101.5 -209q-34 -45 -76 -87t-91.5 -74t-106.5 -51t-121 -19q-33 0 -76.5 24.5t-82.5 63.5t-66 87t-27 96q0 26 5.5 77.5t15 120.5t22 150.5l25.5 166.5l28 183.5l25 170t17.5 139t6.5 90.5q0 16 -3 25t-8 13.5t-11 6t-11 1.5q-7 0 -22 -4 t-30 -9q-13 -3 -26 -9q-17 -7 -30 9.5t-26 52.5l92 39t88 33t71.5 22.5t42.5 8.5q38 0 52.5 -22t14.5 -78q0 -31 -5.5 -84.5t-14.5 -120.5t-21 -144.5l-25 -157.5q-5 -32 -9 -55l-7.5 -44t-6.5 -44.5t-8 -56.5q46 63 94.5 108t94 74t84.5 42.5t67 13.5q42 0 78.5 -22 t63.5 -64.5t42 -105t14 -144.5z" />
<glyph unicode="c" horiz-adv-x="795" d="M814 797q-3 -2 -5.5 -4t-4.5 -4l-43.5 -31t-43.5 -28.5t-40 -20.5t-34 -8q-14 0 -27.5 11.5t-28.5 27.5h1l-23.5 23t-27 22t-29.5 16.5t-32 6.5q-41 0 -76 -20.5t-62.5 -55t-48.5 -79.5t-35.5 -93.5t-21.5 -98.5t-7 -93q0 -58 12.5 -105.5t35.5 -80.5t54.5 -51t68.5 -18 q17 0 42.5 6.5t61 23t81 46t101.5 74.5q4 -5 12.5 -17t12.5 -16l14 -19t13 -19q-81 -75 -145.5 -120.5t-116.5 -70t-93.5 -33t-77.5 -8.5t-80.5 18t-83.5 60.5t-66 114.5t-27 180q0 68 14 139.5t45.5 140.5t82.5 131t125 111q28 18 62.5 35t71.5 30t73.5 21t67.5 8 q32 0 59 -8.5t49.5 -21.5t41 -28.5t33.5 -29.5l23 -19.5t16 -10.5z" />
<glyph unicode="d" horiz-adv-x="969" d="M350 132q23 0 52 23.5t61 64.5t66.5 97t68.5 121l19.5 126.5t24.5 150.5q-16 17 -33.5 33.5t-36.5 29.5t-39.5 21.5t-43.5 8.5q-41 0 -77 -21t-66.5 -55.5t-54 -78.5t-40 -90.5t-25 -92t-8.5 -82.5q0 -58 11.5 -105.5t30 -81t42.5 -51.5t48 -18zM936 78 q-93 -62 -151.5 -90t-94.5 -28q-19 0 -36.5 14t-31.5 44.5t-23.5 80.5t-12.5 122q-32 -52 -69 -99.5t-76 -83.5t-79.5 -57t-79.5 -21q-36 0 -78 21t-77 66t-58.5 114t-23.5 165q0 80 17 155t52 142.5t88 126t124 105.5q28 18 61 35t67.5 30t69 21t65.5 8q21 0 43.5 -10.5 t43.5 -24.5q11 66 20.5 129t16 117t10.5 97.5t4 71.5q0 16 -2 25t-5 13.5t-7.5 6t-9.5 1.5q-8 0 -23 -4t-31 -9q-20 -5 -32 -9q-30 -12 -53 63l90 38.5t84 32.5t68.5 22.5t41.5 8.5q37 0 55 -22t18 -78q0 -38 -7.5 -103t-19.5 -144.5t-27 -168l-30 -173.5l-26.5 -157 t-24 -151t-17.5 -126.5t-7 -84.5q0 -103 6 -149t19 -46q25 0 53.5 6.5t70.5 24.5z" />
<glyph unicode="e" horiz-adv-x="805" d="M404 766q-28 -26 -55.5 -62t-50.5 -78.5t-39.5 -89t-23.5 -93.5q76 30 129.5 56.5t90.5 49.5t59 44.5t33.5 41.5t15 39.5t3.5 40.5q0 26 -6 43.5t-16 28.5t-22.5 16t-25.5 5q-14 0 -40 -9.5t-52 -32.5zM760 759q0 -29 -6.5 -60.5t-26 -65t-55.5 -69.5t-94.5 -74.5 t-142.5 -79.5t-201 -85q6 -48 21 -87t35 -66.5t43 -43t45 -15.5q20 0 47.5 4.5t65.5 19.5t86 43.5t108 77.5q22 -12 37 -34t20 -35q-85 -74 -150 -119t-116 -69.5t-91.5 -32.5t-76.5 -8q-23 0 -51 8t-56.5 26t-55 45.5t-47 67t-33 91t-12.5 116.5q0 77 20 152t56.5 145.5 t88 133t114.5 113.5q24 18 53.5 34.5t62 29t65.5 20t64 7.5q47 0 81.5 -16.5t57 -43.5t33.5 -61t11 -69z" />
<glyph unicode="f" horiz-adv-x="559" d="M901 1369q-5 -4 -11 -7.5t-11 -8.5l-42.5 -29.5t-41.5 -26.5t-37.5 -19.5t-29.5 -7.5q-17 0 -30.5 14t-27.5 32q-7 10 -15.5 21t-18.5 20.5t-21 15.5t-24 6q-32 0 -58 -21t-45.5 -56.5t-34 -81t-24.5 -93.5t-16.5 -95.5t-9.5 -87.5l-3 -25h237l32 -46q-12 -17 -33 -37 t-44.5 -39t-45 -34t-34.5 -22q-11 29 -40 40t-88 12l-33.5 -294l-33.5 -294q-13 -108 -46 -211t-83 -192t-115.5 -162t-143.5 -121l-40 99q50 28 90.5 86.5t70.5 133t49.5 158t28.5 161.5l73 636h-137l-27 57l119 69h60q10 77 23.5 148t38.5 134.5t65 119.5t103 102 q27 20 53 37t52 30t54 20.5t61 7.5q32 0 59.5 -8.5t50.5 -21.5t43 -28t36 -29q13 -11 23 -18.5t17 -9.5z" />
<glyph unicode="g" horiz-adv-x="911" d="M341 132q17 0 49.5 32t70.5 85.5t77 123t70 145.5v1l8 74.5t12 82.5q2 17 6 33.5t9 31.5q-13 11 -29 23t-34 21.5t-38 16t-42 6.5q-41 0 -78.5 -21t-69 -55.5t-57 -78.5t-43 -90.5t-27 -92t-9.5 -82.5q0 -58 10 -105.5t27.5 -81t40 -51.5t47.5 -18zM892 892 q-34 -29 -55.5 -69.5t-29.5 -105.5q-12 -103 -18.5 -196t-10.5 -169q-5 -92 -11.5 -173.5t-21.5 -161.5v1q-18 -104 -64 -196t-109.5 -160.5t-140 -108t-155.5 -39.5q-44 0 -94.5 14t-93.5 34.5t-71.5 44.5t-28.5 44q0 19 15 43t34.5 45.5t39 36t27.5 14.5q14 0 24.5 -9.5 t22.5 -23.5h-1l26.5 -30t39 -32t56.5 -25t78 -10q84 0 135.5 82t78.5 234q12 81 19 152t10 137q-33 -56 -72.5 -111t-81.5 -98t-85 -69.5t-83 -26.5q-35 0 -75.5 19.5t-74.5 62t-56.5 110.5t-22.5 164q0 160 72.5 300t221.5 239q28 18 60.5 35t67 30t69 21t65.5 8 q42 0 77 -18.5t65 -37.5q5 -3 3 -2t2 -2q46 37 107 66z" />
<glyph unicode="h" horiz-adv-x="1012" d="M981 82q-100 -58 -164.5 -90t-108.5 -32q-37 0 -64 36t-27 97q0 13 3 40.5t8.5 64.5l12 81.5l13.5 90.5q9 52 17 104l14.5 97t10.5 79t4 50q0 63 -9.5 87t-38.5 24q-12 0 -42 -15t-69 -44.5t-81 -73.5t-77 -102q-24 -45 -41 -113t-31 -154q-13 -81 -18.5 -133.5 t-5.5 -87.5q0 -12 1 -28t2 -27q-23 -12 -41 -20.5t-37 -16.5q-23 -11 -41.5 -18t-43.5 -22l-50 47l21.5 131.5l27.5 172l31.5 197l32.5 207l30 201.5t24.5 180.5t17 144t6.5 92.5q0 16 -1.5 25t-4.5 13.5t-6.5 6t-7.5 1.5q-8 0 -25.5 -4t-34.5 -9q-10 -2 -17.5 -4.5 t-15.5 -4.5q-31 -8 -54 63l90 38.5t84.5 32.5t69 22.5t42.5 8.5q37 0 57 -22t20 -78q0 -20 -4.5 -64.5t-12 -103l-17 -127l-19.5 -136l-20 -131l-17 -111.5q51 53 102 91.5t100 63.5t95 37t85 12q71 0 102 -42.5t31 -147.5q0 -27 -4 -65.5t-10.5 -83t-14.5 -93t-17 -96.5 l-13.5 -82.5l-12 -76.5t-9 -65t-3.5 -46q0 -22 5.5 -30t10.5 -8q26 0 58.5 9.5t74.5 28.5z" />
<glyph unicode="i" horiz-adv-x="504" d="M496 1247q0 -30 -10 -60.5t-28 -55t-43.5 -40t-57.5 -15.5q-40 0 -61.5 22.5t-21.5 65.5q0 29 10 59.5t28 55.5t44 41t57 16q40 0 61.5 -23t21.5 -66zM474 82q-100 -60 -164 -91t-109 -31q-42 0 -66.5 36t-24.5 97q0 24 4.5 63t11.5 87t16.5 102.5l18.5 109.5l17 98 l14.5 88.5t10.5 71t4 46.5t-1.5 25t-4 13.5t-6.5 6t-9 1.5q-7 0 -21.5 -3.5t-29.5 -8.5q-4 -1 -10 -3q-5 -2 -9.5 -2.5t-8.5 -2.5q-29 -8 -56 61q45 21 90 39.5t83 32.5t66.5 22.5t41.5 8.5q38 0 53.5 -22.5t15.5 -78.5q0 -22 -4.5 -59t-11.5 -83.5t-16 -100l-18 -108.5 l-18.5 -108t-16.5 -99.5t-11.5 -82.5t-4.5 -56q0 -38 10 -38q29 0 59 9t78 29z" />
<glyph unicode="j" horiz-adv-x="502" d="M466 1247q0 -30 -10 -60.5t-28.5 -55t-44.5 -40t-58 -15.5q-82 0 -82 88q0 29 10 59.5t28 55.5t43.5 41t57.5 16q39 0 61.5 -23t22.5 -66zM385 866q0 -10 -2 -35.5t-5.5 -59t-8 -72.5l-8.5 -75l-9.5 -84t-6.5 -62q-2 -20 -4 -44t-5 -50q-6 -62 -14.5 -140.5t-22.5 -162.5 q-20 -117 -49 -196.5t-64.5 -134t-75.5 -91t-81 -68.5q-28 -21 -60.5 -36t-64 -24t-59.5 -13t-46 -4q-31 0 -64.5 10t-61.5 24t-46.5 30.5t-18.5 28.5q0 15 15 38.5t35.5 46t41.5 38.5t33 16q11 0 19 -6t18 -15l21 -18.5t28.5 -19.5t37.5 -15t48 -6q73 0 122 96t79 271 q20 118 31 214.5t17 160.5q2 15 2.5 28.5t2.5 24.5q2 21 5 58.5t8 78.5q3 26 5.5 51t5 46.5t3.5 38t1 25.5q0 16 -1.5 25t-4.5 13.5t-6.5 6t-8.5 1.5q-8 0 -22 -3.5t-29 -8.5q-4 -1 -10 -3q-5 -2 -9.5 -2.5t-8.5 -2.5q-30 -7 -58 61q45 21 90.5 39.5t83.5 32.5t67 22.5 t41 8.5q18 0 32 -3t23.5 -12t14 -25t4.5 -43z" />
<glyph unicode="k" horiz-adv-x="899" d="M461 1398q0 -43 -7 -111t-19 -151.5t-27 -178.5l-31 -193q-5 -32 -8.5 -57t-7.5 -48t-7.5 -47t-8.5 -55l85.5 65l84.5 65q76 57 119 92.5t43 49.5q0 5 -24.5 6t-77.5 -1l-6 75q20 3 47 7.5t46 8.5q35 8 72.5 13.5t79.5 5.5q30 0 48 -4.5t28 -14t13.5 -24.5t3.5 -37 q0 -16 -21.5 -45t-63 -66.5t-101 -81.5t-134.5 -90l-94 -59q29 -40 57.5 -92.5l56.5 -104.5l42 -79t39.5 -67.5t34.5 -47.5t28 -18h6q9 0 19.5 0.5t23.5 3.5t30 10t40 19l32 -66q-73 -63 -126.5 -90.5t-94.5 -27.5q-36 0 -68.5 28t-63 72.5t-59.5 100.5l-56 112l-52.5 107 t-50.5 82l-15.5 -110t-13 -101.5t-8.5 -87.5t-3 -67q0 -17 2 -33t5 -30q-11 -6 -35 -16.5l-42 -18.5l-43 -19t-49 -26l-53 48q2 15 6 42t10 62l13 78l14 89l30.5 189.5l33 208l32 208t27 190t18.5 155t7 101.5q0 18 -1.5 27.5t-5 14.5t-8.5 6t-12 1t-22.5 -4t-31.5 -9 q-20 -5 -32 -9q-31 -11 -57 62l91 39t85.5 33t69 22.5t41.5 8.5q18 0 32.5 -3.5t24.5 -16t15 -36t5 -64.5z" />
<glyph unicode="l" horiz-adv-x="481" d="M455 81l-91.5 -56.5t-72 -37.5t-60 -20.5t-54.5 -6.5q-17 0 -33.5 8.5t-29 25.5t-20 42.5t-7.5 58.5q0 23 6.5 76t16.5 125.5t23.5 158l26.5 173.5l33.5 217.5l30 205.5t22 169.5t8.5 108.5q0 16 -2.5 25t-7 13.5t-9.5 6t-11 1.5q-7 0 -22 -4t-31 -9q-18 -5 -29 -9 q-17 -5 -31 11t-28 51l91 39t85 33t68.5 22.5t42.5 8.5q36 0 57.5 -22t21.5 -78q0 -39 -8 -110.5t-20.5 -162.5t-28.5 -194l-32 -205l-28.5 -185.5l-26 -174.5t-18.5 -143t-7 -92q0 -22 4 -30t10 -8q21 0 53 9t84 29z" />
<glyph unicode="m" horiz-adv-x="1477" d="M1417 80q-99 -57 -163.5 -88.5t-110.5 -31.5q-36 0 -61.5 36t-25.5 97q0 12 3 35t7.5 53.5t11 67.5l13.5 76l19 113t18 111.5t13 98t5 71.5q0 51 -6 71.5t-16 20.5q-16 0 -42.5 -13.5t-58.5 -41t-68 -68.5t-72 -96q-19 -31 -32.5 -64t-23 -68t-16.5 -73.5l-15 -82.5 q-10 -65 -14.5 -117.5t-4.5 -92.5q0 -14 1 -32t2 -30q-14 -7 -38 -18l-43 -19l-46.5 -20t-41.5 -20l-48 49q22 101 42 209t35.5 205t25 172t9.5 110q0 63 -10 87t-28 24q-11 0 -35 -12.5t-55.5 -38.5t-67.5 -67.5t-72 -98.5q-40 -59 -58 -129t-33 -161q-12 -74 -17.5 -129 t-5.5 -97v-19t2 -26q-22 -12 -40.5 -20.5l-37.5 -16.5q-22 -11 -40.5 -18t-43.5 -22l-51 47q21 104 41 219.5t35.5 221.5t25.5 190t10 125q0 16 -1.5 25t-4 14t-6 6.5t-7.5 1.5q-8 0 -23.5 -3t-31.5 -8q-9 -2 -16 -4.5t-14 -4.5q-31 -11 -54 63l89.5 38t83 31.5t67 22 t40.5 8.5q21 0 34 -5.5t19.5 -20t8.5 -40t2 -65.5q0 -12 -2 -31l-4 -40q0 -2 -0.5 -4t-0.5 -3v-1v-2q52 58 98 98.5t88 65.5t81.5 36.5t78.5 11.5q42 0 70 -16.5t44 -43t22.5 -60.5t6.5 -70v-9v-6q50 55 93.5 94t82.5 63.5t75 36t72 11.5q33 0 60 -10t45.5 -32.5t29 -59 t10.5 -88.5q0 -31 -4 -72t-11 -87t-15.5 -95l-17.5 -97v1l-13.5 -80l-12 -73t-8.5 -61t-3 -44q0 -21 4 -28.5t12 -7.5q25 0 55.5 8.5t80.5 28.5z" />
<glyph unicode="n" horiz-adv-x="1012" d="M985 82q-99 -59 -166 -90.5t-108 -31.5q-44 0 -67.5 36t-23.5 97q0 13 3.5 40.5t9 64.5l12.5 81.5t15 90.5q9 52 17 104l15 97t11 79t4 50q0 63 -11 88t-43 25q-12 0 -41 -15.5t-66.5 -45.5t-78.5 -74.5t-76 -103.5q-25 -44 -41.5 -108.5t-33.5 -157.5v1 q-12 -72 -17.5 -125t-5.5 -100q0 -11 0.5 -25.5t1.5 -25.5q-22 -12 -40.5 -20.5l-37.5 -16.5q-22 -11 -40.5 -18t-43.5 -22l-51 47q14 66 27.5 141t26 152t23 150.5t18.5 136t12.5 109.5t4.5 69q0 16 -1 25t-3.5 13.5t-5.5 5.5t-7 1q-8 0 -23 -3t-31 -8q-9 -2 -17 -4.5 l-14 -4.5q-31 -11 -57 63q45 20 90.5 38t84.5 31.5t68 22t42 8.5q21 0 32.5 -5t17 -19t7 -39t1.5 -66q0 -12 -1.5 -35t-3.5 -47q99 111 197 161t181 50q36 0 63 -9.5t45 -32t27.5 -58t9.5 -88.5q0 -27 -4 -66t-11 -84t-15.5 -94l-16.5 -96q-8 -42 -15 -83t-12.5 -77 t-9 -64.5t-3.5 -45.5q0 -22 3.5 -30t11.5 -8q20 0 51 9.5t82 29.5z" />
<glyph unicode="o" horiz-adv-x="864" d="M642 510q0 140 -49.5 213.5t-140.5 73.5q-43 0 -76.5 -18t-59 -48t-43.5 -69.5t-29 -82.5t-16 -87.5t-5 -83.5q0 -61 14.5 -115.5t40.5 -95.5t61 -64.5t75 -23.5q42 0 75 19t58 51t43 73.5t29.5 86t17 89t5.5 82.5zM820 563q0 -67 -15 -135.5t-44 -134t-71.5 -123.5 t-98.5 -104q-27 -22 -56.5 -41t-60.5 -33.5t-62.5 -23t-63.5 -8.5q-73 0 -129.5 30t-95.5 83t-59 125t-20 156q0 72 12 139t39.5 129t72.5 119.5t111 110.5q52 41 114 69t127 28q81 0 138 -28.5t93 -79.5t52.5 -122t16.5 -156z" />
<glyph unicode="p" horiz-adv-x="965" d="M605 783q-24 0 -61.5 -23.5t-79 -66t-81.5 -102.5t-70 -132l1 4l-8 -47.5t-9 -50.5q-2 -11 -3 -19t-3 -19q15 -28 40 -60.5t55.5 -60t66 -46t71.5 -18.5q47 0 82.5 25.5t55.5 72.5q17 37 26.5 77.5t14.5 79.5t6.5 75t1.5 65q0 63 -9 109.5t-24 76.5t-34 45t-39 15z M370 866q0 -22 -3.5 -56t-10.5 -82q55 74 103.5 118t90.5 67t77 29.5t62 6.5q42 0 78.5 -20.5t64.5 -61t44 -100.5t16 -138q0 -100 -27.5 -211.5t-89.5 -224.5q-24 -40 -54.5 -81.5t-66.5 -75.5t-77 -55t-86 -21q-31 0 -62 16t-60 43t-56 62t-51 72q-4 -20 -7 -40.5 t-7 -41.5q-2 -12 -3.5 -24t-3.5 -25q-23 -137 -34 -233.5t-11 -145.5q0 -19 3.5 -37.5t8.5 -33.5q-16 -4 -39.5 -11.5t-48 -16.5l-47.5 -18t-39 -16l-49 44q2 18 7.5 49.5l13 73.5l16.5 92.5l18 104.5l30.5 169l31 178l29 174l24 156.5t16.5 125.5t6 82q0 16 -2 25t-6 13.5 t-8.5 6t-9.5 1.5q-8 0 -22.5 -3.5t-30.5 -8.5q-2 -1 -4 -1t-4 -1q-5 -2 -9.5 -3t-9.5 -3q-29 -8 -55 61q45 21 91 39.5t86 32.5t69.5 22.5t42.5 8.5q14 0 26 -3.5t20.5 -13t13.5 -25.5t5 -41z" />
<glyph unicode="q" horiz-adv-x="918" d="M352 132q22 0 52.5 28t65.5 73.5t71 103t68 115.5q14 79 25.5 150.5l24.5 146.5q-14 10 -31 20.5t-36 19t-39.5 14t-41.5 5.5q-41 0 -80 -21t-72.5 -55.5t-61 -78.5t-47 -90.5t-30.5 -92t-11 -82.5q0 -58 13 -105.5t33.5 -81t46 -51.5t50.5 -18zM909 892 q-18 -15 -30.5 -26.5t-21 -26t-14.5 -34t-12 -50.5v1l-26 -158l-47.5 -285t-41.5 -264.5t-29.5 -223.5t-11.5 -163q0 -52 19 -88q-4 -2 -12 -4.5t-17.5 -6t-18.5 -6.5l-15 -5l-55.5 -18.5t-55.5 -23.5l-53 43q10 75 34.5 232.5l63.5 398.5q-33 -47 -68 -88t-71.5 -71 t-73 -47.5t-71.5 -17.5t-76 19.5t-76.5 62t-59.5 110.5t-24 164q0 79 20.5 156t59.5 147t95 130t127 106q29 18 61 35t66 30t68 21t66 8q43 0 82 -18.5t72 -37.5q0 1 1 0q22 16 48 32t57 30z" />
<glyph unicode="r" horiz-adv-x="727" d="M774 836l-30 -45l-22.5 -34t-22.5 -30.5t-22 -22t-22 -8.5q-26 0 -42.5 14t-30.5 29q-8 9 -15.5 16.5t-15.5 7.5q-22 0 -52.5 -34t-61.5 -88t-60 -121t-49 -134q-9 -32 -17 -71.5t-14 -80.5t-9.5 -82t-3.5 -76q0 -8 0.5 -21.5t0.5 -21.5q-25 -14 -42 -21.5l-35 -15.5 q-22 -11 -40.5 -18t-43.5 -22l-51 47q15 70 29 145t26.5 149.5t23 145t18 131.5t11.5 108.5t4 76.5q0 16 -1.5 25t-4.5 13.5t-6.5 6t-7.5 1.5q-8 0 -23.5 -3.5t-30.5 -8.5l-13 -3h1q-4 -2 -8 -2.5t-9 -2.5q-29 -8 -56 61q45 21 91 39.5t85 32.5t68 22.5t41 8.5 q21 0 32.5 -5.5t17 -20t7 -40t1.5 -65.5q0 -11 -2.5 -34.5t-6.5 -52.5q39 68 75.5 110.5t70 66.5t64.5 32.5t59 8.5q23 0 41.5 -13t35.5 -29l26.5 -22.5t33.5 -19.5z" />
<glyph unicode="s" horiz-adv-x="711" d="M703 828q-20 -23 -41 -42.5t-39.5 -34t-33.5 -22.5t-24 -8q-17 0 -30.5 12.5t-28.5 30.5q-9 11 -19.5 22t-22.5 21t-26 16t-30 6q-23 0 -46 -9t-41 -24.5t-29.5 -37.5t-11.5 -49q0 -29 30 -62t102 -66q42 -20 84 -45.5t75.5 -59.5t54.5 -77t21 -98q0 -72 -36.5 -134 t-93.5 -108t-126.5 -72.5t-136.5 -26.5q-49 0 -97 15.5t-86 38.5t-61.5 50t-23.5 51q0 12 14 36t33.5 47t39.5 40.5t32 17.5q14 0 23.5 -12.5t18.5 -28.5l26 -38.5t37 -40t52 -31.5t70 -13q30 0 57 11.5t47.5 31t32 46t11.5 55.5q0 34 -14.5 62t-39.5 51t-56.5 42t-66.5 35 q-53 26 -89.5 52t-59.5 54t-33.5 58.5t-10.5 64.5q0 66 32 120t82.5 92.5t112.5 60t123 21.5q36 0 63.5 -6t50 -15t40.5 -20t33 -22l25.5 -17t20.5 -10z" />
<glyph unicode="t" horiz-adv-x="629" d="M597 126q-52 -40 -103.5 -71t-97 -52t-82.5 -32t-59 -11q-28 0 -54 16t-45 44.5t-30.5 68t-11.5 86.5q0 39 2.5 77.5t10.5 92.5l72 448h-130l-27 57l118 69h59q1 5 1.5 10t1.5 9v-1q6 42 13 70.5t16 47t20 31t26 23.5l110 80l52 -47q-7 -10 -13.5 -25t-13.5 -37t-14 -53 t-14 -74q-2 -11 -2.5 -15.5t-2.5 -18.5h229l32 -46q-12 -17 -33.5 -37.5t-44.5 -39t-44.5 -33.5t-32.5 -22q-14 29 -43 40t-83 12q-16 -109 -33.5 -215t-33.5 -215q-3 -19 -5 -39.5t-3.5 -39t-2.5 -34t-1 -25.5q0 -51 16 -75t36 -24q32 0 83 16.5t132 52.5z" />
<glyph unicode="u" horiz-adv-x="1022" d="M986 78q-88 -59 -148.5 -88.5t-100.5 -29.5q-19 0 -38 12t-34 42.5t-24.5 83t-10.5 133.5q-39 -61 -80.5 -111.5t-86 -85.5t-92 -54.5t-97.5 -19.5q-22 0 -50 16.5t-53 49t-42 81t-17 112.5q0 24 3.5 57t9 72t12.5 81.5l14 84.5l12 76t10.5 69t7.5 58t3 42t-1.5 25 t-4.5 13.5t-6.5 6t-7.5 1.5q-8 0 -23 -3.5t-30 -8.5l-13 -3h1q-4 -2 -10.5 -3.5t-11.5 -3.5q-25 -6 -49 64q45 21 90 39.5t83.5 32.5t67 22t41.5 8q41 0 54.5 -22.5t13.5 -78.5q0 -22 -3.5 -54t-9 -70t-12.5 -80.5l-14 -85.5l-14.5 -85t-12.5 -79.5t-8.5 -68t-3.5 -51.5 q0 -84 15 -120.5t41 -36.5q18 0 47.5 18t67.5 58.5t84 106t95 160.5q5 27 9 52.5t9 51.5l8.5 54l8.5 56t6.5 49.5t2.5 35.5q0 16 -1 25t-3.5 13.5t-5.5 6t-7 1.5q-7 0 -20.5 -3.5t-27.5 -8.5q-4 -1 -10 -3q-5 -2 -6 -1.5t-5 -1.5q-35 -10 -62 59l89.5 39.5t80.5 32.5 t65 22.5t41 8.5q39 0 51.5 -22.5t12.5 -78.5q0 -19 -3.5 -51t-9 -70.5t-12.5 -79.5l-13 -77l-14.5 -88.5t-13.5 -84.5t-9.5 -73.5t-3.5 -56.5q0 -79 7.5 -116.5t22.5 -37.5q24 0 52 8t71 25z" />
<glyph unicode="v" horiz-adv-x="913" d="M900 848q0 -32 -21.5 -94.5t-72 -164t-132.5 -244.5t-203 -337q-24 -14 -56 -28.5t-54 -23.5l-46 45q-7 56 -17 124l-21.5 140l-24 144l-24.5 135.5t-22.5 114t-18.5 80.5v-1q-6 22 -13 35.5t-13.5 20.5t-12.5 9t-12 2q-8 0 -22.5 -3.5t-28.5 -8.5q-2 -1 -5 -1 q-2 0 -4 -1l-18 -6q-30 -8 -54 61l86.5 39.5t76 32.5t60 22.5t38.5 8.5q19 0 32 -7t24 -23t20.5 -42.5t20.5 -64.5q6 -21 14.5 -62.5l18.5 -94.5l21 -113l21 -118.5l18.5 -110.5t13.5 -89q64 107 112 201t80.5 168.5t48.5 126.5t16 75q0 10 -11 15t-30 5q-15 0 -37 -4 t-50 -15l-35 66q32 17 68 32.5t69.5 27.5t62 19.5t46.5 7.5q44 0 67.5 -21.5t23.5 -79.5z" />
<glyph unicode="w" horiz-adv-x="1290" d="M1280 856q0 -26 -5 -61t-18 -83.5t-37 -113.5t-62 -150.5t-91.5 -194t-127.5 -245.5q-10 -6 -24 -13l-29 -14l-29.5 -13.5t-25.5 -10.5l-47 44l-20.5 170t-21.5 169.5t-23 150.5t-25 114q-16 -54 -44 -128t-62.5 -154.5t-74 -160.5t-79.5 -147q-3 -1 -6 -3q-6 -4 -9 -5 l1 1q-17 -11 -44.5 -25t-56.5 -26l-45 44q-7 52 -13.5 117l-13.5 132l-16 145t-16.5 140t-16.5 120t-16 85q-5 21 -11 34t-13 20t-14 9t-13 2q-8 0 -22 -3.5t-29 -8.5q-2 -1 -5 -1q-2 0 -4 -1q-5 -2 -9.5 -3t-9.5 -3q-29 -8 -55 61l29 13.5l28 13.5l122.5 54t78.5 22 q19 0 32 -8.5t23 -26.5t18 -45.5t17 -66.5q5 -23 11 -62l13 -87t13.5 -102.5l13 -108t11.5 -103l9 -88.5q36 74 71.5 156.5t64.5 164t48.5 158t23.5 139.5q17 15 36.5 29t39 25.5t37 18.5t29.5 7q11 0 24.5 -36t26.5 -89t25 -112t20 -106l8.5 -55.5l9.5 -61.5l12.5 -71 l10.5 -62t9.5 -61t7.5 -67q62 119 101.5 210t62 159.5t31 117t8.5 82.5q0 24 -34 24q-12 0 -34 -5t-49 -13l-33 66q39 23 73.5 38.5t61.5 24.5t45.5 13t25.5 4q20 0 38 -3t32 -12.5t22.5 -28t8.5 -49.5z" />
<glyph unicode="x" horiz-adv-x="901" d="M888 83q-46 -33 -82 -56t-64.5 -38t-51.5 -22t-43 -7q-31 0 -62 28.5t-61 76.5t-58 111t-55 131l-41 -53l-92 -121t-98 -140q-3 -1 -12.5 -3t-12.5 -3l-74.5 -11t-83.5 -20l-39 61q47 41 99 92.5l105 107.5l104 113.5l95 109.5l-53 136t-50 117t-45.5 81.5t-39.5 30.5 q-8 0 -26.5 -3.5t-37.5 -8.5q-19 -4 -37 -9q-34 -9 -58 63q23 11 53.5 23.5t51.5 22.5q54 24 94 40t57 16q29 0 58.5 -31.5t58.5 -83t58 -119t57 -139.5l69.5 89l59 80t40.5 60.5t15 29.5q0 7 -5.5 10.5t-25.5 3.5q-10 0 -25.5 -1.5t-38.5 -3.5l-1 78q72 16 126.5 21.5 t80.5 5.5q58 0 80.5 -21t22.5 -50q0 -39 -75 -127.5t-207 -231.5l-32.5 -33.5l-34.5 -37.5l51 -126.5t48 -107t43.5 -74t37.5 -27.5q21 0 52 8.5t74 30.5z" />
<glyph unicode="y" horiz-adv-x="926" d="M898 856q0 -32 -15 -79t-48 -120.5t-86.5 -180.5l-130.5 -259l-32 -61.5l-33 -65.5q-66 -129 -132 -235.5t-136.5 -182t-146.5 -117t-163 -41.5q-33 0 -62.5 6.5t-51.5 17t-34.5 22.5t-12.5 23q0 13 11.5 37.5t28 50t36 48t36.5 30.5q25 -17 43.5 -26t34 -13.5t29.5 -5 t31 -0.5q72 0 142.5 72t148.5 204q-10 57 -24 127t-30.5 144.5l-34.5 148.5t-36 139t-35 116.5t-32 80.5q-19 43 -30.5 56t-21.5 13q-8 0 -22.5 -3.5t-28.5 -8.5q-2 -1 -5 -1q-2 0 -4 -1l-18 -6q-29 -7 -53 62l37 17l36 16l112 49t69 20q35 0 56.5 -33t46.5 -103 q17 -49 37 -115t40.5 -141.5l41 -156.5t37.5 -161l86 175.5l75 164t53.5 131.5t20.5 79q0 30 -33 32q-27 3 -98 -28l-33 69q81 48 140.5 67.5t94.5 19.5q20 0 38 -3t31.5 -12.5t21.5 -28t8 -49.5z" />
<glyph unicode="z" horiz-adv-x="776" d="M790 878q-51 -55 -94 -108l-82 -104.5l-74.5 -103l-71.5 -104.5l-45 -66l-40.5 -60l-43.5 -62t-55 -72q8 2 14 2h15q18 0 46 -6.5t61 -17.5l87.5 -24t84.5 -12q8 0 18 3t23.5 14.5t30.5 34t38 62.5l67 -38q-31 -68 -54 -113.5t-49.5 -72.5t-60.5 -38t-87 -11 q-55 0 -102.5 12t-90.5 26q-32 11 -61 19t-54 8q-21 0 -50 -13t-76 -37q-11 -6 -30 -15.5l-33 -16.5l-39 58q46 54 92.5 116l92.5 126l90.5 128.5l85.5 124.5l103 151t78 105h-253q-19 0 -32.5 -4t-25 -17.5t-23 -39t-26.5 -67.5l-74 14q11 50 24 101.5l22 85.5 q4 13 7.5 28.5t6.5 30.5l5.5 28t4.5 22l40 -12q14 -5 31 -9.5t40 -4.5h486z" />
<glyph unicode="{" horiz-adv-x="641" d="M757 1522q-39 -24 -74.5 -54.5t-63.5 -67.5t-48 -78.5t-28 -87.5q-4 -27 -5.5 -49t-1.5 -39t1 -33.5t3 -31.5t3 -31t1 -34q0 -42 -9 -102q-6 -37 -20 -73.5t-35 -69.5t-49.5 -61.5t-62.5 -49.5q54 -24 76.5 -71.5t22.5 -116.5q0 -40 -6 -81q-8 -54 -21.5 -103t-25.5 -84 l-19.5 -65.5t-17.5 -80.5q-3 -23 -5 -42t-2 -35q0 -63 30 -109.5t100 -91.5l-42 -92q-69 32 -120 66.5t-84 74t-49 86.5t-16 104q0 18 0.5 37t3.5 36q8 54 20 95t23 75q11 33 22.5 71.5t20.5 99.5q3 20 3 34q0 51 -26.5 77t-76.5 26h-18q-3 0 -6.5 -0.5t-10.5 -2.5 q-2 -1 -12 -2l-29 -3l-15 87q113 31 176 88t74 124q9 60 9 96q0 17 -1 31t-3 29t-3 31.5t-1 37.5q0 20 1.5 44t6.5 54q10 69 40.5 129t79 112t114 96t145.5 80z" />
<glyph unicode="|" horiz-adv-x="410" d="M196 -269q-26 -17 -60.5 -34t-62.5 -27l-45 40l257 1829q31 19 57 32.5t64 23.5l48 -33z" />
<glyph unicode="}" horiz-adv-x="641" d="M570 639q-113 -31 -176 -86.5t-73 -125.5q-5 -32 -7 -55.5t-2 -41.5q0 -17 1 -31.5t3 -29.5q3 -30 3 -70q0 -20 -1 -42.5t-5 -50.5q-10 -69 -41.5 -129.5t-80.5 -113t-114 -96.5t-143 -80l-32 81q40 25 76 55t64 65.5t47 77.5t25 90q5 32 7 56.5t2 44.5q0 17 -1 31l-2 28 t-2 30.5t-1 33.5q0 20 1.5 44t5.5 53q11 75 54.5 142.5t113.5 109.5q-53 25 -76.5 72.5t-23.5 116.5q0 39 6 81q9 59 21 102t25 82l19.5 66.5t16.5 80.5q4 24 6 45t2 38q0 31 -7.5 57t-23 49.5t-40.5 45t-61 44.5l46 91q140 -61 204.5 -139t64.5 -191q0 -18 -1 -35.5 t-3 -35.5q-9 -57 -20 -94.5l-22 -72.5l-12 -36t-11 -38.5t-10 -45t-9 -55.5q-2 -11 -3 -20.5t-1 -17.5q0 -49 26.5 -74t74.5 -25h18h10q4 0 11 2h-1q3 1 18 4t21 5z" />
<glyph unicode="~" horiz-adv-x="930" d="M926 780q-28 -52 -67.5 -108t-84.5 -102t-93 -76t-94 -30q-43 0 -85 25.5t-84 56.5q-39 28 -76 51t-70 23q-40 0 -81 -39.5t-92 -125.5l-75 46q27 52 66.5 108t84.5 102t93 75.5t93 29.5q24 0 47.5 -7.5t46 -19.5t43.5 -27.5l42 -30.5q36 -27 70.5 -48.5t63.5 -21.5 q38 0 80.5 39t94.5 123z" />
<glyph unicode="&#xa2;" d="M276 516q0 -83 30 -143.5t76 -90.5l22 159.5l22 154.5l22 155.5l22 160.5q-47 -20 -83 -64t-61 -99.5t-37.5 -116.5t-12.5 -116zM606 1064q8 1 15 1h16q31 0 58 -8.5t50 -21t42 -28t34 -29.5l11 -9.5t12.5 -9.5t20 -10.5t32.5 -11.5q-20 -14 -33.5 -24.5l-23.5 -18.5 l-17.5 -14.5l-14.5 -12.5q-26 -23 -49 -41t-44 -18q-13 0 -23.5 10.5t-21.5 25.5q-13 17 -34 39.5t-50 33.5l-23 -166l-21.5 -161l-21.5 -161.5l-23 -166.5q18 4 40 13.5t51 27.5t65.5 44.5t81.5 64.5l13 -20t14 -19l12.5 -17.5t11.5 -17.5q-54 -49 -98.5 -85.5t-82 -61.5 t-69 -41t-58.5 -25q-4 -32 -9 -67l-9 -65q-11 -10 -18 -15.5t-13 -9t-11.5 -5.5l-13.5 -5q-3 -1 -13 -4t-15 -5l-33 38l17 121q-24 2 -53 10.5t-58.5 26t-57 45.5t-49 69t-34.5 95t-13 124q0 68 14 136.5t46 133.5t83.5 125t125.5 110q26 17 57.5 31t65.5 25l10 73.5 t10 72.5q18 12 20 14t5 3q5 4 9 6.5t9.5 5t15 5l24.5 6.5l33 -38z" />
<glyph unicode="&#xa3;" d="M531 522h-206q-14 -115 -51.5 -213t-83.5 -168q14 1 31 1.5t28 0.5q49 0 92 -3q23 -2 45 -3t51 -1q9 0 18 0.5t19 0.5q37 1 64.5 6t51 22.5t46 51.5t49.5 93l67 -33q-17 -85 -37.5 -151.5t-32.5 -101.5q-2 -4 -3.5 -9.5t-2.5 -7.5q-36 -20 -72.5 -28t-75.5 -8 q-45 0 -91.5 6t-94.5 14q-49 8 -97.5 15t-93.5 7t-89.5 -12t-92.5 -42l-22 87l53.5 46t42 45.5t32.5 56t25 76t19 106t16 146.5h-89l-26 42q7 19 16.5 41t20.5 44h89q15 139 51.5 249t94.5 186t138.5 116t183.5 40q24 0 46.5 -2t48.5 -10t58.5 -23.5t75.5 -42.5 q-5 -26 -14 -65.5t-20.5 -81t-23 -79t-21.5 -60.5h-75q4 120 -35.5 174.5t-117.5 54.5q-20 0 -42 -5t-42.5 -21t-40 -46t-35 -81t-27 -125t-16.5 -178h208l34 -39z" />
<glyph unicode="&#xa4;" horiz-adv-x="865" d="M500 749q-30 0 -56 -11.5t-46 -31.5t-33 -46.5t-16 -57.5q-4 -27 2 -52t20 -45t35.5 -32t48.5 -12q29 0 53.5 12.5t44 32.5t33 47t18.5 55q3 26 -3 51t-19.5 45t-34 32.5t-47.5 12.5zM649 269l-74 99q-30 -18 -64 -28t-69 -10q-76 0 -127 39l-99 -96l-50 2l-14 40t-14 47 l105 101q-20 49 -20 102q0 23 3 41q5 45 19 82t35 66l-40.5 52.5l-39.5 51.5l9 49q15 8 27 12l24 8q7 2 16 5t25 11l76 -101q35 21 70 30t66 9q72 0 123 -40l50.5 47l48.5 47l52 1l25 -90l-105 -100q11 -26 16 -52t5 -55v-20q0 -10 -2 -19q-6 -38 -20 -75t-36 -69l40.5 -53 l39.5 -52l-5 -53z" />
<glyph unicode="&#xa5;" d="M978 1150q-57 -13 -87.5 -24t-41.5 -32l-322 -558h188l29 -40l-36 -85h-200q-8 -72 -17.5 -143.5t-17.5 -142.5q-2 -6 24.5 -19.5t94.5 -30.5l-6 -75h-418l11 76q72 17 101.5 31t30.5 22l34 282h-197l-23 42q3 8 8.5 21l9.5 22l8 21t8 19h201q0 1 0.5 1.5t0.5 1.5 q-16 69 -40.5 147.5t-53 154.5t-58.5 143.5t-57 113.5v-1q-11 17 -23 24t-35 7q-8 0 -24.5 -1.5t-43.5 -5.5l-12 77l57 13.5t61 14t56.5 11t42.5 4.5q31 0 59 -45q26 -43 54 -105t54 -129.5t48.5 -134t36.5 -118.5l118.5 202.5l118.5 202.5q4 11 -15.5 19.5t-69.5 16.5l7 77 h344z" />
<glyph unicode="&#xa6;" horiz-adv-x="410" d="M200 -269q-12 -9 -29 -18t-35.5 -17t-36 -14.5l-30.5 -11.5l-45 40l112 797q60 38 129 60l50 -37zM346 754q-13 -10 -30 -19t-35.5 -16.5t-36 -13.5l-31.5 -11l-49 34l115 811q33 19 64.5 32.5t66.5 23.5l48 -33z" />
<glyph unicode="&#xa7;" horiz-adv-x="865" d="M559 530h-1q13 -8 21.5 -12.5t21.5 -13.5q23 17 37.5 41.5t18.5 53.5q1 8 1.5 15.5t0.5 12.5q0 35 -13.5 65t-41 59t-69 60t-96.5 67h1q-16 9 -31.5 20.5t-29.5 23.5q-12 -6 -21.5 -18.5t-17 -27.5t-11.5 -30.5t-6 -28.5q-1 -8 -1.5 -16t-0.5 -14q0 -34 12.5 -61.5 t38 -54.5t64.5 -56l91 -65v1zM819 655q-6 -40 -18.5 -76.5t-30 -67.5t-38 -56t-41.5 -43q13 -22 19 -46t6 -55v-20q0 -10 -2 -19q-11 -70 -37.5 -119.5t-60.5 -83t-72.5 -53t-74.5 -29.5t-66.5 -13t-48.5 -3q-22 0 -48.5 6.5t-55 17.5t-58 26t-56.5 33q-7 9 -6 43.5t7 77.5 t15.5 85.5t19.5 66.5l71 -19q-4 -40 6.5 -76.5t33 -64.5t55.5 -45t73 -17q56 0 95 29t48 90q4 26 -5 47t-26 39t-40.5 33.5t-49.5 30.5l-29.5 17.5t-29.5 20.5v-1q-49 32 -89 65t-68 70t-43 80t-15 95q0 13 1 27.5t3 27.5q5 35 19 68.5t34.5 63.5t45 55t50.5 43 q-35 60 -35 134q0 14 1 26t3 24q9 65 39.5 112t73 78t94.5 45.5t105 14.5q29 0 63 -7.5t66.5 -20t60 -29t43.5 -35.5q6 -7 -1 -33t-20.5 -55.5t-28 -56t-23.5 -35.5l-52 12q-32 69 -69 101t-75 32q-49 0 -80 -24t-39 -66q-7 -58 32.5 -104t121.5 -102l92.5 -67t73.5 -67 t48 -77.5t17 -98.5q0 -13 -1 -25.5t-3 -25.5v-1z" />
<glyph unicode="&#xa9;" horiz-adv-x="1360" d="M1016 920l-15.5 -9.5t-14.5 -9.5l-57.5 -36.5t-48.5 -16.5q-14 0 -25 9t-24 22l-20 19.5t-24 19t-28.5 14t-34.5 5.5q-57 0 -101 -38t-74 -95t-46 -122t-16 -119q0 -48 15 -88.5t40.5 -69t59 -44.5t70.5 -16q14 0 34.5 6.5t49.5 21.5t68.5 41t91.5 65q2 -3 5.5 -7.5 t7 -10t7.5 -9.5t5 -6l10.5 -13t13.5 -21q-76 -63 -132 -101.5t-100 -59.5t-79.5 -27.5t-70.5 -6.5q-22 0 -49.5 6.5t-56 21t-56 38t-48.5 58.5t-34 82t-13 108q0 56 12.5 114t39.5 115t70.5 111t104.5 103q24 18 55.5 32.5t66 25.5t68.5 17t63 6t53.5 -7.5t45.5 -18.5 t38.5 -24.5l31.5 -24.5l20.5 -16.5t15.5 -9.5zM1167 719q0 94 -28 176.5t-79.5 143.5t-126 96.5t-167.5 35.5q-80 0 -153 -25t-135.5 -69t-113 -103.5t-86 -128.5t-54.5 -144t-19 -151q0 -95 28 -178.5t80 -145.5t127 -98t168 -36q81 0 153.5 25t135 69.5t112.5 104.5 t85 129.5t54 146t19 152.5zM1283 751q0 -95 -22 -189.5t-64 -181.5t-102.5 -162t-136.5 -130t-167 -86.5t-194 -31.5q-116 0 -209.5 43.5t-159.5 119t-101.5 178t-35.5 220.5q0 93 23 186t66 177.5t104 157.5t137.5 127t166 84.5t188.5 30.5q114 0 207.5 -41.5t160 -114 t103 -172t36.5 -215.5z" />
<glyph unicode="&#xad;" horiz-adv-x="641" d="M595 549q-10 -27 -22 -51l-22 -43q-1 -1 -5 -6t-5 -6h-483l-30 40q10 26 24 53t29 53h483z" />
<glyph unicode="&#xae;" horiz-adv-x="704" d="M433 1222q-4 -26 -7.5 -53t-6.5 -53h1q36 0 54.5 11t22.5 40q2 21 -10.5 38t-50.5 17h-3zM277 863q23 -25 54.5 -39t70.5 -14q40 0 75.5 14t66.5 40q-9 -3 -17 -5t-13 -2q-15 0 -27 10t-16 20l1 -1l-32.5 74.5t-31.5 74.5l-17 -120q2 6 34 -1l-2 -51h-146zM217 1028 q0 -44 11.5 -81.5t32.5 -66.5l2 35q18 5 28.5 6.5t12.5 -0.5l19 145t21 146q-12 -2 -20 -3.5t-14 -2.5l1 57q-35 -37 -59 -86.5t-32 -105.5v1q-3 -22 -3 -44zM657 1076q3 24 3 43q0 45 -13 85t-37.5 70t-59 47t-77.5 17q-42 0 -79.5 -17t-69.5 -46q31 8 62.5 14t64.5 6 q38 0 66 -10.5t45.5 -28t24.5 -40t4 -46.5q-7 -45 -32.5 -73t-62.5 -42l30 -59l30 -59q1 -2 9.5 1l32.5 12l3 -22q44 65 56 149v-1zM747 1071q-10 -73 -42 -137.5t-79.5 -112.5t-108 -75.5t-126.5 -27.5q-60 0 -109 23t-83.5 63t-53.5 94.5t-19 118.5q0 14 1 30t3 30 q11 72 43.5 136.5t80 112.5t107 76t125.5 28q60 0 109 -23t83.5 -63t53.5 -94.5t19 -118.5q0 -15 -1 -30t-3 -30z" />
<glyph unicode="&#xb0;" horiz-adv-x="628" d="M363 867q29 0 52 14.5t39 37t24 49.5t8 52q0 38 -15 64.5t-43 26.5q-22 0 -44 -12t-39.5 -33t-28 -48.5t-10.5 -58.5q0 -37 14.5 -64.5t42.5 -27.5zM628 1063q0 -48 -15 -91t-39.5 -79.5t-56.5 -65t-65 -48.5t-65.5 -30.5t-58.5 -10.5q-37 0 -67 13.5t-51.5 37.5 t-33.5 56t-12 68q0 45 14 86.5t37 78t53.5 66.5t64 51.5t67.5 33t64 11.5q35 0 65 -13.5t52 -37.5t34.5 -56t12.5 -70z" />
<glyph unicode="&#xb1;" horiz-adv-x="780" d="M703 234q-8 -25 -22.5 -55.5t-26.5 -53.5h-600l-31 41q8 21 20 47t31 60h600zM456 363q-22 -13 -52 -22.5t-56 -16.5l-32 37l36 258h-229l-31 41q16 43 51 107h229q8 63 18.5 130.5l19.5 129.5l13.5 4.5t16.5 6.5q12 5 31.5 11t48.5 13l28 -39l-36 -256h232l28 -40 q-8 -26 -22.5 -56.5t-25.5 -51.5h-233z" />
<glyph unicode="&#xb6;" horiz-adv-x="1020" d="M771 1135l-14.5 4l-15.5 4q-1 1 -2 1l-88 -634l-88 -635q0 -2 4 -3t8 -3q6 2 11 5t7 7zM538 632l38 268.5l38 268.5q-22 2 -38.5 3t-31.5 1q-51 0 -96 -19t-80.5 -52t-58.5 -77.5t-29 -95.5q-5 -28 -5 -51q0 -44 13.5 -88t42 -79t74 -57t108.5 -22h25zM1039 1187 q-63 -14 -99 -26.5t-38 -20.5l-89 -632l-88 -633q-2 -5 29.5 -16t96.5 -25l-12 -77h-555l11 78q65 14 101 27t38 21l-1 -2l22 160.5l22.5 156l22.5 156l22 160.5q-13 -2 -26 -2h-32q-81 0 -151 20.5t-121.5 61t-81 101.5t-29.5 142q0 16 1 31.5t3 32.5q12 86 54 158.5 t106.5 124.5t148 81t177.5 29q20 0 47.5 -1t59.5 -3.5l66 -5t65 -5.5l78.5 -7t55.5 -5h-1q6 0 17.5 -0.5t26.5 -1t31 -0.5h32z" />
<glyph unicode="&#xb7;" horiz-adv-x="410" d="M352 679q0 -33 -11.5 -67.5t-32.5 -63t-51 -46.5t-67 -18q-48 0 -74.5 31t-26.5 84q0 31 12.5 65t35 62t52.5 46t64 18q46 0 72.5 -30.5t26.5 -80.5z" />
<glyph unicode="&#xc1;" horiz-adv-x="1147" d="M442 559h268l-20 115l-18 104l-18.5 105l-20.5 117zM1071 0h-415l7 80q67 5 96.5 15t26.5 30l-54 307h-344l-67.5 -156l-67.5 -156q-7 -16 22.5 -24.5t101.5 -17.5l-11 -78h-408l10 78q62 11 99.5 24t48.5 33l116.5 268l121.5 279l121.5 278.5l116.5 267.5 q14 13 34.5 27.5t43.5 28.5t45 26l38 21l215 -1200q2 -9 7 -17t17 -14.5t32.5 -11.5t52.5 -9zM1046 1563l-463 -248l-18 13.5t-12 11.5t-8.5 12.5t-7.5 16.5v-1q-2 2 -3 6t-6 17l402 323q10 -6 26 -17l33 -23l32.5 -24t24.5 -22v-65z" />
<glyph unicode="&#xc9;" horiz-adv-x="946" d="M868 268q-23 -97 -44.5 -166.5t-34.5 -101.5h-799l11 78q61 14 97 26t38 20l71.5 511l70.5 512q1 5 -30 16t-94 25l10 77h743l38 -38q-5 -27 -13.5 -60.5t-19 -67.5t-21.5 -64.5t-21 -51.5h-77q4 32 5.5 51.5t1.5 30.5q0 42 -9.5 57t-26.5 15h-309l-26 -190.5l-26 -192.5 h352l32 -47q-12 -16 -27.5 -34.5t-32 -36l-32.5 -33.5t-29 -27q-17 19 -35.5 31t-44.5 18.5t-61.5 9t-87.5 2.5h-50q-15 -118 -32 -235.5t-32 -235.5q0 -8 6 -15t23 -12.5t47 -9t78 -3.5h117q38 0 64 5t48 23t43 52.5t49 93.5zM941 1563l-463 -248l-18 13.5t-12 11.5 t-8.5 12.5t-7.5 16.5v-1q-2 2 -3 6t-6 17l402 323q10 -6 26 -17l33 -23l32.5 -24t24.5 -22v-65z" />
<glyph unicode="&#xcd;" horiz-adv-x="573" d="M608 1187q-61 -14 -97 -26.5t-38 -20.5l-71.5 -511.5l-71.5 -510.5q-1 -5 30 -16t95 -25l-11 -77h-438l11 78q61 14 97 26t38 20l70 511l70 512q1 5 -30.5 16t-92.5 25l12 77h437zM756 1563l-463 -248l-18 13.5t-12 11.5t-8.5 12.5t-7.5 16.5v-1q-2 2 -3 6t-6 17l402 323 q10 -6 26 -17l33 -23l32.5 -24t24.5 -22v-65z" />
<glyph unicode="&#xd3;" horiz-adv-x="1116" d="M907 755q0 78 -16 146.5t-47.5 120t-77.5 81.5t-106 30q-70 0 -126.5 -27.5t-99.5 -74t-74 -107.5t-51 -127t-29 -133.5t-9 -126.5q0 -87 17.5 -160.5t50 -127t78 -83.5t101.5 -30q72 0 128.5 29.5t100 78t74 112.5t49.5 132.5t28 137.5t9 129zM1091 772 q0 -68 -13 -140.5t-36.5 -144t-57.5 -138t-76 -122.5q-41 -52 -89.5 -98.5t-103 -81.5t-115 -56t-126.5 -21q-98 0 -171.5 41.5t-122 112.5t-72.5 166t-24 201q0 62 11 132.5t32.5 140.5t52.5 136.5t71 120.5q42 56 90.5 106t105 87t120 58.5t135.5 21.5q101 0 174 -41.5 t121 -112.5t71 -166t23 -202zM1051 1563l-463 -248l-18 13.5t-12 11.5t-8.5 12.5t-7.5 16.5v-1q-2 2 -3 6t-6 17l402 323q10 -6 26 -17l33 -23l32.5 -24t24.5 -22v-65z" />
<glyph unicode="&#xda;" horiz-adv-x="1227" d="M1282 1187q-60 -14 -93.5 -26.5t-35.5 -20.5l-43.5 -312.5l-43.5 -312.5q-19 -129 -63 -230t-109 -171t-149 -107t-183 -37q-85 0 -155 25.5t-120 75t-78 121.5t-28 166q0 27 2 56.5t7 58.5l47.5 337l47.5 337q1 5 -30 16t-94 25l11 77h438l-10 -78q-62 -14 -98.5 -26.5 t-38.5 -20.5l-42.5 -313.5l-42.5 -313.5v1q-6 -57 -6 -108q0 -64 15.5 -116t45.5 -89t75 -57.5t103 -20.5q59 0 108.5 30t87.5 79.5t63.5 114t36.5 132.5l44 331.5l45 331.5q1 7 -27 19.5t-91 26.5l10 77h405zM1107 1563l-463 -248l-18 13.5t-12 11.5t-8.5 12.5t-7.5 16.5 v-1q-2 2 -3 6t-6 17l402 323q10 -6 26 -17l33 -23l32.5 -24t24.5 -22v-65z" />
<glyph unicode="&#xe1;" horiz-adv-x="922" d="M336 132q20 0 50 28t64 72.5t68 99.5t61 110l19.5 116.5l19.5 110.5q6 31 10 49.5t6 33.5q-27 21 -61.5 38.5t-73.5 17.5q-41 0 -78.5 -21t-68.5 -55.5t-56 -78.5t-42.5 -90.5t-27 -92t-9.5 -82.5q0 -58 9 -105.5t25 -81t38 -51.5t47 -18zM808 755q-15 -70 -27.5 -143.5 t-22 -138t-15 -113t-5.5 -69.5q0 -50 2 -84t5.5 -55t8.5 -30t12 -9q18 0 46.5 6.5t77.5 27.5l23 -70q-94 -62 -151 -89.5t-89 -27.5q-19 0 -37.5 10.5t-33.5 38.5t-24.5 78t-12.5 129q-28 -44 -63.5 -89.5t-74 -82.5t-78 -60.5t-77.5 -23.5q-35 0 -75 19.5t-73.5 62 t-56 110.5t-22.5 164q0 79 18.5 155t55.5 145.5t91 130t125 108.5q27 18 60 35t68 30t70 21t66 8q38 0 77 -17.5t69 -36.5l49 31t57 30l36 -65q-25 -19 -38.5 -32.5t-20.5 -27.5l-17 27zM912 1351l-362 -355q-14 3 -23.5 7.5t-17 10.5t-15 15l-18.5 22l280 410q3 -1 14 -3.5 t15 -4.5q12 -3 27 -7.5t29.5 -9.5t27.5 -10.5t22 -11.5z" />
<glyph unicode="&#xe6;" horiz-adv-x="1325" d="M917 766q-28 -26 -55.5 -62t-50.5 -78.5t-39.5 -89t-23.5 -93.5q113 45 179 82t99.5 69t42.5 61t9 60q0 26 -6 43.5t-16 28.5t-22.5 16t-25.5 5t-39 -9.5t-52 -32.5zM335 132q21 0 51.5 30t64.5 76.5t68.5 104t61.5 112.5q5 33 11 67.5t11 68.5q8 57 14.5 99t10.5 64 q-26 20 -61.5 37t-72.5 17q-41 0 -77.5 -21t-67 -55.5t-54 -78.5t-40 -90.5t-25 -92t-8.5 -82.5q0 -58 8.5 -105.5t24 -81t36 -51.5t44.5 -18zM882 891q-14 -11 -24.5 -20t-14.5 -13q25 19 54.5 35.5t62 29t65.5 19.5t65 7q47 0 81.5 -16.5t57 -43.5t33.5 -61t11 -69 q0 -29 -6.5 -60.5t-26 -65t-55.5 -69.5t-94.5 -74.5t-142.5 -79.5t-201 -85q6 -48 21 -87t35 -66.5t43 -43t45 -15.5q20 0 47.5 4.5t65.5 20t87 44t110 76.5q20 -11 28.5 -22t13.5 -22q1 -2 5 -8l9 -14q-87 -75 -152 -120.5t-116 -70t-91 -33t-77 -8.5q-31 0 -69 13.5 t-73.5 44.5t-64.5 81.5t-41 123.5q-28 -44 -65.5 -90.5t-77.5 -85t-80.5 -63t-76.5 -24.5t-75.5 19.5t-72.5 62t-54 110.5t-21 164q0 79 17.5 155t53 145.5t89.5 130t126 108.5q27 18 59 35t65.5 30t67.5 21t66 8q42 0 78 -17.5t68 -37.5q22 15 47.5 30.5t57.5 30.5z" />
<glyph unicode="&#xe9;" horiz-adv-x="805" d="M404 766q-28 -26 -55.5 -62t-50.5 -78.5t-39.5 -89t-23.5 -93.5q76 30 129.5 56.5t90.5 49.5t59 44.5t33.5 41.5t15 39.5t3.5 40.5q0 26 -6 43.5t-16 28.5t-22.5 16t-25.5 5q-14 0 -40 -9.5t-52 -32.5zM760 759q0 -29 -6.5 -60.5t-26 -65t-55.5 -69.5t-94.5 -74.5 t-142.5 -79.5t-201 -85q6 -48 21 -87t35 -66.5t43 -43t45 -15.5q20 0 47.5 4.5t65.5 19.5t86 43.5t108 77.5q22 -12 37 -34t20 -35q-85 -74 -150 -119t-116 -69.5t-91.5 -32.5t-76.5 -8q-23 0 -51 8t-56.5 26t-55 45.5t-47 67t-33 91t-12.5 116.5q0 77 20 152t56.5 145.5 t88 133t114.5 113.5q24 18 53.5 34.5t62 29t65.5 20t64 7.5q47 0 81.5 -16.5t57 -43.5t33.5 -61t11 -69zM872 1351l-362 -355q-14 3 -23.5 7.5t-17 10.5t-15 15l-18.5 22l280 410q3 -1 14 -3.5t15 -4.5q12 -3 27 -7.5t29.5 -9.5t27.5 -10.5t22 -11.5z" />
<glyph unicode="&#xed;" horiz-adv-x="504" d="M474 82q-100 -60 -164 -91t-109 -31q-42 0 -67 36t-25 97q0 24 4.5 63t12 87t17 102.5l18.5 109.5l17 98l14.5 88.5t10.5 71t4 46.5t-1.5 25t-4 13.5t-6.5 6t-9 1.5q-8 0 -22 -3.5t-29 -8.5q-4 -1 -10 -3q-5 -2 -9.5 -2.5t-9.5 -2.5q-29 -8 -55 61q45 21 90 39.5t83 32.5 t66.5 22.5t41.5 8.5q38 0 53.5 -22.5t15.5 -78.5q0 -22 -4.5 -59t-11.5 -83.5t-16 -100l-18 -108.5l-19 -108t-16 -99.5t-11.5 -82.5t-4.5 -56q0 -38 10 -38q29 0 59 9t78 29zM719 1351l-362 -355q-14 3 -23.5 7.5t-17 10.5t-15 15l-18.5 22l280 410q3 -1 14 -3.5t15 -4.5 q12 -3 27 -7.5t29.5 -9.5t27.5 -10.5t22 -11.5z" />
<glyph unicode="&#xf3;" horiz-adv-x="864" d="M642 510q0 140 -49.5 213.5t-140.5 73.5q-43 0 -76.5 -18t-59 -48t-43.5 -69.5t-29 -82.5t-16 -87.5t-5 -83.5q0 -61 14.5 -115.5t40.5 -95.5t61 -64.5t75 -23.5q42 0 75 19t58 51t43 73.5t29.5 86t17 89t5.5 82.5zM820 563q0 -67 -15 -135.5t-44 -134t-71.5 -123.5 t-98.5 -104q-27 -22 -56.5 -41t-60.5 -33.5t-62.5 -23t-63.5 -8.5q-73 0 -129.5 30t-95.5 83t-59 125t-20 156q0 72 12 139t39.5 129t72.5 119.5t111 110.5q52 41 114 69t127 28q81 0 138 -28.5t93 -79.5t52.5 -122t16.5 -156zM867 1351l-362 -355q-14 3 -23.5 7.5t-17 10.5 t-15 15l-18.5 22l280 410q3 -1 14 -3.5t15 -4.5q12 -3 27 -7.5t29.5 -9.5t27.5 -10.5t22 -11.5z" />
<glyph unicode="&#xfa;" horiz-adv-x="1022" d="M986 78q-88 -59 -148.5 -88.5t-100.5 -29.5q-19 0 -38 12t-34 42.5t-24.5 83t-10.5 133.5q-39 -61 -80.5 -111.5t-86 -85.5t-92 -54.5t-97.5 -19.5q-22 0 -50 16.5t-53 49t-42 81t-17 112.5q0 24 3.5 57t9 72t12.5 81.5l14 84.5l12 76t10.5 69t7.5 58t3 42t-1.5 25 t-4.5 13.5t-6.5 6t-7.5 1.5q-8 0 -23 -3.5t-30 -8.5l-13 -3h1q-4 -2 -10.5 -3.5t-11.5 -3.5q-25 -6 -49 64q45 21 90 39.5t83.5 32.5t67 22t41.5 8q41 0 54.5 -22.5t13.5 -78.5q0 -22 -3.5 -54t-9 -70t-12.5 -80.5l-14 -85.5l-14.5 -85t-12.5 -79.5t-8.5 -68t-3.5 -51.5 q0 -84 15 -120.5t41 -36.5q18 0 47.5 18t67.5 58.5t84 106t95 160.5q5 27 9 52.5t9 51.5l8.5 54l8.5 56t6.5 49.5t2.5 35.5q0 16 -1 25t-3.5 13.5t-5.5 6t-7 1.5q-7 0 -20.5 -3.5t-27.5 -8.5q-4 -1 -10 -3q-5 -2 -6 -1.5t-5 -1.5q-35 -10 -62 59l89.5 39.5t80.5 32.5 t65 22.5t41 8.5q39 0 51.5 -22.5t12.5 -78.5q0 -19 -3.5 -51t-9 -70.5t-12.5 -79.5l-13 -77l-14.5 -88.5t-13.5 -84.5t-9.5 -73.5t-3.5 -56.5q0 -79 7.5 -116.5t22.5 -37.5q24 0 52 8t71 25zM943 1351l-362 -355q-14 3 -23.5 7.5t-17 10.5t-15 15l-18.5 22l280 410 q3 -1 14 -3.5t15 -4.5q12 -3 27 -7.5t29.5 -9.5t27.5 -10.5t22 -11.5z" />
<glyph unicode="&#x104;" horiz-adv-x="1147" d="M442 559h268l-20 115l-18 104l-18.5 105l-20.5 117zM1071 0h-415l7 80q67 5 96.5 15t26.5 30l-54 307h-344l-67.5 -156l-67.5 -156q-7 -16 22.5 -24.5t101.5 -17.5l-11 -78h-408l10 78q62 11 99.5 24t48.5 33l116.5 268l121.5 279l121.5 278.5l116.5 267.5 q14 13 34.5 27.5t43.5 28.5t45 26l38 21l215 -1200q2 -9 7 -17t17 -14.5t32.5 -11.5t52.5 -9zM941 -275q-25 -30 -55 -58.5t-61 -51t-61.5 -36t-57.5 -13.5q-26 0 -50.5 6t-43 21t-30 40t-11.5 63q0 60 28.5 113.5t73.5 100.5t100.5 85.5t109.5 68.5l106 -13 q-46 -31 -93 -69t-84.5 -79t-61.5 -82.5t-24 -80.5q0 -16 12.5 -24t32.5 -8q19 0 52.5 20t81.5 64z" />
<glyph unicode="&#x105;" horiz-adv-x="922" d="M336 132q20 0 50 28t64 72.5t68 99.5t61 110l19.5 116.5l19.5 110.5q6 31 10 49.5t6 33.5q-27 21 -61.5 38.5t-73.5 17.5q-41 0 -78.5 -21t-68.5 -55.5t-56 -78.5t-42.5 -90.5t-27 -92t-9.5 -82.5q0 -58 9 -105.5t25 -81t38 -51.5t47 -18zM808 755q-15 -70 -27.5 -143.5 t-22 -138t-15 -113t-5.5 -69.5q0 -50 2 -84t5.5 -55t8.5 -30t12 -9q18 0 46.5 6.5t77.5 27.5l23 -70q-94 -62 -151 -89.5t-89 -27.5q-19 0 -37.5 10.5t-33.5 38.5t-24.5 78t-12.5 129q-28 -44 -63.5 -89.5t-74 -82.5t-78 -60.5t-77.5 -23.5q-35 0 -75 19.5t-73.5 62 t-56 110.5t-22.5 164q0 79 18.5 155t55.5 145.5t91 130t125 108.5q27 18 60 35t68 30t70 21t66 8q38 0 77 -17.5t69 -36.5l49 31t57 30l36 -65q-25 -19 -38.5 -32.5t-20.5 -27.5l-17 27zM818 -275q-25 -30 -55 -58.5t-61 -51t-61.5 -36t-57.5 -13.5q-26 0 -50.5 6t-43 21 t-30 40t-11.5 63q0 60 28.5 113.5t73.5 100.5t100.5 85.5t109.5 68.5l106 -13q-46 -31 -93 -69t-84.5 -79t-61.5 -82.5t-24 -80.5q0 -16 12.5 -24t32.5 -8q19 0 52.5 20t81.5 64z" />
<glyph unicode="&#x10c;" horiz-adv-x="995" d="M1019 1189q6 -8 -5.5 -29.5t-30.5 -47t-40.5 -49.5t-36.5 -37l-45 11q-39 44 -93.5 72t-129.5 28q-17 0 -38 -5t-42.5 -13t-43 -19.5t-39.5 -25.5q-56 -47 -97.5 -117.5t-68.5 -148t-40.5 -153.5t-13.5 -134q0 -101 27 -174.5t69 -121t93 -70.5t99 -23q26 0 57.5 8.5 t69.5 27t84.5 49t101.5 74.5q22 -10 30.5 -24t13.5 -25q2 -5 5 -9q2 -4 4 -7t2 -5q-71 -71 -132.5 -118.5t-116.5 -76t-105 -40.5t-98 -12q-76 0 -146.5 33t-124.5 96t-86.5 154.5t-32.5 208.5q0 94 18.5 190.5t57.5 188t99.5 175t144.5 150.5q74 57 158.5 90.5t180.5 33.5 q101 0 172.5 -29.5t116.5 -72.5zM748 1341h-109l-202 314q10 13 17 21t13 14t11 10.5t12 9.5l15 15l210 -201l64 49.5l67 51l67 50.5l63 48l17 -17t12.5 -14.5t11 -17t12.5 -23.5z" />
<glyph unicode="&#x10d;" horiz-adv-x="795" d="M814 797q-3 -2 -5.5 -4t-4.5 -4l-43.5 -31t-43.5 -28.5t-40 -20.5t-34 -8q-14 0 -27.5 11.5t-28.5 27.5h1l-23.5 23t-27 22t-29.5 16.5t-32 6.5q-41 0 -76 -20.5t-62.5 -55t-48.5 -79.5t-35.5 -93.5t-21.5 -98.5t-7 -93q0 -58 12.5 -105.5t35.5 -80.5t54.5 -51t68.5 -18 q17 0 42.5 6.5t61 23t81 46t101.5 74.5q4 -5 12.5 -17t12.5 -16l14 -19t13 -19q-81 -75 -145.5 -120.5t-116.5 -70t-93.5 -33t-77.5 -8.5t-80.5 18t-83.5 60.5t-66 114.5t-27 180q0 68 14 139.5t45.5 140.5t82.5 131t125 111q28 18 62.5 35t71.5 30t73.5 21t67.5 8 q32 0 59 -8.5t49.5 -21.5t41 -28.5t33.5 -29.5l23 -19.5t16 -10.5zM595 1021h-111l-194 363l17 20.5t12.5 14.5t10.5 10.5t12 9.5q3 2 9 8l7 7l205 -238l132.5 118.5l131.5 117.5l17.5 -17t13 -14.5t11 -17t12.5 -24.5z" />
<glyph unicode="&#x12e;" horiz-adv-x="573" d="M608 1187q-61 -14 -97 -26.5t-38 -20.5l-71.5 -511.5l-71.5 -510.5q-1 -5 30 -16t95 -25l-11 -77h-438l11 78q61 14 97 26t38 20l70 511l70 512q1 5 -30.5 16t-92.5 25l12 77h437zM380 -275q-25 -30 -55 -58.5t-61 -51t-61.5 -36t-57.5 -13.5q-26 0 -50.5 6t-43 21 t-30 40t-11.5 63q0 60 28.5 113.5t73.5 100.5t100.5 85.5t109.5 68.5l106 -13q-46 -31 -93 -69t-84.5 -79t-61.5 -82.5t-24 -80.5q0 -16 12.5 -24t32.5 -8q19 0 52.5 20t81.5 64z" />
<glyph unicode="&#x12f;" horiz-adv-x="504" d="M496 1247q0 -30 -10 -60.5t-28 -55t-43.5 -40t-57.5 -15.5q-40 0 -61.5 22.5t-21.5 65.5q0 29 10 59.5t28 55.5t44 41t57 16q40 0 61.5 -23t21.5 -66zM474 82q-100 -60 -164 -91t-109 -31q-42 0 -66.5 36t-24.5 97q0 24 4.5 63t11.5 87t16.5 102.5l18.5 109.5l17 98 l14.5 88.5t10.5 71t4 46.5t-1.5 25t-4 13.5t-6.5 6t-9 1.5q-7 0 -21.5 -3.5t-29.5 -8.5q-4 -1 -10 -3q-5 -2 -9.5 -2.5t-8.5 -2.5q-29 -8 -56 61q45 21 90 39.5t83 32.5t66.5 22.5t41.5 8.5q38 0 53.5 -22.5t15.5 -78.5q0 -22 -4.5 -59t-11.5 -83.5t-16 -100l-18 -108.5 l-18.5 -108t-16.5 -99.5t-11.5 -82.5t-4.5 -56q0 -38 10 -38q29 0 59 9t78 29zM373 -275q-25 -30 -55 -58.5t-61 -51t-61.5 -36t-57.5 -13.5q-26 0 -50.5 6t-43 21t-30 40t-11.5 63q0 60 28.5 113.5t73.5 100.5t100.5 85.5t109.5 68.5l106 -13q-46 -31 -93 -69t-84.5 -79 t-61.5 -82.5t-24 -80.5q0 -16 12.5 -24t32.5 -8q19 0 52.5 20t81.5 64z" />
<glyph unicode="&#x131;" horiz-adv-x="504" d="M474 82q-100 -60 -164 -91t-109 -31q-42 0 -67 36t-25 97q0 24 4.5 63t12 87t17 102.5l18.5 109.5l17 98l14.5 88.5t10.5 71t4 46.5t-1.5 25t-4 13.5t-6.5 6t-9 1.5q-8 0 -22 -3.5t-29 -8.5q-4 -1 -10 -3q-5 -2 -9.5 -2.5t-9.5 -2.5q-29 -8 -55 61q45 21 90 39.5t83 32.5 t66.5 22.5t41.5 8.5q38 0 53.5 -22.5t15.5 -78.5q0 -22 -4.5 -59t-11.5 -83.5t-16 -100l-18 -108.5l-19 -108t-16 -99.5t-11.5 -82.5t-4.5 -56q0 -38 10 -38q29 0 59 9t78 29z" />
<glyph unicode="&#x147;" horiz-adv-x="1239" d="M1288 1186q-65 -10 -96 -22.5t-33 -23.5l-163 -1173q-28 4 -50 9t-39.5 14t-32 24t-28.5 40l-455 878l-55 -405l-55 -405q-2 -8 26 -20.5t94 -23.5l-11 -78h-395l11 79q66 9 97.5 22t33.5 23l71 506l70 506q-23 23 -53.5 33t-75.5 19l11 77h190q25 0 40.5 -3t26.5 -12.5 t21.5 -26.5t24.5 -45l220 -419.5l222 -423.5l56 405.5l56 405.5q1 7 -27 18t-96 23l11 78h394zM799 1341h-109l-202 314q10 13 17 21t13 14t11 10.5t12 9.5l15 15l210 -201l64 49.5l67 51l67 50.5l63 48l17 -17t12.5 -14.5t11 -17t12.5 -23.5z" />
<glyph unicode="&#x148;" horiz-adv-x="1012" d="M985 82q-99 -59 -166 -90.5t-108 -31.5q-44 0 -67.5 36t-23.5 97q0 13 3.5 40.5t9 64.5l12.5 81.5t15 90.5q9 52 17 104l15 97t11 79t4 50q0 63 -11 88t-43 25q-12 0 -41 -15.5t-66.5 -45.5t-78.5 -74.5t-76 -103.5q-25 -44 -41.5 -108.5t-33.5 -157.5v1 q-12 -72 -17.5 -125t-5.5 -100q0 -11 0.5 -25.5t1.5 -25.5q-22 -12 -40.5 -20.5l-37.5 -16.5q-22 -11 -40.5 -18t-43.5 -22l-51 47q14 66 27.5 141t26 152t23 150.5t18.5 136t12.5 109.5t4.5 69q0 16 -1 25t-3.5 13.5t-5.5 5.5t-7 1q-8 0 -23 -3t-31 -8q-9 -2 -17 -4.5 l-14 -4.5q-31 -11 -57 63q45 20 90.5 38t84.5 31.5t68 22t42 8.5q21 0 32.5 -5t17 -19t7 -39t1.5 -66q0 -12 -1.5 -35t-3.5 -47q99 111 197 161t181 50q36 0 63 -9.5t45 -32t27.5 -58t9.5 -88.5q0 -27 -4 -66t-11 -84t-15.5 -94l-16.5 -96q-8 -42 -15 -83t-12.5 -77 t-9 -64.5t-3.5 -45.5q0 -22 3.5 -30t11.5 -8q20 0 51 9.5t82 29.5zM649 1021h-111l-194 363l17 20.5t12.5 14.5t10.5 10.5t12 9.5q3 2 9 8l7 7l205 -238l132.5 118.5l131.5 117.5l17.5 -17t13 -14.5t11 -17t12.5 -24.5z" />
<glyph unicode="&#x14a;" horiz-adv-x="1124" d="M1110 1033q0 -20 -1.5 -42.5t-3.5 -48.5l-99 -718q-15 -99 -44 -184.5t-68 -156.5t-85.5 -127t-96.5 -95q-25 -19 -58 -36t-70 -29.5t-75 -20t-72 -7.5q-46 0 -87.5 14.5t-73 35.5t-49.5 44t-18 40q0 9 17.5 30.5t41.5 43t50.5 38t44.5 16.5q12 0 23 -10.5t22 -24.5 l20 -24t26 -24.5t33.5 -19t41.5 -7.5q116 0 187.5 114.5t103.5 343.5l45.5 332l44.5 332q6 37 8 68t2 58q0 42 -7 71t-19 47t-29.5 26t-38.5 8q-25 0 -64.5 -15.5t-85 -45.5t-93 -75t-88.5 -104.5t-71 -132.5t-41 -160l-63 -465q-2 -7 29.5 -19t92.5 -26l-11 -77h-438l10 78 q61 14 97.5 26t38.5 20l30.5 223.5l31.5 230l32 230.5l31 224q4 22 5.5 39.5t1.5 29.5q0 23 -7 33t-23 10q-17 0 -49 -7.5t-79 -19.5l-17 90l104 36.5t87 27.5t67 17t43 6q36 0 48 -33.5t12 -89.5q0 -23 -3 -69.5t-11 -98.5q59 80 121.5 135t122.5 90t115 50.5t99 15.5 q36 0 73.5 -12t67.5 -42t49 -80.5t19 -126.5z" />
<glyph unicode="&#x14b;" horiz-adv-x="989" d="M889 761q0 -23 -4 -66.5t-11 -100t-17 -123l-21.5 -136.5l-24 -141l-24.5 -136q-18 -90 -45.5 -160.5t-62 -126.5t-73.5 -100t-79 -80q-28 -23 -61 -38t-65 -24t-60 -12.5t-45 -3.5q-30 0 -70 13.5t-76.5 31.5t-62 36.5t-25.5 29.5q0 15 15 38.5t35.5 46t41.5 38.5t34 16 q11 0 23 -8.5t27 -22.5l27.5 -22t33 -22.5t37.5 -17.5t41 -7q45 0 78 19.5t58.5 62t45 109t37.5 159.5q24 122 43.5 234t33 204t20.5 157t7 92q0 63 -11 88t-43 25q-12 0 -41.5 -15.5t-67 -45.5t-78 -74.5t-75.5 -103.5q-25 -44 -41.5 -108.5t-33.5 -157.5v1 q-12 -72 -17.5 -125t-5.5 -100q0 -11 0.5 -25.5t1.5 -25.5q-22 -12 -40.5 -20.5l-37.5 -16.5q-23 -11 -41.5 -18t-43.5 -22l-50 47q14 66 27.5 141t26 152t23 150.5t18.5 136t12.5 109.5t4.5 69q0 16 -1 25t-3.5 13.5t-5.5 5.5t-7 1q-8 0 -23 -3t-31 -8q-20 -5 -32 -9 q-30 -11 -56 63q45 20 90.5 38t84.5 31.5t68 22t42 8.5q21 0 32.5 -5t17 -19t6.5 -39t1 -66q0 -12 -1 -35t-3 -47q99 111 197 161t181 50q35 0 62 -9.5t45.5 -32t28 -58t9.5 -88.5z" />
<glyph unicode="&#x160;" horiz-adv-x="899" d="M872 1200q6 -4 2.5 -17t-12.5 -30.5t-22.5 -37.5t-27.5 -37.5t-27 -31t-21 -18.5l-41 10q-16 23 -36 43.5t-43 37t-48 26t-51 9.5q-48 0 -85 -15.5t-62.5 -39.5t-39 -53.5t-13.5 -58.5q0 -19 6.5 -39.5t26.5 -44t57.5 -50t99.5 -57.5q80 -42 135 -79.5t89.5 -77.5t50 -86 t15.5 -105q0 -95 -39.5 -181.5t-107 -152.5t-157 -105t-189.5 -39q-40 0 -90.5 14.5t-95.5 37.5t-76 52t-31 57q0 14 13.5 39.5t32.5 51.5t40.5 45t36.5 19q14 0 26 -11.5t27 -31.5q12 -16 28.5 -35.5t38.5 -36t50.5 -28t64.5 -11.5q55 0 102.5 18.5t83 50.5t55.5 75.5 t20 93.5q0 70 -56.5 131t-185.5 125q-63 31 -106.5 67.5t-70 75t-38 78t-11.5 75.5q0 68 31 134.5t88 119.5t137 85.5t178 32.5q75 0 137 -28t111 -66zM636 1341h-109l-202 314q10 13 17 21t13 14t11 10.5t12 9.5l15 15l210 -201l64 49.5l67 51l67 50.5l63 48l17 -17 t12.5 -14.5t11 -17t12.5 -23.5z" />
<glyph unicode="&#x161;" horiz-adv-x="711" d="M703 828q-20 -23 -41 -42.5t-39.5 -34t-33.5 -22.5t-24 -8q-17 0 -30.5 12.5t-28.5 30.5q-9 11 -19.5 22t-22.5 21t-26 16t-30 6q-23 0 -46 -9t-41 -24.5t-29.5 -37.5t-11.5 -49q0 -29 30 -62t102 -66q42 -20 84 -45.5t75.5 -59.5t54.5 -77t21 -98q0 -72 -36.5 -134 t-93.5 -108t-126.5 -72.5t-136.5 -26.5q-49 0 -97 15.5t-86 38.5t-61.5 50t-23.5 51q0 12 14 36t33.5 47t39.5 40.5t32 17.5q14 0 23.5 -12.5t18.5 -28.5l26 -38.5t37 -40t52 -31.5t70 -13q30 0 57 11.5t47.5 31t32 46t11.5 55.5q0 34 -14.5 62t-39.5 51t-56.5 42t-66.5 35 q-53 26 -89.5 52t-59.5 54t-33.5 58.5t-10.5 64.5q0 66 32 120t82.5 92.5t112.5 60t123 21.5q36 0 63.5 -6t50 -15t40.5 -20t33 -22l25.5 -17t20.5 -10zM502 1021h-111l-194 363l17 20.5t12.5 14.5t10.5 10.5t12 9.5q3 2 9 8l7 7l205 -238l132.5 118.5l131.5 117.5l17.5 -17 t13 -14.5t11 -17t12.5 -24.5z" />
<glyph unicode="&#x172;" horiz-adv-x="1227" d="M1282 1187q-60 -14 -93.5 -26.5t-35.5 -20.5l-43.5 -312.5l-43.5 -312.5q-19 -129 -63 -230t-109 -171t-149 -107t-183 -37q-85 0 -155 25.5t-120 75t-78 121.5t-28 166q0 27 2 56.5t7 58.5l47.5 337l47.5 337q1 5 -30 16t-94 25l11 77h438l-10 -78q-62 -14 -98.5 -26.5 t-38.5 -20.5l-42.5 -313.5l-42.5 -313.5v1q-6 -57 -6 -108q0 -64 15.5 -116t45.5 -89t75 -57.5t103 -20.5q59 0 108.5 30t87.5 79.5t63.5 114t36.5 132.5l44 331.5l45 331.5q1 7 -27 19.5t-91 26.5l10 77h405zM756 -275q-25 -30 -55 -58.5t-61 -51t-61.5 -36t-57.5 -13.5 q-26 0 -50.5 6t-43 21t-30 40t-11.5 63q0 60 28.5 113.5t73.5 100.5t100.5 85.5t109.5 68.5l106 -13q-46 -31 -93 -69t-84.5 -79t-61.5 -82.5t-24 -80.5q0 -16 12.5 -24t32.5 -8q19 0 52.5 20t81.5 64z" />
<glyph unicode="&#x173;" horiz-adv-x="1022" d="M986 78q-88 -59 -148.5 -88.5t-100.5 -29.5q-19 0 -38 12t-34 42.5t-24.5 83t-10.5 133.5q-39 -61 -80.5 -111.5t-86 -85.5t-92 -54.5t-97.5 -19.5q-22 0 -50 16.5t-53 49t-42 81t-17 112.5q0 24 3.5 57t9 72t12.5 81.5l14 84.5l12 76t10.5 69t7.5 58t3 42t-1.5 25 t-4.5 13.5t-6.5 6t-7.5 1.5q-8 0 -23 -3.5t-30 -8.5l-13 -3h1q-4 -2 -10.5 -3.5t-11.5 -3.5q-25 -6 -49 64q45 21 90 39.5t83.5 32.5t67 22t41.5 8q41 0 54.5 -22.5t13.5 -78.5q0 -22 -3.5 -54t-9 -70t-12.5 -80.5l-14 -85.5l-14.5 -85t-12.5 -79.5t-8.5 -68t-3.5 -51.5 q0 -84 15 -120.5t41 -36.5q18 0 47.5 18t67.5 58.5t84 106t95 160.5q5 27 9 52.5t9 51.5l8.5 54l8.5 56t6.5 49.5t2.5 35.5q0 16 -1 25t-3.5 13.5t-5.5 6t-7 1.5q-7 0 -20.5 -3.5t-27.5 -8.5q-4 -1 -10 -3q-5 -2 -6 -1.5t-5 -1.5q-35 -10 -62 59l89.5 39.5t80.5 32.5 t65 22.5t41 8.5q39 0 51.5 -22.5t12.5 -78.5q0 -19 -3.5 -51t-9 -70.5t-12.5 -79.5l-13 -77l-14.5 -88.5t-13.5 -84.5t-9.5 -73.5t-3.5 -56.5q0 -79 7.5 -116.5t22.5 -37.5q24 0 52 8t71 25zM892 -275q-25 -30 -55 -58.5t-61 -51t-61.5 -36t-57.5 -13.5q-26 0 -50.5 6 t-43 21t-30 40t-11.5 63q0 60 28.5 113.5t73.5 100.5t100.5 85.5t109.5 68.5l106 -13q-46 -31 -93 -69t-84.5 -79t-61.5 -82.5t-24 -80.5q0 -16 12.5 -24t32.5 -8q19 0 52.5 20t81.5 64z" />
<glyph unicode="&#x17d;" horiz-adv-x="1022" d="M287 136h435q16 0 30.5 9.5t31 33.5t36.5 65.5t46 105.5l81 -22q-6 -32 -13.5 -77l-15.5 -91.5l-15.5 -89l-12.5 -70.5h-842l-26 65l754 1070h-374q-12 0 -29 -10.5t-35.5 -34.5t-38 -62.5t-37.5 -93.5l-86 19l80 344q29 -12 51.5 -18.5t43.5 -9.5t41.5 -3.5t44.5 -0.5 h570l25 -66zM701 1341h-109l-202 314q10 13 17 21t13 14t11 10.5t12 9.5l15 15l210 -201l64 49.5l67 51l67 50.5l63 48l17 -17t12.5 -14.5t11 -17t12.5 -23.5z" />
<glyph unicode="&#x17e;" horiz-adv-x="776" d="M790 878q-51 -55 -94 -108l-82 -104.5l-74.5 -103l-71.5 -104.5l-45 -66l-40.5 -60l-43.5 -62t-55 -72q8 2 14 2h15q18 0 46 -6.5t61 -17.5l87.5 -24t84.5 -12q8 0 18 3t23.5 14.5t30.5 34t38 62.5l67 -38q-31 -68 -54 -113.5t-49.5 -72.5t-60.5 -38t-87 -11 q-55 0 -102.5 12t-90.5 26q-32 11 -61 19t-54 8q-21 0 -50 -13t-76 -37q-11 -6 -30 -15.5l-33 -16.5l-39 58q46 54 92.5 116l92.5 126l90.5 128.5l85.5 124.5l103 151t78 105h-253q-19 0 -32.5 -4t-25 -17.5t-23 -39t-26.5 -67.5l-74 14q11 50 24 101.5l22 85.5 q4 13 7.5 28.5t6.5 30.5l5.5 28t4.5 22l40 -12q14 -5 31 -9.5t40 -4.5h486zM563 1021h-111l-194 363l17 20.5t12.5 14.5t10.5 10.5t12 9.5q3 2 9 8l7 7l205 -238l132.5 118.5l131.5 117.5l17.5 -17t13 -14.5t11 -17t12.5 -24.5z" />
<glyph unicode="&#x1dd;" horiz-adv-x="805" d="M428 144q31 26 58 65.5t47 87t33 99t16 101.5q-115 -47 -181.5 -88.5t-100.5 -79t-43.5 -70.5t-9.5 -64q0 -52 21.5 -73.5t48.5 -21.5q22 0 52.5 11.5t58.5 33.5v-1zM760 595q0 -76 -16 -151.5t-48 -145.5t-80.5 -132.5t-114.5 -113.5q-24 -18 -54 -34.5t-64 -29 t-71.5 -20.5t-75.5 -8q-47 0 -81.5 17t-57 44t-33.5 61t-11 69q0 29 6.5 61.5t25.5 69t54.5 75.5t93.5 80t141.5 84.5t199.5 87.5q-8 42 -23.5 76.5t-34.5 59t-40 38.5t-41 14t-48 -4.5t-65.5 -19.5t-85.5 -44t-109 -77q-10 6 -19.5 15t-16.5 18.5t-12 19t-8 16.5 q85 74 150 118.5t116 69t91.5 32.5t76.5 8q35 0 79 -18.5t83 -60.5t66 -109.5t27 -165.5z" />
<glyph unicode="&#x1e6;" horiz-adv-x="1073" d="M1061 529q-53 -15 -76.5 -33t-25.5 -35l-40 -287q2 -2 3.5 -4.5t3.5 -4.5q-81 -64 -141.5 -103t-109 -59t-89.5 -26.5t-82 -6.5q-84 0 -162.5 34t-139 99t-96.5 160t-36 217q0 95 22.5 190.5t62.5 183.5t96 163.5t123 129.5q85 66 188.5 106.5t224.5 40.5q31 0 67 -7 t72 -20.5t69.5 -33t59.5 -43.5q8 -9 -3 -31t-30 -47.5t-41.5 -49.5t-38.5 -36l-41 9q-50 60 -111.5 82t-144.5 22q-35 0 -84 -23.5t-99 -64.5q-48 -38 -86.5 -100.5t-65.5 -136t-41.5 -150t-14.5 -143.5q0 -99 29.5 -171.5t76.5 -120.5t105 -71.5t115 -23.5q46 0 91.5 13.5 t77.5 34.5l19 142.5l19 142.5q0 6 -7 12t-29.5 13t-64.5 15.5t-113 19.5l11 78h488zM782 1341h-109l-202 314q10 13 17 21t13 14t11 10.5t12 9.5l15 15l210 -201l64 49.5l67 51l67 50.5l63 48l17 -17t12.5 -14.5t11 -17t12.5 -23.5z" />
<glyph unicode="&#x1e7;" horiz-adv-x="911" d="M341 132q17 0 49.5 32t70.5 85.5t77 123t70 145.5v1l8 74.5t12 82.5q2 17 6 33.5t9 31.5q-13 11 -29 23t-34 21.5t-38 16t-42 6.5q-41 0 -78.5 -21t-69 -55.5t-57 -78.5t-43 -90.5t-27 -92t-9.5 -82.5q0 -58 10 -105.5t27.5 -81t40 -51.5t47.5 -18zM892 892 q-34 -29 -55.5 -69.5t-29.5 -105.5q-12 -103 -18.5 -196t-10.5 -169q-5 -92 -11.5 -173.5t-21.5 -161.5v1q-18 -104 -64 -196t-109.5 -160.5t-140 -108t-155.5 -39.5q-44 0 -94.5 14t-93.5 34.5t-71.5 44.5t-28.5 44q0 19 15 43t34.5 45.5t39 36t27.5 14.5q14 0 24.5 -9.5 t22.5 -23.5h-1l26.5 -30t39 -32t56.5 -25t78 -10q84 0 135.5 82t78.5 234q12 81 19 152t10 137q-33 -56 -72.5 -111t-81.5 -98t-85 -69.5t-83 -26.5q-35 0 -75.5 19.5t-74.5 62t-56.5 110.5t-22.5 164q0 160 72.5 300t221.5 239q28 18 60.5 35t67 30t69 21t65.5 8 q42 0 77 -18.5t65 -37.5q5 -3 3 -2t2 -2q46 37 107 66zM580 1021h-111l-194 363l17 20.5t12.5 14.5t10.5 10.5t12 9.5q3 2 9 8l7 7l205 -238l132.5 118.5l131.5 117.5l17.5 -17t13 -14.5t11 -17t12.5 -24.5z" />
<glyph unicode="&#x1f0;" horiz-adv-x="502" d="M384 866q0 -10 -2 -35.5t-5.5 -59t-8 -72.5l-8.5 -75l-9.5 -84t-6.5 -62l-4.5 -44t-4.5 -50q-6 -62 -14.5 -140.5t-22.5 -162.5q-20 -117 -49 -196.5t-64.5 -134t-75.5 -91t-81 -68.5q-28 -21 -60.5 -36t-64 -24t-59.5 -13t-46 -4q-31 0 -64.5 10t-61.5 24t-46.5 30.5 t-18.5 28.5q0 15 15 38.5t35.5 46t41.5 38.5t33 16q11 0 19 -6t18 -15l21 -18.5t28.5 -19.5t37.5 -15t48 -6q73 0 122 96t79 271q20 118 31 214.5t17 160.5q2 15 2.5 28.5t1.5 24.5l5.5 58.5t8.5 78.5q3 26 5.5 51t5 46.5t3.5 38t1 25.5q0 16 -1.5 25t-4.5 13.5t-6.5 6 t-8.5 1.5q-8 0 -22 -3.5t-29 -8.5q-4 -1 -10 -3q-5 -2 -9.5 -2.5t-8.5 -2.5q-30 -7 -58 61q45 21 90.5 39.5t83.5 32.5t67 22.5t41 8.5q18 0 32 -3t23.5 -12t14 -25t4.5 -43zM392 1021h-111l-194 363l17 20.5t12.5 14.5t10.5 10.5t12 9.5q3 2 9 8l7 7l205 -238l132.5 118.5 l131.5 117.5l17.5 -17t13 -14.5t11 -17t12.5 -24.5z" />
<glyph unicode="&#x21e;" horiz-adv-x="1235" d="M597 1187q-61 -14 -97.5 -26.5t-38.5 -20.5l-28 -207.5l-28 -207.5h501l29 211l29 211q1 5 -29.5 16t-91.5 25l6 77h442l-11 -78q-61 -14 -97 -26.5t-38 -20.5l-71 -511.5l-71 -510.5q-2 -5 29.5 -16t94.5 -25l-10 -77h-439l12 78q60 14 95.5 26t37.5 20l32.5 236.5 l32.5 236.5h-502l-31.5 -237.5l-31.5 -237.5q-2 -7 29.5 -19t92.5 -26l-11 -77h-439l11 78q61 14 97 26t38 20l71 511l71 512q1 5 -30 16t-94 25l10 77h439zM799 1311h-109l-202 314q10 13 17 21t13 14t11 10.5t12 9.5l15 15l210 -201l64 49.5l67 51l67 50.5l63 48l17 -17 t12.5 -14.5t11 -17t12.5 -23.5z" />
<glyph unicode="&#x21f;" horiz-adv-x="1012" d="M981 82q-100 -58 -164.5 -90t-108.5 -32q-37 0 -64 36t-27 97q0 13 3 40.5t8.5 64.5l12 81.5l13.5 90.5q9 52 17 104l14.5 97t10.5 79t4 50q0 63 -9.5 87t-38.5 24q-12 0 -42 -15t-69 -44.5t-81 -73.5t-77 -102q-24 -45 -41 -113t-31 -154q-13 -81 -18.5 -133.5 t-5.5 -87.5q0 -12 1 -28t2 -27q-23 -12 -41 -20.5t-37 -16.5q-23 -11 -41.5 -18t-43.5 -22l-50 47l21.5 131.5l27.5 172l31.5 197l32.5 207l30 201.5t24.5 180.5t17 144t6.5 92.5q0 16 -1.5 25t-4.5 13.5t-6.5 6t-7.5 1.5q-8 0 -25.5 -4t-34.5 -9q-10 -2 -17.5 -4.5 t-15.5 -4.5q-31 -8 -54 63l90 38.5t84.5 32.5t69 22.5t42.5 8.5q37 0 57 -22t20 -78q0 -20 -4.5 -64.5t-12 -103l-17 -127l-19.5 -136l-20 -131l-17 -111.5q51 53 102 91.5t100 63.5t95 37t85 12q71 0 102 -42.5t31 -147.5q0 -27 -4 -65.5t-10.5 -83t-14.5 -93t-17 -96.5 l-13.5 -82.5l-12 -76.5t-9 -65t-3.5 -46q0 -22 5.5 -30t10.5 -8q26 0 58.5 9.5t74.5 28.5zM717 1551h-109l-202 314q10 13 17 21t13 14t11 10.5t12 9.5l15 15l210 -201l64 49.5l67 51l67 50.5l63 48l17 -17t12.5 -14.5t11 -17t12.5 -23.5z" />
<glyph unicode="&#x2bc;" horiz-adv-x="473" d="M473 1308q-8 -34 -26.5 -71.5t-47 -73.5t-67 -69t-85.5 -59l-54 56q47 41 74 80.5t36 77.5h-1q3 17 3 27q0 32 -24.5 53.5t-81.5 21.5l-7 66q11 12 39.5 25.5t62 25t65 18.5t47.5 6q41 -20 57 -54.5t16 -75.5q0 -14 -1.5 -26.5t-3.5 -25.5z" />
<glyph unicode="&#x301;" horiz-adv-x="0" d="M9 1351l-362 -355q-14 3 -23.5 7.5t-17 10.5t-15 15l-18.5 22l280 410q3 -1 14 -3.5t15 -4.5q12 -3 27 -7.5t29.5 -9.5t27.5 -10.5t22 -11.5z" />
<glyph unicode="&#x30c;" horiz-adv-x="0" d="M-292 1021h-111l-194 363l17 20.5t12.5 14.5t10.5 10.5t12 9.5q3 2 9 8l7 7l205 -238l132.5 118.5l131.5 117.5l17.5 -17t13 -14.5t11 -17t12.5 -24.5z" />
<glyph unicode="&#x328;" horiz-adv-x="0" d="M-361 -275q-25 -30 -55 -58.5t-61 -51t-61.5 -36t-57.5 -13.5q-26 0 -50.5 6t-43 21t-30 40t-11.5 63q0 60 28.5 113.5t73.5 100.5t100.5 85.5t109.5 68.5l106 -13q-46 -31 -93 -69t-84.5 -79t-61.5 -82.5t-24 -80.5q0 -16 12.5 -24t32.5 -8q19 0 52.5 20t81.5 64z" />
<glyph unicode="&#x2013;" d="M774 549q-11 -26 -25 -55l-25 -51h-663l-31 40q10 26 24 53t30 53h657z" />
<glyph unicode="&#x2014;" horiz-adv-x="1510" d="M1450 551q-8 -29 -22 -58t-28 -50h-1330l-30 40q9 26 23.5 53l29.5 53h1328z" />
<glyph unicode="&#x2018;" horiz-adv-x="410" d="M443 1395q-19 -18 -41 -44t-41 -54.5t-31 -58t-12 -53.5q0 -27 25 -44t73 -15l14 -72q-12 -12 -43 -30t-67 -34t-70.5 -26.5t-53.5 -8.5q-31 21 -49 50t-18 70q0 54 24 108.5t61 105t81.5 93.5t86.5 73z" />
<glyph unicode="&#x2019;" horiz-adv-x="410" d="M471 1307q0 -54 -24 -108t-60.5 -103.5t-81.5 -93t-87 -76.5l-60 59q18 18 40 45t40.5 56t31 58.5t12.5 52.5q0 29 -25 46t-73 15l-14 69q12 14 43.5 32t67.5 34t69.5 27t51.5 10q32 -23 50.5 -52t18.5 -71z" />
<glyph unicode="&#x201a;" horiz-adv-x="465" d="M301 129q0 -54 -24 -108.5t-60.5 -104.5t-81.5 -93t-87 -74l-60 59q18 18 40 44.5t40.5 55.5t31 58t12.5 53q0 27 -25 45t-73 18l-14 69q12 13 43 31t67 34t70 26.5t51 9.5q31 -22 50.5 -51.5t19.5 -71.5z" />
<glyph unicode="&#x201c;" horiz-adv-x="834" d="M831 1396q-19 -18 -41 -44.5t-40.5 -55t-31 -58t-12.5 -53.5q0 -27 25 -44t73 -15l11 -73q-12 -12 -43 -29.5t-67 -33.5t-70 -26.5t-51 -8.5q-32 22 -49 51t-17 69q0 54 24 109t61 105t81 93.5t84 73.5zM448 1395q-19 -18 -41 -44t-41 -54.5t-31 -58t-12 -53.5 q0 -27 25.5 -44t73.5 -15l13 -72q-12 -12 -43 -30t-67 -34t-70.5 -26.5t-52.5 -8.5q-32 21 -49.5 50t-17.5 70q0 54 24 108.5t61 105t81.5 93.5t86.5 73z" />
<glyph unicode="&#x201d;" horiz-adv-x="834" d="M856 1307q0 -54 -23.5 -108t-60.5 -104.5t-81.5 -93.5t-85.5 -75l-59 59q19 19 40.5 45.5t39.5 55.5t30 58t12 53q0 29 -25 46t-73 15l-10 70q11 14 42 32t67 34t69.5 26.5t51.5 9.5q32 -23 49 -52.5t17 -70.5zM476 1307q0 -54 -24 -108t-60.5 -103.5t-81.5 -93 t-87 -76.5l-59 59q18 18 39.5 45t40 56t31 58.5t12.5 52.5q0 29 -25 46t-73 15l-14 69q12 14 43.5 32t67.5 34t69.5 27t51.5 10q33 -23 51 -52t18 -71z" />
<glyph unicode="&#x201e;" horiz-adv-x="834" d="M686 129q0 -54 -23.5 -108.5t-60.5 -104.5t-81.5 -93t-85.5 -74l-63 59q20 19 42.5 45.5t41 55t30.5 57.5t12 53q0 27 -25 45t-73 18l-10 69q11 13 41.5 31t66.5 34t70 26.5t51 9.5q32 -22 49.5 -51.5t17.5 -71.5zM306 129q0 -54 -24 -108.5t-60.5 -104.5t-81.5 -93 t-87 -74l-59 59q18 18 39.5 44.5t40 55.5t31 58t12.5 53q0 27 -25 45t-73 18l-14 69q12 13 43 31t67 34t70 26.5t51 9.5q32 -22 51 -51.5t19 -71.5z" />
<glyph unicode="&#x2020;" horiz-adv-x="879" d="M932 1063q-18 -35 -46 -82t-61 -93q-59 25 -115 36t-122 16q-9 -75 -9 -152q0 -57 6 -108q-31 -106 -53.5 -216t-36.5 -204q-9 -60 -14 -126t-9 -125q-23 -20 -42.5 -27l-39.5 -14q-5 -2 -14 -5t-14 -5l-39 37q14 66 27.5 138.5t21.5 132.5v-1q10 87 17.5 182.5 t7.5 191.5v46q24 62 39 127.5t26 127.5q-70 -5 -142.5 -18t-153.5 -34l-24 66q18 36 46 83t61 92q57 -25 112.5 -35.5t120.5 -15.5q4 40 5.5 76.5t1.5 72.5q0 39 -3 79.5t-10 82.5q42 28 88.5 52t84.5 41l54 -40q-32 -93 -55.5 -184t-38.5 -179q38 2 73 6t71 10t74 14.5 t81 19.5z" />
<glyph unicode="&#x2021;" horiz-adv-x="879" d="M931 1063q-18 -35 -46 -82t-61 -93q-61 21 -116.5 34t-119.5 18q-2 -26 -3.5 -51t-1.5 -51q0 -25 2 -55.5t6 -65.5q-23 -60 -36.5 -113.5t-24.5 -103.5q72 5 144.5 17t153.5 35l25 -67q-18 -36 -46.5 -82.5t-60.5 -91.5q-58 18 -114.5 31t-122.5 19q-9 -81 -9 -150 q0 -38 4 -77.5t11 -82.5q-42 -27 -88 -51.5t-84 -41.5l-55 39q34 94 58 182.5t38 181.5q-38 -2 -73.5 -6.5t-71.5 -10.5t-73.5 -14.5l-79.5 -18.5l-24 65q18 36 46.5 83t60.5 93q59 -25 114 -36t120 -16q2 28 3.5 56t1.5 58q0 46 -6 109q23 60 37.5 114.5t23.5 102.5 q-76 -6 -146 -18.5t-152 -32.5l-24 65q18 36 46 83t61 92q57 -25 113 -35.5t121 -15.5q5 38 6.5 72.5t1.5 67.5q0 41 -3.5 83.5t-9.5 87.5q42 27 88 51.5t84 41.5l55 -39q-31 -94 -54.5 -183.5t-40.5 -180.5q71 5 143.5 16.5t154.5 33.5z" />
<glyph unicode="&#x2022;" horiz-adv-x="528" d="M493 713q0 -58 -18 -117.5t-53 -108t-86.5 -79t-118.5 -30.5q-42 0 -73 14.5t-51.5 39t-30.5 58.5t-10 73q0 58 19 118t55 108.5t87.5 79.5t116.5 31q42 0 73 -15t51 -40.5t29.5 -59.5t9.5 -72z" />
<glyph unicode="&#x2026;" horiz-adv-x="1230" d="M1108 167q0 -33 -11.5 -68t-33 -63.5t-51.5 -47t-67 -18.5q-48 0 -74.5 31.5t-26.5 84.5q0 31 13 65t35 62t52.5 46.5t64.5 18.5q45 0 72 -30.5t27 -80.5zM709 167q0 -33 -11.5 -68t-33 -63.5t-51.5 -47t-67 -18.5q-48 0 -74.5 31.5t-26.5 84.5q0 31 13 65t35 62 t52.5 46.5t64.5 18.5q45 0 72 -30.5t27 -80.5zM310 167q0 -33 -11.5 -68t-33 -63.5t-51.5 -47t-67 -18.5q-48 0 -74.5 31.5t-26.5 84.5q0 31 13 65t35 62t52.5 46.5t64.5 18.5q45 0 72 -30.5t27 -80.5z" />
<glyph unicode="&#x20ac;" d="M531 453h-279v-9q0 -87 15.5 -147.5t41.5 -98.5t62 -55t76 -17q25 0 51 8.5t57.5 28t71 51t90.5 77.5q25 -9 31 -21.5l11 -23.5q1 -2 1 -3t0.5 -2.5t3.5 -5t10 -10.5q-67 -72 -119.5 -120.5t-99 -78.5t-91.5 -42.5t-96 -12.5q-64 0 -118.5 25.5t-94.5 77.5t-62 132 t-22 189q0 18 -0.5 28t1.5 30h-71l-27 43l3.5 10t4.5 12t3.5 9.5t4 10.5t7.5 16l14 27l74 1q0 5 2 11q2 13 3 21.5t2.5 16.5l3 16t4.5 20h-44l-27 43q9 18 9 19t1 3l10 26t18 37h66q35 110 85.5 193.5t113.5 139.5t138 84t157 28q46 0 81.5 -8t63.5 -22t51 -33t45 -41 q8 -10 -2 -29.5t-28 -42.5t-39.5 -45l-35.5 -36l-45 8l-12 16q-16 19 -31 35t-34 27.5t-43 18t-59 6.5q-26 0 -57 -13t-63.5 -47t-63 -92t-55.5 -147h294l33 -39l-41 -89h-312l-6 -33.5t-5 -35.5q-1 -5 -1.5 -6.5t-0.5 -2.5v-2v-6h278l34 -39z" />
<glyph unicode="&#xe900;" horiz-adv-x="502" d="M384 866q0 -10 -2 -35.5t-5.5 -59t-8 -72.5l-8.5 -75l-9.5 -84t-6.5 -62l-4.5 -44t-4.5 -50q-6 -62 -14.5 -140.5t-22.5 -162.5q-20 -117 -49 -196.5t-64.5 -134t-75.5 -91t-81 -68.5q-28 -21 -60.5 -36t-64 -24t-59.5 -13t-46 -4q-31 0 -64.5 10t-61.5 24t-46.5 30.5 t-18.5 28.5q0 15 15 38.5t35.5 46t41.5 38.5t33 16q11 0 19 -6t18 -15l21 -18.5t28.5 -19.5t37.5 -15t48 -6q73 0 122 96t79 271q20 118 31 214.5t17 160.5q2 15 2.5 28.5t1.5 24.5l5.5 58.5t8.5 78.5q3 26 5.5 51t5 46.5t3.5 38t1 25.5q0 16 -1.5 25t-4.5 13.5t-6.5 6 t-8.5 1.5q-8 0 -22 -3.5t-29 -8.5q-4 -1 -10 -3q-5 -2 -9.5 -2.5t-8.5 -2.5q-30 -7 -58 61q45 21 90.5 39.5t83.5 32.5t67 22.5t41 8.5q18 0 32 -3t23.5 -12t14 -25t4.5 -43z" />
<glyph horiz-adv-x="0" d="M-3 1243l-463 -248l-18 13.5t-12 11.5t-8.5 12.5t-7.5 16.5v-1q-2 2 -3 6t-6 17l402 323q10 -6 26 -17l33 -23l32.5 -24t24.5 -22v-65z" />
<glyph horiz-adv-x="0" d="M-295 1021h-109l-202 314q10 13 17 21t13 14t11 10.5t12 9.5l15 15l210 -201l64 49.5l67 51l67 50.5l63 48l17 -17t12.5 -14.5t11 -17t12.5 -23.5z" />
</font>
</defs>
</svg>
