<?xml version="1.0" standalone="no"?>
<!DOCTYPE svg PUBLIC "-//W3C//DTD SVG 1.1//EN" "http://www.w3.org/Graphics/SVG/1.1/DTD/svg11.dtd" >
<svg xmlns="http://www.w3.org/2000/svg">
<metadata>
This is a custom SVG webfont generated by Font Squirrel.
Designer    : J Victor Gaultney
Foundry     : SIL Lakota Language Consortium 
Foundry URL : httpwwwsilorg
</metadata>
<defs>
<font id="webfontVjlrzKxj" horiz-adv-x="961" >
<font-face units-per-em="2048" ascent="1638" descent="-410" />
<missing-glyph horiz-adv-x="451" />
<glyph unicode=" "  horiz-adv-x="451" />
<glyph unicode="&#x09;" horiz-adv-x="451" />
<glyph unicode="&#xa0;" horiz-adv-x="451" />
<glyph unicode="!" horiz-adv-x="557" d="M407 139q0 -37 -12 -69.5t-32.5 -57t-48.5 -38t-60 -13.5q-62 0 -89 33t-27 96q0 37 12.5 69.5t33.5 57t49 38.5t59 14q60 0 87.5 -33.5t27.5 -96.5zM344 388q-23 -17 -43 -27.5t-52 -21.5l-44 32l-47 1019q42 26 88.5 50t84.5 41l62 -35z" />
<glyph unicode="&#x22;" horiz-adv-x="870" d="M331 818q-21 -11 -58 -19t-72 -8l-54 627q13 7 36.5 17t49 19l48 16.5t34.5 9.5l60 -29zM680 818q-21 -11 -59 -19t-72 -8l-54 627q12 7 35.5 17t49.5 19l49.5 16.5t35.5 9.5l59 -29z" />
<glyph unicode="#" d="M428 613h144l30 104l30 106h-143zM824 974h129l38 -38q-7 -27 -17.5 -59t-21.5 -54h-171l-30 -104l-30 -106h131l33 -41q-6 -24 -15 -54.5t-21 -55.5h-171l-41 -144l-42 -145q-22 -17 -50 -28.5t-60 -22.5l-43 33l86 307h-143l-41 -144l-42 -145q-22 -17 -49 -28.5 t-59 -22.5l-43 33l86 307h-125l-34 39q6 24 15.5 54t22.5 58h165l30 104l30 106h-122l-38 37q8 30 18 60t20 54h165l39.5 138l39.5 137q20 15 38.5 23l35.5 15l15.5 6l15.5 6l48 -36l-84 -289h143l39.5 137.5l39.5 136.5q25 18 40.5 25t31.5 13q8 2 16 5t19 8l46 -36z" />
<glyph unicode="$" d="M251 951q0 -30 12 -53t33.5 -42t51.5 -34.5t66 -30.5v293q-46 -4 -77.5 -16.5t-50.5 -31t-27 -40.5t-8 -45zM701 335q0 38 -12.5 68t-34 53.5t-51 42t-63.5 34.5v-380q32 8 61 24t51.5 39.5t35.5 53.5t13 65zM540 -128q-12 -11 -20.5 -17.5t-17.5 -10.5t-20 -7t-27 -7 l-41 32v128q-72 0 -147 24.5t-165 80.5q-11 9 -17 41.5t-6 72.5q0 39 4 82t15 80l69 -6q44 -95 107 -146t140 -66v430q-60 22 -118.5 47.5t-104 62t-74 88t-28.5 125.5q0 43 16.5 91.5t54.5 92t100 77t154 46.5v136q4 3 9 6t9.5 6t6.5 4t0 -1l12 7.5t9.5 4.5t14.5 4.5 t25 6.5l40 -34v-134q44 -3 85 -10.5t77 -19.5t65.5 -28t48.5 -35q8 -10 0.5 -33t-22.5 -49t-34 -50.5t-34 -38.5l-54 10q-32 38 -66 64t-66 39v-327q61 -24 120.5 -52.5t106 -69t75.5 -97t29 -136.5q0 -58 -19 -118.5t-59.5 -113t-103 -92.5t-149.5 -58v-132z" />
<glyph unicode="%" horiz-adv-x="1413" d="M1161 301q0 63 -10.5 110t-28 78t-40.5 46t-47 15q-18 0 -35.5 -13t-31 -38.5t-22 -64.5t-8.5 -92q0 -130 35 -191.5t88 -61.5q41 0 70.5 53.5t29.5 158.5zM478 873q0 64 -10.5 111t-28 77.5t-40.5 45.5t-47 15q-18 0 -35.5 -13t-31.5 -38.5t-22.5 -64.5t-8.5 -92 q0 -130 35 -191.5t89 -61.5q40 0 70 53.5t30 158.5zM382 22q-9 -7 -22.5 -13t-29 -12t-32 -11.5t-31.5 -9.5l-20.5 -6t-18.5 -6l-40 56l844 1170q30 19 72.5 32t77.5 22l45 -52zM1339 320q0 -71 -24.5 -134.5t-66.5 -111t-97 -75.5t-116 -28t-112 28t-88 75.5t-57.5 111 t-20.5 134.5q0 72 25.5 135t67.5 110t97 74.5t114 27.5q63 0 114 -27t87.5 -74t56.5 -110.5t20 -135.5zM658 892q0 -71 -25 -134.5t-67 -111t-97.5 -75.5t-116.5 -28t-112.5 28t-88 75.5t-57 111t-20.5 134.5t25 134.5t67 110.5t97 74.5t115 27.5q63 0 114.5 -27t88 -74.5 t57 -110.5t20.5 -135z" />
<glyph unicode="&#x26;" horiz-adv-x="1366" d="M471 1119q0 -99 52 -214q56 31 92 64t57 65.5t29 64t8 60.5t-7.5 56t-22.5 47.5t-37 32.5t-51 12q-30 0 -52.5 -16.5t-37.5 -43t-22.5 -60t-7.5 -68.5zM533 121q72 0 134 21.5t113 56.5l-93 104.5t-94 116t-88.5 124t-77.5 128.5q-43 -38 -72 -74t-47 -71.5t-26 -71 t-8 -73.5q0 -63 22 -112t58 -82t82.5 -50t96.5 -17zM1352 744q-29 -35 -58.5 -60t-59.5 -46q-32 17 -67.5 25.5t-66.5 13.5q11 -26 14 -54.5t3 -74.5q0 -70 -29 -146t-81 -148l55 -49l56 -46q48 -42 107 -42q25 0 75 11l15 -75q-95 -42 -158 -62t-86 -20t-76.5 36.5 t-122.5 101.5q-78 -62 -170.5 -100t-197.5 -38q-95 0 -173.5 25t-134.5 74t-87 122.5t-31 169.5q0 111 73.5 223.5t213.5 217.5q-26 66 -41.5 131.5t-15.5 128.5q0 83 28 154t74.5 122.5t107 81t125.5 29.5q68 0 114 -21.5t74 -57.5t40 -83t12 -97q0 -52 -18.5 -102.5 t-51.5 -97.5t-79.5 -90t-102.5 -79q-17 -11 -26.5 -16.5t-24.5 -16.5q32 -59 71 -117.5t82 -115t88.5 -109.5t90.5 -100q25 43 36.5 83.5t11.5 77.5t-13 69.5t-33.5 56.5t-46.5 38t-53 14l-37 48q17 18 43.5 38t48.5 30h448z" />
<glyph unicode="'" horiz-adv-x="512" d="M326 818q-21 -11 -58 -19t-72 -8l-54 627q13 7 36.5 17t49 19l48 16.5t34.5 9.5l60 -29z" />
<glyph unicode="(" horiz-adv-x="649" d="M580 -311q-116 54 -204.5 148t-148 217t-89.5 269t-30 303q0 162 34 314t95.5 280t148.5 227t193 154l51 -73q-64 -54 -122 -139.5t-101 -198t-68.5 -248.5t-25.5 -289q0 -140 21 -273.5t61 -250t99.5 -211.5t135.5 -157z" />
<glyph unicode=")" horiz-adv-x="649" d="M543 665q0 -163 -34 -315.5t-96 -281t-149 -227t-193 -153.5l-50 72q64 54 121.5 140t101 198.5t69 248.5t25.5 290q0 140 -21 273.5t-61 250.5t-99 211.5t-136 155.5l49 72q116 -53 204.5 -147t148 -217t90 -268.5t30.5 -302.5z" />
<glyph unicode="*" horiz-adv-x="915" d="M512 1218l116.5 87l114.5 85l4 -3t9.5 -6.5l11.5 -7.5l9 -6l39 -26t37 -33l2 -60l-289 -124l134.5 -57.5l131.5 -56.5q-3 -22 -3 -44q-1 -23 -3 -47.5t-10 -44.5l-54 -33l-248 185l17 -142l17 -141l-60 -31t-65 -23l-57 26l38 311l-116.5 -86l-113.5 -86q-5 3 -15 9.5 t-16 11.5q-20 12 -42.5 27.5t-37.5 34.5l-2 61l288 124l-135 57.5l-132 56.5q2 13 3 25.5t1 18.5q1 22 3 46t12 46l50 32l252 -188l-18 145l-17 142q12 7 27.5 15t33 15.5t35 14t32.5 10.5l52 -31z" />
<glyph unicode="+" horiz-adv-x="840" d="M495 236q-26 -12 -55.5 -22t-57.5 -17l-38 35v260h-257l-38 37q7 26 17.5 56t21.5 55h256v261l19 6.5t20 6.5q15 5 37 11.5t37 10.5l38 -35v-261h258l37 -37q-7 -26 -17 -57.5t-21 -53.5h-257v-256z" />
<glyph unicode="," horiz-adv-x="469" d="M406 88q0 -40 -16.5 -90.5t-47.5 -103.5t-75 -104t-99 -92l-72 56q30 33 50.5 63.5t33 62t18.5 65.5t6 74q0 34 -25 53.5t-85 16.5l-23 70q7 9 23.5 20t39 23t48.5 23t50.5 19.5t45.5 13.5t34 4q28 -13 46 -30.5t28.5 -39.5t15 -48t4.5 -56z" />
<glyph unicode="-" horiz-adv-x="690" d="M643 555q-8 -27 -18.5 -58.5t-20.5 -53.5h-519l-38 37q7 27 17.5 56.5t21.5 55.5h519z" />
<glyph unicode="." horiz-adv-x="469" d="M385 139q0 -37 -12 -69.5t-32.5 -57t-48.5 -38t-60 -13.5q-63 0 -90 33t-27 96q0 37 12.5 69.5t33.5 57t49 38.5t59 14q60 0 88 -33.5t28 -96.5z" />
<glyph unicode="/" d="M235 -269q-12 -9 -28 -16.5t-33 -14.5t-33.5 -12.5l-29.5 -9.5q-2 -2 -8 -4t-8 -3l-59 39l690 1831q30 19 67 32.5t71 22.5l58 -34z" />
<glyph unicode="0" d="M695 569q0 129 -19 226.5t-51.5 163t-74.5 98.5t-88 33q-45 0 -81.5 -25.5t-62 -79.5t-39 -138t-13.5 -200q0 -129 17.5 -227t49 -164t74 -100t92.5 -34q46 0 82.5 25.5t61.5 80t38.5 139t13.5 202.5zM893 605q0 -129 -31 -244.5t-87.5 -202t-136 -137t-176.5 -50.5 t-171 50.5t-123.5 137t-74.5 202t-25 244.5t31.5 244.5t88 202.5t136 137.5t175.5 50.5q97 0 171 -50t123.5 -136.5t74.5 -202t25 -246.5z" />
<glyph unicode="1" d="M159 0v89q76 9 126.5 18t81 18.5t43 18t12.5 15.5v775q0 34 -2.5 53.5t-10.5 29.5q-5 2 -16 3.5t-31 1.5q-29 0 -79 -6t-126 -23l-35 85q44 12 104.5 34.5t122 48l116.5 50.5t89 44l53 -50v-1046q0 -7 10.5 -15.5t38 -17.5t74.5 -18.5t120 -18.5v-89h-691z" />
<glyph unicode="2" d="M830 0h-707l-37 95l202.5 238.5l148.5 183t102 139t63 106t32 84t9 72.5q0 41 -9.5 76t-30.5 61t-54.5 40.5t-81.5 14.5q-35 0 -65 -18t-51.5 -45.5t-33.5 -62t-12 -67.5q-5 -3 -16.5 -9t-16.5 -9l-24.5 -13.5t-25 -11.5t-30 -8.5t-39.5 -5.5l-38 43q0 55 36 114.5 t94.5 109t134 81.5t153.5 32q63 0 117 -17.5t94.5 -53.5t63.5 -91.5t23 -131.5q0 -44 -11.5 -88t-37 -94t-66 -109t-98 -132l-133.5 -163l-172 -203h365q26 0 42 27.5t25 61.5q11 40 14 89l87 -22z" />
<glyph unicode="3" d="M834 390q0 -86 -27.5 -162t-81.5 -133t-133.5 -90.5t-184.5 -33.5q-40 0 -82 8t-86 26.5t-90.5 49t-94.5 76.5l50 99q48 -36 86 -59.5t72 -37t65.5 -19t66.5 -5.5q55 0 100.5 17t78 49.5t50.5 78.5t18 104q0 68 -21 115t-54.5 76.5t-74.5 43t-80 13.5h-21q-7 0 -17.5 -2 t-43.5 -9l-21 96q90 24 144.5 55t83.5 63.5t38.5 65t9.5 59.5q0 30 -9 61.5t-28.5 57t-49.5 41.5t-71 16q-34 0 -60.5 -12.5t-43.5 -33.5t-24 -49t-2 -60q-41 -21 -78.5 -32t-85.5 -15l-38 43q0 45 31.5 96t85 93.5t123.5 71t148 28.5t134 -25t91.5 -66t52.5 -93t17 -105 q0 -68 -46.5 -133t-122.5 -112q50 -15 91.5 -45.5t71.5 -72t46.5 -92t16.5 -106.5z" />
<glyph unicode="4" d="M563 963l-77 -119.5l-75.5 -116.5l-75.5 -117.5l-79 -122.5h307v476zM887 439q-14 -22 -25.5 -36.5t-22.5 -25t-22 -19l-24 -18.5h-56v-219q0 -3 6 -7t21.5 -9t42 -11.5t66.5 -15.5v-78h-515v78q63 11 103 19t62.5 14t31 11t8.5 9v209h-473l-48 49l493 787q29 13 53 25 t45 25l26.5 15t25.5 14l52 -50v-718h109z" />
<glyph unicode="5" d="M845 418q0 -88 -27 -169t-78.5 -143t-127 -98.5t-172.5 -36.5q-94 0 -188.5 36.5t-187.5 122.5l50 99q56 -39 100.5 -62.5t81 -36.5t66.5 -17t57 -4q59 0 102.5 22.5t72 59.5t43 85t14.5 100q0 62 -15 113t-45.5 87t-77 56t-109.5 20q-19 0 -44.5 -5t-54 -15.5t-58 -26 t-56.5 -36.5l-67 48q2 9 4.5 26t4.5 28v-1l21 128.5t22.5 145.5t19 143.5t11.5 122.5h443q52 0 81 8h-1q42 14 90 -34q-14 -20 -31 -41t-34 -39.5t-33 -33.5t-28 -24h-365q-2 -27 -6 -62.5t-9 -72l-10 -71.5t-10 -61q38 9 82.5 14t86.5 5q93 0 164.5 -31t119.5 -83.5 t73 -121.5t25 -144z" />
<glyph unicode="6" d="M500 641q-45 0 -99 -23.5t-105 -83.5q1 -108 19 -187.5t50 -131t77.5 -77t101.5 -25.5q47 0 77.5 22.5t49.5 58t26.5 79t7.5 85.5q0 86 -20 140.5t-50 86.5t-66 44t-69 12zM890 420q0 -71 -24.5 -150t-73 -145.5t-120 -110t-166.5 -43.5q-84 0 -157.5 37t-128.5 103.5 t-86.5 160.5t-31.5 208q0 140 41.5 269t127 233t215.5 176t308 98l29 -92q-108 -25 -193 -71t-148 -107t-104 -133t-61 -149q63 48 122 66t101 18q83 0 148 -25.5t110 -73.5t68.5 -116t23.5 -153z" />
<glyph unicode="7" d="M897 1160l-91 -213.5l-90 -213.5l-84.5 -204.5l-75 -187.5l-62 -162t-44.5 -128q-38 -27 -80.5 -47.5t-98.5 -34.5l-59 49q73 128 132 244.5l110 225.5l96 213.5l89 207.5q9 20 15.5 36t13.5 31.5t13.5 32l15.5 37.5h-419q-10 0 -20.5 -2t-22.5 -16t-27.5 -44t-36.5 -86 l-78 31q3 24 8.5 60.5l11.5 76.5t13.5 78.5t15.5 65.5h709z" />
<glyph unicode="8" d="M299 944q0 -36 19 -64.5t51 -51.5t73 -42.5l86 -39.5q63 48 89 93.5t26 92.5q0 92 -52 135t-139 43q-39 0 -67.5 -15t-47.5 -39t-28.5 -53.5t-9.5 -58.5zM681 320q0 57 -21 99t-55 73.5t-77.5 55t-89.5 43.5q-43 -32 -73 -62t-49 -61.5t-27.5 -66t-8.5 -75.5 q0 -47 15 -87t43.5 -69.5t69 -46t91.5 -16.5q49 0 83.5 19t56.5 49t32 68t10 77zM873 362q0 -79 -33.5 -150.5t-90.5 -124.5t-133.5 -84.5t-163.5 -31.5q-88 0 -156.5 27t-115 72t-71 104t-24.5 123q0 104 63 193t170 155q-40 20 -74 43.5t-58 54.5t-37.5 72t-13.5 95 q0 72 28 132.5t77.5 104.5t116.5 68.5t144 24.5q78 0 138.5 -20.5t101.5 -57.5t62.5 -88t21.5 -112q0 -40 -13.5 -76.5t-37.5 -70t-57 -64t-71 -59.5q46 -24 87.5 -54t72.5 -69.5t49 -90t18 -116.5z" />
<glyph unicode="9" d="M481 579q62 0 113 32.5t89 87.5q-2 117 -22.5 194t-52 122.5t-69 64.5t-73.5 19q-45 0 -81 -18.5t-60.5 -51.5t-37.5 -78.5t-13 -98.5q0 -84 20 -137t50.5 -83t67 -41.5t69.5 -11.5zM879 731q0 -151 -42 -281.5t-128 -232t-216.5 -169t-308.5 -92.5l-28 93q122 30 212 77 t152 108t99 134.5t52 157.5q-51 -43 -112 -68.5t-120 -25.5q-82 0 -146.5 27.5t-109.5 76.5t-68.5 115t-23.5 142q0 51 14 104t40 103t63 93.5t83 76t100 51.5t114 19q72 0 139.5 -29t119.5 -91t83.5 -158.5t31.5 -230.5z" />
<glyph unicode=":" horiz-adv-x="469" d="M385 139q0 -37 -12 -69.5t-32.5 -57t-48.5 -38t-60 -13.5q-63 0 -90 33t-27 96q0 37 12.5 69.5t33.5 57t49 38.5t59 14q60 0 88 -33.5t28 -96.5zM385 864q0 -37 -12 -69.5t-32.5 -57t-48.5 -38t-60 -13.5q-63 0 -90 33t-27 96q0 37 12.5 69.5t33.5 57t49 38.5t59 14 q60 0 88 -33.5t28 -96.5z" />
<glyph unicode=";" horiz-adv-x="469" d="M406 88q0 -40 -16.5 -90.5t-47.5 -103.5t-75 -104t-99 -92l-72 56q30 33 50.5 63.5t33 62t18.5 65.5t6 74q0 34 -25 53.5t-85 16.5l-23 70q7 9 23.5 20t39 23t48.5 23t50.5 19.5t45.5 13.5t34 4q28 -13 46 -30.5t28.5 -39.5t15 -48t4.5 -56zM385 864q0 -37 -12 -69.5 t-32.5 -57t-48.5 -38t-60 -13.5q-63 0 -90 33t-27 96q0 37 12.5 69.5t33.5 57t49 38.5t59 14q60 0 88 -33.5t28 -96.5z" />
<glyph unicode="&#x3c;" horiz-adv-x="899" d="M58 560l-1 -1q0 1 1 2v-1zM851 327q-11 -9 -15.5 -13t-7.5 -7q-8 -7 -15 -14t-16 -14t-21 -14.5l-29 -17.5l-661 247l-34 33q0 2 0.5 8t0.5 9l3 10q0 3 1 5q1 1 2 4q1 2 2.5 6.5l3.5 10.5q-1 0 0 2v2q1 2 2 4.5t2 5.5q1 4 2 7q-2 -2 -2 -4q0 4 4 11q1 2 0.5 2.5t0.5 2.5 t1 4q0 3 1 5q1 3 2 5q1 0 1 1l1 2q1 2 0 2l1 2q0 2 0.5 3.5t0.5 3.5v4l726 271l41 -40q-2 -5 -4.5 -16t-4.5 -17q-6 -20 -13 -46t-12 -40l-498 -185l254.5 -94l254.5 -95z" />
<glyph unicode="=" horiz-adv-x="899" d="M849 748q-2 -8 -5.5 -19l-7 -23l-7 -23l-6.5 -20l-4.5 -11t-4.5 -15h-726l-38 38q7 26 17 57t22 54h722zM849 457q-4 -14 -11 -35.5l-12 -37.5q-2 -7 -6.5 -20.5l-6.5 -19.5h-726l-37 41q7 25 17 54.5t22 55.5h722z" />
<glyph unicode="&#x3e;" horiz-adv-x="899" d="M840 599q-1 -2 -1.5 -6t-1.5 -6v-4q-1 -1 -1 1q0 -2 -0.5 -3t-0.5 -3q0 -4 -3 -7q-1 -2 -1.5 -5.5t-1.5 -5.5q1 2 -0.5 -3t-2.5 -7q0 -4 -1 -6l-2 -4t-1 -3l-1 -2t-1 -3l-1 -2q-1 -4 -0.5 -5.5t-11.5 -12.5l-716 -266l-41 41q2 5 5 17t5 19v-1l13 43t14 39l494 185 l-255 94.5l-254 93.5l-24 61q8 5 21 15.5l21 16.5q14 10 31 23.5l28 22.5l667 -249l33 -35z" />
<glyph unicode="?" horiz-adv-x="887" d="M556 139q0 -37 -12 -69.5t-32.5 -57t-48.5 -38t-61 -13.5q-63 0 -90 33t-27 96q0 37 12.5 69.5t33.5 57t49 38.5t60 14q60 0 88 -33.5t28 -96.5zM817 1153q0 -59 -15 -108.5t-39 -93t-54.5 -82.5t-62.5 -76l-54 -67t-48.5 -71.5t-36.5 -78t-19 -86.5q-2 -23 -3.5 -51 t-3.5 -51q-11 -9 -21 -16t-20.5 -13t-24 -11.5t-31.5 -10.5l-39 33l-8 120q-2 46 11 91.5t35 90.5t50.5 88.5l56.5 84.5l45.5 68.5t40.5 68t29 65.5t11 62q0 112 -49 174.5t-142 62.5q-31 0 -59.5 -14t-50 -38t-34 -55.5t-12.5 -65.5q0 -11 4.5 -28t11.5 -37 q-43 -23 -83.5 -33t-91.5 -16l-37 42q-3 12 -3 24v16q0 73 35.5 135t94.5 107t137 70.5t163 25.5q77 0 136 -24t99 -67t61 -103t21 -132z" />
<glyph unicode="@" horiz-adv-x="1653" d="M989 726q-12 24 -25 43t-28.5 32.5t-34.5 20.5t-44 7q-49 0 -90 -22t-70 -65.5t-45.5 -108.5t-16.5 -151q0 -79 18 -142.5t46 -108.5t61.5 -69t64.5 -24q16 0 31 6t33.5 21t42.5 40t57 64v457zM1582 554q0 -87 -20 -164t-54 -142t-78 -116.5t-92.5 -87t-97.5 -54.5 t-92 -19q-48 0 -86.5 36.5t-58.5 119.5q-34 -46 -62.5 -76t-57 -48t-59 -25t-68.5 -7q-53 0 -107.5 33t-98.5 95t-72 151t-28 201q0 58 14 119.5t40.5 119.5t65 109.5t87 90t106.5 61t124 22.5q24 0 43.5 -3t38.5 -12t39 -25.5t45 -43.5q21 15 46 38t54 55l52 -52 q-14 -48 -22 -95.5t-10 -111.5v-426q0 -78 24.5 -115t62.5 -37q22 0 50.5 29t54.5 79.5t44 118.5t18 146q0 159 -40.5 282.5t-112.5 208t-172 128.5t-219 44q-96 0 -180 -24.5t-154 -68.5t-124.5 -105t-92 -133t-57.5 -154t-20 -167q0 -114 24 -213.5t67.5 -181.5 t103.5 -146t131.5 -108t153 -67t166.5 -23q79 0 157.5 18t146.5 45.5t122.5 59t85.5 58.5l43 -89q-37 -40 -95.5 -83.5t-135.5 -80t-171 -60t-201 -23.5q-172 0 -315.5 59t-247 168t-161.5 263.5t-58 346.5q0 113 30.5 220.5t86 203.5t133.5 177t172.5 139.5t202.5 91 t225 32.5q149 0 271 -50.5t208.5 -149.5t134 -245t47.5 -337z" />
<glyph unicode="A" horiz-adv-x="1219" d="M443 559h283l-36.5 107l-34.5 101.5l-35 102.5l-38 110zM752 0v80q72 5 102 14.5t22 27.5l-106 310h-369l-52 -155l-52 -155q-2 -16 33 -25.5t110 -17.5v-79h-443v78q69 12 107.5 23.5t46.5 32.5v-1l182 551l182 551q12 13 29.5 26t37 25l39 23l35.5 20l417 -1195 q4 -11 12 -19.5t23 -15.5t37.5 -12t55.5 -8v-79h-449z" />
<glyph unicode="B" horiz-adv-x="1126" d="M379 122v-1q0 2 2 0zM416 1173h-18q-4 0 -19 -1v-428h14q105 0 169.5 20t100.5 51.5t48.5 70.5t12.5 78q0 45 -15 83t-50.5 66t-94.5 44t-148 16zM520 631q-41 0 -75 -2.5t-66 -7.5v-497q16 -5 36 -8.5t41 -5.5t42 -2.5t39 -0.5q66 0 119 16.5t90.5 46.5t57.5 71.5 t20 91.5t-18 103t-55 96.5t-94.5 71t-136.5 27.5zM1022 366q0 -87 -34 -157.5t-95.5 -120t-146.5 -76t-188 -26.5q-21 0 -51 0.5t-63.5 1.5l-70 2t-71.5 3l-85 3.5t-61 2.5q-11 1 -44 1h-69v78q67 14 104.5 25t37.5 18v1034q-35 -5 -72.5 -11.5l-66.5 -11.5l-14 98 q41 12 95 23.5t113 20.5t118.5 14.5t112.5 5.5q102 0 184 -19.5t139.5 -56t88.5 -88.5t31 -118q0 -97 -39.5 -169t-108.5 -114q55 -20 101.5 -55.5t81 -83t54 -104.5t19.5 -120z" />
<glyph unicode="C" horiz-adv-x="1098" d="M1020 211q-64 -68 -123 -114t-114 -74t-107.5 -40t-105.5 -12q-62 0 -124 19t-118.5 55t-105 89t-84 122t-55.5 153t-20 181q0 160 49 290t132 222t194 142t234 50q110 0 192 -29.5t135 -71.5h-1q11 -9 3 -29.5t-24.5 -44t-37 -46.5t-34.5 -37l-50 9q-49 46 -114.5 74.5 t-149.5 28.5q-48 0 -106.5 -26.5t-110 -88t-86.5 -161.5t-35 -246q0 -125 35.5 -218.5t92 -156t125 -94t134.5 -31.5q50 0 133.5 37t192.5 128q20 -9 30 -20.5t17 -22.5q3 -5 6 -9t0 -1z" />
<glyph unicode="D" horiz-adv-x="1214" d="M456 1173h-38t-37 -2v-1002q0 -13 5 -23l-1 1q11 -14 46 -20t107 -6q64 0 132 31.5t124 95.5t92 161.5t36 229.5q0 125 -31 224t-90 168t-146 105.5t-199 36.5zM1129 677q0 -125 -25.5 -224t-69 -174t-101 -128t-120.5 -86.5t-128.5 -49t-124.5 -15.5h-515v78 q66 14 103.5 25t37.5 18v1032q-2 0 -3.5 -0.5t-3.5 -0.5l-68 -9t-63 -10l-15 97q47 13 107.5 24.5t125.5 20.5t130.5 14t123.5 5q140 0 252.5 -41.5t191.5 -121t122 -194t43 -260.5z" />
<glyph unicode="E" horiz-adv-x="1016" d="M962 269q-9 -94 -22.5 -164.5t-23.5 -104.5h-873v78q66 14 103.5 25t37.5 18v1022q0 6 -35.5 18t-105.5 26v78h810l46 -34q-2 -28 -7 -62.5t-11 -68.5t-13.5 -65t-14.5 -52h-77q-2 45 -7 75t-12.5 47.5t-18 25t-23.5 7.5h-337v-384h384l40 -44q-10 -17 -24 -36t-29.5 -37 t-31.5 -33.5t-30 -25.5q-16 16 -33.5 27.5t-40 18.5t-51 10t-66.5 3h-118v-468q0 -10 6.5 -18t25.5 -13.5t54 -8.5t93 -3h126q41 0 70 5t52 22.5t42.5 52t40.5 94.5z" />
<glyph unicode="F" horiz-adv-x="979" d="M42 0v78q67 14 104 25t37 18v1022q0 6 -35.5 18t-105.5 26v78h820l43 -35q-1 -28 -5.5 -62.5t-10.5 -68.5t-13 -64.5t-14 -51.5h-79q-2 45 -6.5 75t-12 47.5t-18 25t-24.5 7.5h-344v-384h352l46 -45q-11 -16 -26 -35t-31 -37t-32 -33.5t-30 -26.5q-16 16 -33.5 27.5 t-39.5 18.5t-50.5 10.5t-66.5 3.5h-89v-516q0 -4 37 -14.5t133 -28.5v-78h-506z" />
<glyph unicode="G" horiz-adv-x="1194" d="M1041 1192q15 -10 11 -26.5t-18 -35t-33 -37t-36 -33.5v1q-4 -3 -11.5 -10.5l-10.5 -10.5l-48 9q-32 30 -65.5 49t-69.5 30.5t-76 15.5t-86 4q-23 0 -57.5 -10.5t-73 -34.5t-76.5 -63t-69 -95.5t-50 -132.5t-19 -173q0 -130 34.5 -226.5t90.5 -160t126 -95t140 -31.5 q64 0 119 13t100 34v318q0 7 -9 14t-32 15t-62 16.5t-98 18.5v77h488v-76q-56 -14 -79 -31t-23 -34v-314l8 -9q-2 -3 -8 -7v-5h-7q-75 -61 -134 -97.5t-108.5 -56t-93 -25.5t-87.5 -6q-68 0 -135 17t-128.5 50.5t-114.5 84.5t-92 119.5t-61 154.5t-22 189q0 167 53 298 t144 222.5t212.5 139.5t258.5 48q33 0 73.5 -7t82 -20t81 -32.5t72.5 -43.5z" />
<glyph unicode="H" horiz-adv-x="1339" d="M47 0v78q67 14 104 25t37 18v1022q0 6 -35 18t-106 26v78h477v-78q-67 -14 -104 -25.5t-37 -18.5v-418h554v418q0 6 -35 18t-106 26v78h477v-78q-67 -14 -104 -25.5t-37 -18.5v-1022q0 -6 35 -17.5t106 -25.5v-78h-477v78q67 14 104 25t37 18v477h-554v-477 q0 -6 34.5 -17.5t106.5 -25.5v-78h-477z" />
<glyph unicode="I" horiz-adv-x="610" d="M57 0v78q66 14 103.5 25t37.5 18v1022q0 6 -35.5 18t-105.5 26v78h476v-78q-66 -14 -103.5 -25.5t-37.5 -18.5v-1022q0 -6 35.5 -17.5t105.5 -25.5v-78h-476z" />
<glyph unicode="J" horiz-adv-x="625" d="M564 1187q-66 -14 -103.5 -25.5t-37.5 -18.5v-924q0 -119 -16.5 -199.5t-44 -135.5t-64 -91.5t-75.5 -68.5q-27 -22 -61 -39.5t-67.5 -29.5t-63.5 -18.5t-50 -6.5q-33 0 -65.5 11t-58 27t-41 32.5t-15.5 27.5q0 10 15 27.5t36 35.5t44 33.5t40 21.5q28 -18 49 -29 t38 -17.5t32 -8.5t32 -2q23 0 48 15.5t46 56t34.5 110.5t13.5 178v994q0 3 -7.5 7t-28.5 9.5t-58 12t-96 15.5v78h525v-78z" />
<glyph unicode="K" horiz-adv-x="1184" d="M1180 42l-64.5 -20t-63.5 -18t-60 -13t-53 -5q-33 0 -58 10.5t-48 38.5l-452 556v-470q0 -6 35 -17.5t107 -25.5v-78h-477v78q66 14 103.5 25t37.5 18v1022q0 6 -35.5 18t-105.5 26v78h477v-78q-67 -14 -104.5 -25.5t-37.5 -18.5v-447l364 433q26 29 26 40q0 8 -103 16 v80h448v-79q-33 -4 -59.5 -8t-46.5 -10t-36 -15t-28 -23l-412 -458l227.5 -258l227.5 -258q22 -22 51.5 -32t59.5 -10q12 0 29 1.5l39 3.5z" />
<glyph unicode="L" horiz-adv-x="975" d="M952 269q-8 -94 -22 -164.5t-23 -104.5h-864v78q66 14 103.5 25t37.5 18v1022q0 6 -35.5 18t-105.5 26v78h476v-78q-66 -14 -103.5 -25.5t-37.5 -18.5v-964q0 -12 7.5 -22t25.5 -17t49.5 -10.5t79.5 -3.5h139q40 0 68.5 5t50.5 23t40.5 52.5t39.5 93.5z" />
<glyph unicode="M" horiz-adv-x="1651" d="M1549 1184q-32 0 -67 -7t-64 -20q2 -261 5 -518.5t5 -517.5q0 -6 35.5 -17.5t105.5 -25.5v-78h-480v78q67 14 108.5 25.5t42.5 17.5l-4 408.5l-4 414.5l-397 -944h-73l-404 939l-4 -409.5l-4 -408.5q2 -6 37 -17.5t104 -25.5v-78h-430v78q68 14 104.5 25t36.5 18l10 1033 q-33 18 -70.5 24t-70.5 6v81h297q14 0 23 -3.5t17.5 -13.5t17.5 -28.5t22 -48.5l370 -836l177 418.5l177 417.5q14 33 23.5 52t17.5 28t17 11.5t22 2.5h297v-81z" />
<glyph unicode="N" horiz-adv-x="1329" d="M47 0v79q73 8 107 21t34 21v1008q-29 24 -64.5 37.5t-76.5 20.5v78h226q18 0 29.5 -2.5t22.5 -11.5t23.5 -25.5l33.5 -44.5l604 -834v796q0 7 -31.5 19.5t-109.5 23.5v79h438v-79q-71 -10 -106 -22.5t-35 -20.5v-1175q-66 8 -101.5 24.5t-49.5 36.5v-1l-165 228.5 l-158.5 219.5l-158.5 219.5l-165 228.5v-803q0 -7 32.5 -19t108.5 -23v-79h-438z" />
<glyph unicode="O" horiz-adv-x="1229" d="M953 631q0 97 -25 189.5t-71 164.5t-110.5 115.5t-142.5 43.5q-82 0 -146.5 -35.5t-109.5 -100.5t-69 -158t-24 -207q0 -105 28 -199t75.5 -164.5t111 -112t134.5 -41.5q76 0 140 32.5t110.5 96.5t72.5 158t26 218zM1143 649q0 -91 -20.5 -176.5t-58 -160.5t-90 -138 t-115.5 -108t-135 -70t-148 -25q-81 0 -150.5 24.5t-126 68t-100.5 103.5t-73.5 131.5t-45 152t-15.5 164.5q0 91 20 176.5t56.5 161t88.5 138.5t115 108t135.5 70t151.5 25q84 0 154 -25t127 -69.5t100 -105.5t72 -132.5t43.5 -151t14.5 -161.5z" />
<glyph unicode="P" horiz-adv-x="1071" d="M379 670q55 -23 93.5 -30t69.5 -7q42 0 87 16.5t83 48.5t62.5 80t24.5 112q0 75 -27.5 128.5t-74 88t-109 50.5t-133.5 16h-21h-18q-8 0 -16.5 -0.5t-20.5 -0.5v-502zM43 0v78q67 14 104 25t37 18v1034l-71.5 -11t-66.5 -11l-15 97q52 14 111 26t121 20.5t124.5 13 t122.5 4.5q109 0 197.5 -24t151 -70t96.5 -114t34 -156q0 -71 -20 -129t-53 -103.5t-76 -79t-89.5 -55.5t-93 -32.5t-86.5 -10.5q-91 0 -172 35l-20 70v-504q0 -3 7.5 -7t27 -9t52 -11.5t83.5 -15.5v-78h-506z" />
<glyph unicode="Q" horiz-adv-x="1229" d="M955 631q0 97 -25 189.5t-71 164.5t-110.5 115.5t-142.5 43.5q-82 0 -146.5 -35.5t-109.5 -100.5t-69 -158t-24 -207q0 -105 28 -199t75.5 -164.5t111 -112t134.5 -41.5q76 0 140 32.5t110.5 96.5t72.5 158t26 218zM1289 -92q-25 -48 -53 -86t-54.5 -64.5t-50.5 -40.5 t-41 -14q-43 0 -84.5 14.5t-82.5 38t-81 53.5l-80 61l-73 55t-70 48q-10 -2 -20 -2h-21q-112 0 -205.5 51t-161.5 138.5t-106 205t-38 249.5q0 91 20 176.5t56.5 161t88.5 138.5t115 108t135.5 70t151.5 25q84 0 154 -25t127 -69.5t100 -105.5t72 -132.5t43.5 -151 t14.5 -161.5q0 -100 -25.5 -194t-71 -175t-108 -145.5t-136.5 -104.5q22 -11 43.5 -25l41.5 -26l56.5 -36t54 -30.5t50.5 -21.5t46 -8q10 0 22.5 4.5t29.5 14t40 25.5l55 40z" />
<glyph unicode="R" horiz-adv-x="1149" d="M436 1173h-15h-12h-13q-6 0 -15 -1v-464q19 -3 35 -3.5t32 -0.5q152 0 235.5 62.5t83.5 182.5q0 50 -19.5 91t-60.5 70.5t-103 46t-148 16.5zM45 0v78q67 14 104 25t37 18v1032q-32 -5 -70 -10t-68 -10l-14 97q50 13 101 24.5t104.5 20.5t111 14t121.5 5q122 0 212.5 -24 t151 -66t90.5 -99.5t30 -124.5q0 -76 -22.5 -137.5t-63 -108.5t-97 -79.5t-125.5 -50.5l153.5 -219.5l152.5 -219.5v1q21 -29 47.5 -40t67.5 -11q10 0 28.5 1t31.5 2l18 -75q-73 -24 -137 -40.5t-104 -16.5q-33 0 -64 19.5t-48 44.5l-325 532h-4q-23 0 -43 1t-41 5v-467 q0 -6 35 -17.5t106 -25.5v-78h-477z" />
<glyph unicode="S" horiz-adv-x="975" d="M894 386q0 -45 -12 -93.5t-37 -95t-62.5 -87.5t-87.5 -72t-113.5 -49t-139.5 -18q-33 0 -72.5 6.5t-81 19.5t-82.5 31t-76 41h1q-11 6 -17 39.5t-6 78.5q0 41 4 85.5t15 82.5l68 -7q22 -57 54.5 -98.5t71.5 -69t84 -41t91 -13.5q41 0 82 16.5t74 45t53.5 66.5t20.5 81 q0 51 -23 90t-61.5 69.5t-87.5 55.5t-101 48q-59 27 -119 59t-108 74.5t-78 98t-30 130.5q0 49 21.5 107t70 108.5t126 84.5t189.5 34q45 0 90.5 -7.5t86 -20.5t74 -30.5t53.5 -37.5q9 -10 2.5 -32t-21 -47t-33 -48.5t-32.5 -36.5l-51 9q-27 32 -56 53.5t-58 34t-57.5 18 t-54.5 5.5q-49 0 -84.5 -14t-58.5 -35.5t-34 -48t-11 -50.5q0 -36 20 -65.5t54 -55t78 -48.5l92 -46l131 -67.5t119 -82t86.5 -108.5t33.5 -147z" />
<glyph unicode="T" horiz-adv-x="1128" d="M294 0v78q90 17 125 31.5t35 21.5v1007h-272q-11 0 -20 -5.5t-20.5 -23.5t-26.5 -53t-37 -94l-74 32q3 33 7 68.5t8.5 71t9.5 69t11 62.5h1006l42 -35q-2 -58 -10.5 -124.5t-21.5 -132.5h-77q-17 83 -30.5 124t-43.5 41h-257v-1007q0 -7 35 -21t125 -32v-78h-514z" />
<glyph unicode="U" horiz-adv-x="1339" d="M1278 1187q-67 -14 -104 -25.5t-37 -18.5v-614q0 -132 -32.5 -235.5t-93.5 -175.5t-148 -109.5t-197 -37.5q-105 0 -192.5 29t-151 88t-99 149.5t-35.5 213.5v692q0 6 -35 18t-106 26v78h477v-78q-67 -14 -104 -25.5t-37 -18.5v-643q0 -89 21 -159.5t61.5 -119 t100.5 -74.5t138 -26q64 0 114 32t84 83.5t51.5 117.5t17.5 135v654q0 6 -35 18t-106 26v78h448v-78z" />
<glyph unicode="V" horiz-adv-x="1331" d="M1292 1187q-69 -13 -107 -23.5t-45 -30.5l-372 -1063q-9 -25 -32 -42.5t-50 -29.5t-53 -19l-42 -11l-434 1165q-12 36 -139 53v79h462v-80q-71 -5 -101 -13.5t-24 -24.5l324 -873l154.5 436l154.5 436q5 14 -29 22.5t-110 17.5v79h443v-78z" />
<glyph unicode="W" horiz-adv-x="1741" d="M1699 1187l-30 -6q-49 -11 -82 -20.5t-37 -22.5l1 1l-111.5 -533l-111.5 -533q-6 -26 -27 -44t-47 -30.5t-52 -19.5l-41 -11l-305 907l-130.5 -402l-130.5 -402q-9 -25 -32.5 -43t-51 -30t-54.5 -19.5t-43 -11.5l-256 1164l1 -1q-4 19 -34 31.5t-102 25.5v78h457v-79 q-42 -4 -68 -10t-40.5 -12t-19.5 -12.5t-5 -12.5l88.5 -398.5l89.5 -403.5l150 464.5l148 463.5h81l326 -928l83.5 404.5l83.5 405.5q-1 11 -43.5 20t-106.5 20v78h452v-78z" />
<glyph unicode="X" horiz-adv-x="1260" d="M755 0v79q61 6 89 12t28 16q0 8 -12 25l-126.5 185.5l-127.5 186.5l-115 -186l-115 -186q-10 -14 -10 -23q0 -13 34.5 -18.5t104.5 -10.5v-80h-477v80q68 6 114 22t66 51l301 492l-158.5 233l-158.5 233q-13 19 -26 31.5t-30.5 20.5t-40.5 13.5t-57 10.5v78h477v-79 q-61 -6 -90 -12t-29 -15q0 -7 12 -27l57.5 -84l54 -79.5l54 -79.5l57.5 -84l102 163.5l102 163.5v-1q9 15 9 24q0 13 -35.5 19t-103.5 11v80h480v-79q-38 -4 -67 -9.5t-50.5 -14t-37 -20.5t-26.5 -30l-277 -448l174.5 -255l174.5 -255l-1 1q13 -19 27.5 -31.5t33 -21t42 -14 t54.5 -9.5v-79h-477z" />
<glyph unicode="Y" horiz-adv-x="1217" d="M347 0v78q88 18 123.5 31.5t35.5 21.5v407q-34 74 -78.5 157l-91.5 163l-92 150.5t-80 119.5q-8 9 -18.5 17t-28.5 14.5t-46 10t-70 3.5l-5 78q66 10 129 16.5t104 6.5q56 0 91 -44q35 -45 74 -104t78.5 -126l78 -138l72.5 -139l121.5 213l121.5 213q7 11 -17.5 19.5 t-93.5 17.5v79h424v-78q-70 -14 -106 -25.5t-47 -32.5l-325 -589v-409q0 -6 35.5 -21t125.5 -32v-78h-515z" />
<glyph unicode="Z" horiz-adv-x="1071" d="M999 320q-1 -24 -2.5 -54l-3 -62l-3 -63.5t-2.5 -58.5q-1 -18 -1.5 -43t-1.5 -39h-896l-41 64l679 1064h-410q-13 0 -28.5 -11t-30.5 -34.5t-29.5 -60.5t-25.5 -89l-92 19l32 333q52 -11 86 -15.5t65 -4.5h661l36 -63l-672 -1066h473q16 0 30 9t27.5 32.5t28.5 63 t33 100.5z" />
<glyph unicode="[" horiz-adv-x="631" d="M605 -216q-6 -26 -16 -57t-21 -53h-442v1921h431l47 -37q-5 -28 -16 -59.5t-21 -50.5h-264v-1623h254z" />
<glyph unicode="\" d="M862 -328l-31 11.5t-36.5 14t-35 16t-27.5 17.5l-690 1831l58 34q71 -18 129 -54l688 -1831z" />
<glyph unicode="]" horiz-adv-x="631" d="M74 -326l-45 40q2 15 5.5 31t8 31t9.5 28t10 21h266v1623h-254l-48 36q4 29 12 52.5t15 40.5q1 2 4.5 9.5t4.5 8.5h440v-1921h-428z" />
<glyph unicode="^" horiz-adv-x="1008" d="M919 631q-29 -28 -58.5 -46.5t-70.5 -37.5l-50 37l-258 659l-57 -155.5l-56 -152.5l-56 -152l-57 -156q-12 -11 -29 -23t-34.5 -23t-34.5 -20.5t-30 -15.5l-39 47l318 859q14 14 34 29t42 29t43.5 26t37.5 20z" />
<glyph unicode="_" d="M907 -127q-7 -25 -16.5 -55.5t-20.5 -56.5h-782l-37 41q7 25 17 54t22 55h782z" />
<glyph unicode="`" horiz-adv-x="653" d="M457 1064q-15 -13 -37.5 -27t-48.5 -21l-360 385l33 61l31.5 6t44.5 8t48 7.5t41 4.5z" />
<glyph unicode="a" horiz-adv-x="940" d="M356 136q54 0 115 28t129 85v222l-46 -10t-46 -9q-62 -11 -107 -31.5t-74 -48t-43 -61t-14 -69.5q0 -33 9.5 -53.5t23 -32t28.5 -16t25 -4.5zM937 92q-93 -64 -152 -92.5t-88 -28.5q-35 0 -60.5 38.5t-33.5 106.5q-85 -76 -164.5 -110.5t-139.5 -34.5q-38 0 -78.5 12.5 t-73.5 40.5t-54 71.5t-21 104.5t22 116.5t65 101t107.5 79t149.5 50.5l184 37v118q0 29 -6.5 54t-23 43t-44 28t-69.5 10q-28 -1 -54 -9t-46 -22.5t-31.5 -35t-8.5 -44.5q1 -8 -10.5 -17t-30.5 -18t-42.5 -17t-46 -13.5t-41.5 -7.5t-29 0l-19 54q24 52 73 100t110.5 85 t129.5 59t132 22q118 0 180 -61t62 -171v-548q0 -31 5.5 -44t14.5 -13q12 0 35 6t72 27z" />
<glyph unicode="b" horiz-adv-x="1040" d="M787 416q0 93 -18.5 165t-49.5 121.5t-71 75t-83 25.5q-16 0 -42.5 -9t-59.5 -31.5t-71 -60.5t-77 -95v-380q36 -25 73.5 -42.5t71.5 -28.5t61.5 -15.5t43.5 -4.5q55 0 96.5 24t69.5 63.5t42 90t14 102.5zM956 498q0 -58 -15.5 -120t-44.5 -120.5t-71.5 -110.5t-96.5 -91 t-119 -62t-140 -23q-19 0 -53.5 8.5t-79 25.5t-97.5 41.5t-109 55.5v1178q0 38 -5 58.5t-19 31t-38.5 14.5t-64.5 9v71l66 16t64 18t64 23t65 31l12.5 -12l17.5 -16l23 -21v-725q46 51 91 87.5t86.5 60.5t77.5 35.5t63 11.5q71 0 130 -32.5t102 -94t67 -149.5t24 -199z" />
<glyph unicode="c" horiz-adv-x="895" d="M856 205q-69 -82 -121 -128.5t-96 -70t-85 -29.5t-89 -6q-75 0 -146 33t-126 95t-88.5 151t-33.5 201q0 109 40 204t109.5 165.5t163.5 111.5t203 41q34 0 70 -6t69 -17.5t61.5 -27.5t46.5 -36q3 -15 -3 -41t-16.5 -54t-22.5 -54t-23 -42l-59 15q-7 17 -24 37.5t-43 38 t-62 29.5t-82 12q-47 0 -91 -21.5t-77.5 -64.5t-54 -108t-20.5 -151q0 -79 23 -142.5t61.5 -108.5t89 -69t105.5 -24q26 0 48 2.5t49.5 15t65.5 39t95 75.5z" />
<glyph unicode="d" horiz-adv-x="1065" d="M721 725q-30 50 -82.5 76t-117.5 26q-57 0 -105.5 -21.5t-83 -64.5t-54 -108t-19.5 -151q0 -79 22 -142.5t56 -108.5t74.5 -69t77.5 -24q29 0 58.5 12t59 32.5t58 46l56.5 52.5v444zM1060 92q-97 -65 -152.5 -93t-85.5 -28q-36 0 -60.5 37.5t-34.5 127.5 q-34 -38 -69 -68.5t-72 -52t-78 -33t-88 -11.5q-57 0 -118.5 33t-112 95t-83 151t-32.5 201q0 58 15.5 119.5t45 119.5t72 109.5t95.5 90t115.5 61t133.5 22.5q43 0 83 -8.5t87 -36.5v331q0 48 -3 75.5t-16.5 42.5t-42 21t-79.5 10v74q91 13 159 31.5t122 36.5l45 -44v-1239 q0 -64 4.5 -92.5t13.5 -39.5q2 -2 8.5 -1.5t19.5 4.5t34 11.5l52 19.5z" />
<glyph unicode="e" horiz-adv-x="946" d="M495 833q-88 0 -147.5 -62t-80.5 -168h392q11 0 14 3.5t3 12.5q0 24 -7 60.5t-26.5 70.5t-55 58.5t-92.5 24.5zM870 549q-20 -23 -51.5 -41t-65.5 -31l-497 -3q3 -66 23 -126.5t54.5 -107t83 -74.5t108.5 -28q29 0 56.5 3.5t60 17t73.5 40.5t97 73q26 -14 40.5 -33 t22.5 -32q-70 -76 -123.5 -122.5t-99.5 -72t-90 -33.5t-97 -8q-78 0 -149.5 33.5t-126 95t-86.5 148.5t-32 194q0 68 15 133.5t44 124t70.5 108t94.5 85.5q22 15 50 29.5t58.5 25.5t61 18t58.5 7q67 0 119.5 -18.5t91.5 -50t66 -73t43.5 -87t24 -93t7.5 -90.5z" />
<glyph unicode="f" horiz-adv-x="637" d="M826 1434q0 -10 -16.5 -29t-39.5 -39t-48 -37t-42 -25q-48 42 -93.5 63t-69.5 21q-22 0 -47 -16.5t-47 -59t-36.5 -116.5t-14.5 -188v-64h239l45 -45q-11 -16 -27 -35.5t-33.5 -37t-33.5 -31t-27 -18.5q-23 12 -60.5 23t-102.5 13v-694q0 -1 10.5 -3.5t34 -7.5t62.5 -12 l96 -18v-78h-524v78q67 11 101.5 23t34.5 18v694h-121l-37 50l95 81h63v10q0 119 16 199.5t44 136.5t64.5 93.5t76.5 69.5l-1 -1q28 23 61 40.5t65 29.5t61.5 18.5t49.5 6.5q33 0 68.5 -14t65.5 -32.5t49 -37.5t19 -29z" />
<glyph unicode="g" horiz-adv-x="999" d="M666 603q0 48 -16 90t-47 73.5t-77 50t-107 18.5q-22 0 -48.5 -11t-49.5 -33t-38.5 -54.5t-15.5 -75.5q0 -48 15 -90.5t45.5 -74.5t77 -50.5t109.5 -18.5q25 0 52 11t49 33.5t36.5 55.5t14.5 76zM516 -4q-37 4 -66.5 8t-55.5 10q-63 -35 -100 -62t-56 -48.5t-24.5 -38.5 t-5.5 -30q0 -37 25.5 -70t69 -57.5t100.5 -39t119 -14.5q61 0 110.5 16t85 44.5t55 67.5t19.5 85q0 23 -12 42.5t-43 35.5t-84.5 29t-136.5 22zM841 643q0 -79 -35 -144.5t-92 -112.5t-129.5 -73.5t-146.5 -26.5q-40 -33 -54 -52t-14 -24q0 -7 11 -15t38 -16.5t71.5 -16.5 t110.5 -16q105 -13 177 -39t116 -59t63.5 -71t19.5 -74q0 -84 -46 -155.5t-119 -123.5t-163.5 -81t-180.5 -29q-71 0 -149.5 15.5t-144 49.5t-108 88t-42.5 130q0 27 8.5 55t34 59.5t71 67.5t120.5 78q-51 25 -69 53t-18 58q0 9 4.5 22t17.5 31t36 40.5t59 50.5 q-90 35 -143 111t-53 182q0 75 33.5 142t89 117.5t126 79.5t145.5 29q58 0 110.5 -16.5t96.5 -45.5q97 9 162.5 29.5t108.5 37.5l33 -53l-8 -22q-11 -25 -23 -47t-35 -48q-32 -5 -63 -9t-66 -6q39 -70 39 -150z" />
<glyph unicode="h" horiz-adv-x="1130" d="M648 0v76q70 18 103 28.5t33 16.5v514q0 53 -6.5 86.5t-19 52.5t-32.5 26t-47 7q-63 0 -145.5 -65t-162.5 -193v-428q0 -7 36 -18t100 -25v-78h-457v76q64 17 100 27.5t36 17.5v1161q0 35 -3.5 54.5t-17.5 30t-41 15.5t-74 11v73q45 9 82 18t68.5 18.5t60 21.5t58.5 27 l52 -48v-758q42 51 91 93t98 72t94.5 46.5t80.5 16.5q45 0 87.5 -14t75 -42.5t52 -72.5t19.5 -104v-619q0 -6 30 -15.5t106 -29.5v-76h-457z" />
<glyph unicode="i" horiz-adv-x="555" d="M407 1246q0 -31 -10 -59t-28 -49t-42.5 -33t-52.5 -12q-54 0 -77.5 29.5t-23.5 83.5q0 32 10.5 59.5t28 48t41.5 32.5t51 12q103 0 103 -112zM56 0v78q67 14 102 25t35 18v550q0 44 -2 71t-14.5 42.5t-40.5 22.5t-80 12v73q34 7 70.5 16t71 19.5t66.5 22t57 23.5h56v-852 q0 -6 32.5 -17.5t104.5 -25.5v-78h-458z" />
<glyph unicode="j" horiz-adv-x="530" d="M376 1246q0 -31 -10 -59t-28 -49t-42 -33t-51 -12q-54 0 -77.5 29.5t-23.5 83.5q0 32 10 59.5t28 48t42 32.5t51 12q101 0 101 -112zM347 116q0 -115 -14.5 -195.5t-40.5 -137.5t-61.5 -96t-76.5 -72q-27 -21 -58 -39.5t-61 -32t-57.5 -21.5t-47.5 -8q-34 0 -66.5 9.5 t-58 23t-41 28.5t-15.5 25t16.5 29t39.5 39t48 37.5t42 25.5q33 -29 64.5 -38t66.5 -9q24 0 48.5 17t44 59.5t31.5 115.5t12 185v610q0 44 -2.5 70.5t-15 42t-40 22.5t-78.5 13v73q41 7 72.5 15t58.5 16.5t51 18l50 19.5v-1q6 3 15 6.5t16 6.5h58v-857z" />
<glyph unicode="k" horiz-adv-x="1024" d="M49 0v76q64 17 100 27.5t36 17.5v1159q0 38 -5.5 58.5t-20.5 31t-41.5 14.5t-68.5 9v73q73 16 143 35t125 51l53 -49v-928l133.5 118.5l133.5 117.5q20 17 28 27.5t8 15.5q0 3 -7 4.5t-19 2.5t-27 1.5t-31 0.5v81h407v-79q-46 -6 -86.5 -19t-75.5 -40l-155.5 -125 l-156.5 -126l174 -208l174 -207q20 -22 44.5 -32.5t61.5 -10.5q5 0 13 0.5t33 2.5l11 -78q-33 -8 -64.5 -14t-58.5 -10t-47.5 -6t-30.5 -2q-45 0 -74 14t-54 46l-166.5 213.5l-167.5 213.5v-356q0 -3 3 -6.5t14 -8.5t32.5 -12l57.5 -19v-75h-428z" />
<glyph unicode="l" horiz-adv-x="555" d="M47 0v78q42 7 70 13t45 11t24 10t7 9v1159q0 38 -6 58.5t-21.5 31t-42 14.5t-67.5 9v73q38 8 72.5 16t67.5 17.5t65 22.5t66 30l50 -49v-1382q0 -8 33 -18.5t113 -24.5v-78h-476z" />
<glyph unicode="m" horiz-adv-x="1645" d="M1157 0v76q70 18 102.5 28.5t32.5 16.5v514q0 54 -5 89t-16 56t-28 29t-41 8q-59 0 -131 -65t-144 -180v-451q0 -6 30.5 -15.5t107.5 -29.5v-76h-458v76q71 18 103.5 28.5t32.5 16.5v514q0 54 -5 89t-16 56t-28 29t-42 8q-60 0 -128 -64.5t-146 -181.5v-450q0 -7 36 -18 t100 -25v-78h-457v76q64 17 100 27.5t36 17.5v590q0 33 -3.5 52t-17.5 29.5t-41 15.5t-74 11v73q42 7 76.5 16t65 19.5t59 23t56.5 26.5l49 -50l9 -173q85 111 168 165t152 54q47 0 87 -11t71 -35.5t50.5 -64.5t24.5 -98q80 102 164 155.5t153 53.5q50 0 93 -14t74.5 -42.5 t49.5 -72.5t18 -104v-619q0 -6 30.5 -15.5t106.5 -29.5v-76h-457z" />
<glyph unicode="n" horiz-adv-x="1130" d="M648 0v76q70 18 103 28.5t33 16.5v514q0 53 -5.5 86.5t-18.5 52.5t-32.5 26t-48.5 7q-27 0 -62 -13.5t-74.5 -44.5t-83 -80.5t-88.5 -120.5v-427q0 -7 36 -18t100 -25v-78h-457v76q64 17 100 27.5t36 17.5v590q0 32 -3 51t-16 29.5t-40.5 16t-76.5 11.5v73 q75 13 136.5 34.5t120.5 50.5l49 -50l9 -192q44 57 93.5 101t99 74.5t95.5 46.5t82 16q45 0 87.5 -14t75 -42.5t52 -72.5t19.5 -104v-619q0 -6 30 -15.5t106 -29.5v-76h-457z" />
<glyph unicode="o" horiz-adv-x="1030" d="M770 462q0 73 -23.5 139t-61.5 116.5t-85 80t-94 29.5q-69 0 -116 -26.5t-76 -73.5t-41.5 -110t-12.5 -137q0 -73 25.5 -139t64.5 -116t85.5 -79t88.5 -29q64 0 110.5 24.5t76.5 69.5t44.5 108.5t14.5 142.5zM958 491q0 -67 -17 -132t-47.5 -122.5t-73 -106.5t-94 -84 t-109.5 -55t-120 -20q-96 0 -174.5 36.5t-134 100.5t-86 152t-30.5 191q0 67 16.5 131.5t46.5 122.5t72.5 107.5t94 85t110.5 55.5t122 20q96 0 174.5 -36.5t134 -101t85.5 -152.5t30 -192z" />
<glyph unicode="p" horiz-adv-x="1085" d="M842 434q0 81 -18.5 150t-49 119.5t-70.5 79t-84 28.5q-15 0 -41 -10t-59 -34t-71.5 -63t-79.5 -96v-372q42 -31 76.5 -50.5t65 -30.5t57 -15t51.5 -4q48 0 89 19t70.5 56.5t46.5 93.5t17 129zM1011 498q0 -58 -15 -120t-42 -120.5t-63.5 -110.5t-80 -91t-92 -62 t-98.5 -23q-54 0 -119.5 26.5t-131.5 76.5v-419q0 -8 37 -19.5t128 -24.5v-78h-486v76q65 15 101 26.5t36 19.5v1056q0 31 -4 50.5t-18 31.5t-41 17.5t-74 7.5v74q76 17 136.5 36.5t120.5 48.5l50 -50l7 -151q47 51 93 88t88 61.5t79 36t64 11.5q70 0 129.5 -32.5t103 -94 t68 -149.5t24.5 -199z" />
<glyph unicode="q" horiz-adv-x="1055" d="M489 138q29 0 58.5 12t59 32.5t58 46t55.5 52.5v444q-29 50 -81.5 77t-117.5 27q-50 0 -97.5 -22t-84 -65.5t-59 -108.5t-22.5 -151q0 -79 22.5 -142.5t56.5 -108.5t74.5 -69t77.5 -24zM555 -467v78q46 7 77.5 13t51 11.5t28 10t8.5 9.5v474q-67 -75 -137.5 -116.5 t-162.5 -41.5q-57 0 -118.5 33t-112.5 95t-83.5 151t-32.5 201q0 89 28.5 164t70 133t87.5 98.5t82 61.5q57 31 114 48t96 17q53 0 108 -17.5t119 -69.5q13 9 28 21.5l30 26l28 26l22 21.5l51 -51q-14 -48 -22 -96t-10 -117v-1062q0 -8 30 -19t106 -25v-78h-486z" />
<glyph unicode="r" horiz-adv-x="811" d="M771 934q10 -6 13.5 -18.5t3.5 -30.5q0 -20 -5 -49.5t-13.5 -61t-18.5 -62.5t-20 -54h-71q-6 39 -15 66t-21 43.5t-26 23.5t-29 7q-19 0 -45 -17.5t-53.5 -53.5t-54.5 -92t-50 -134v-380q0 -7 37 -18t128 -25v-78h-486v77q65 14 101 25t36 19v566q0 29 -1.5 48t-4 31.5 t-6 20t-6.5 11.5q-10 9 -35 12.5t-84 7.5v72q8 2 21.5 6t21.5 6q54 14 106.5 30t106.5 46l51 -51l9 -157q26 44 55.5 81.5t62 64.5t68 42t74.5 15q34 0 72.5 -8.5t76.5 -30.5h1z" />
<glyph unicode="s" horiz-adv-x="791" d="M711 295q0 -73 -20.5 -125.5t-53 -88.5t-73 -58t-80 -33.5t-73.5 -15t-54 -3.5q-24 0 -54.5 4.5t-63.5 14t-67.5 23t-67.5 31.5q-10 8 -15 32.5t-5 54.5q0 22 1.5 47t4.5 50.5t7 48.5t10 41l74 -17q2 -40 20 -75.5t48 -62.5t70.5 -42.5t86.5 -15.5q30 0 56 10t44.5 28 t29 42.5t10.5 54.5t-16 55t-42.5 46t-61 39.5l-71.5 37.5l-19 10.5t-21 10.5q-43 21 -83 46t-71 56t-50 70t-19 89q0 65 26 116t69 86t99 53t115 18q32 0 70 -5.5t75.5 -16t70.5 -25.5t53 -33q8 -8 3.5 -33.5t-15 -55.5t-22.5 -56.5t-19 -36.5l-59 11q-46 69 -92.5 96.5 t-89.5 27.5q-28 0 -50 -9t-37 -23t-23 -31t-8 -34q0 -24 14.5 -44t38.5 -38.5t55.5 -35.5l65.5 -35l30 -15l88.5 -48.5t80 -58.5t58 -76.5t22.5 -102.5z" />
<glyph unicode="t" horiz-adv-x="705" d="M692 127q-52 -38 -102.5 -67.5t-96 -49t-84 -29.5t-65.5 -10q-38 0 -72 13.5t-60 44.5t-41.5 81.5t-15.5 123.5v579h-115l-37 50l95 81h57v228l136 118l49 -40v-306h307l45 -46q-10 -16 -26 -35t-33.5 -36.5t-35 -31t-29.5 -18.5q-25 13 -73 24.5t-124 11.5h-31v-495 q0 -52 4.5 -87t15 -55.5t26.5 -29t40 -8.5q33 0 85.5 14t135.5 56z" />
<glyph unicode="u" horiz-adv-x="1085" d="M1077 90l-75.5 -47t-67 -38t-54.5 -25t-38 -9q-38 0 -63 42.5t-35 125.5q-56 -53 -103.5 -86t-88 -51t-75 -24.5t-65.5 -6.5q-49 0 -94.5 13.5t-80.5 49t-55.5 98t-20.5 159.5v420q0 40 -3 62.5t-15 34t-37 16t-70 9.5v74q41 4 75 10.5t66 15t63.5 19.5t65.5 25l40 -57 v-576q0 -63 9 -104.5t25.5 -67t40.5 -36t54 -10.5q58 0 121.5 35.5t143.5 120.5v429q0 37 -4.5 60t-19 36t-41 18t-71.5 7v75q84 11 152.5 30t126.5 39l42 -54v-655q0 -56 2.5 -90t10.5 -40q8 -5 36.5 2t85.5 31z" />
<glyph unicode="v" horiz-adv-x="1010" d="M995 868q-30 -7 -49 -13t-31 -12t-18 -14t-10 -19l-275 -740q-10 -25 -30.5 -42.5t-44.5 -29.5t-47.5 -19t-39.5 -11l-327 842q-7 21 -32.5 33.5t-76.5 23.5v77h414v-79q-69 -10 -93 -18.5t-18 -23.5l56 -144l54 -142l54 -142.5l56 -146.5l207 575v-1q3 8 0 13.5 t-14.5 10.5t-32.5 9.5t-55 10.5v78h353v-76z" />
<glyph unicode="w" horiz-adv-x="1446" d="M1425 867q-31 -7 -49.5 -12.5t-28.5 -11t-14 -11.5t-6 -15l-215 -746v1q-6 -25 -27 -43.5t-46 -30.5t-50.5 -19l-40.5 -11l-219 622l-181 -520q-10 -24 -30.5 -41.5t-44.5 -29.5t-47.5 -19.5t-39.5 -11.5l-259 849q-6 28 -107 50v77h414v-79q-46 -4 -71 -9t-37 -9.5 t-14 -9t-1 -9.5l166 -559l112.5 338l112.5 337h94l237 -674l76 278.5l76 278.5q-1 11 -27.5 20t-87.5 19v78h355v-77z" />
<glyph unicode="x" horiz-adv-x="1030" d="M592 0v80q38 3 64.5 8t26.5 16t-15 31l-88.5 120.5l-88.5 120.5l-84.5 -120.5l-84.5 -120.5q-11 -16 -11 -25q0 -7 10.5 -12.5t26.5 -8.5t36 -5t38 -4v-80h-408v78q41 6 69.5 15.5t48 20.5t32 24t22.5 26l114 159l114 159l-110 150.5l-110 150.5q-12 16 -23.5 29.5 t-29.5 24t-45.5 17.5t-70.5 10v80h447v-79q-43 -5 -68.5 -10.5t-25.5 -15.5t15 -31l141 -193l66.5 96.5l67.5 96.5q16 22 16 33q0 9 -25 14t-67 10v79h410v-79q-82 -7 -127 -28.5t-68 -53.5l-97.5 -137.5l-98.5 -137.5l125.5 -172.5l125.5 -171.5l-1 1q11 -13 24 -26.5 t32 -25.5t44.5 -21t60.5 -13v-79h-430z" />
<glyph unicode="y" horiz-adv-x="1010" d="M994 868q-30 -7 -49 -13t-31 -12t-18 -14t-10 -19l-325 -877q-42 -111 -94 -190.5t-108.5 -130t-113.5 -74.5t-109 -24q-41 0 -75.5 6.5t-59.5 16.5t-39 23t-14 25q0 7 13.5 27.5t34 44.5t43.5 47t41 34q30 -17 57.5 -25t51.5 -8q16 0 31.5 3.5t29.5 8.5q17 5 38 25.5 t43.5 50.5t44 67.5t38.5 77.5l-1 -1q6 17 12 29.5t13 29.5l-158 407l-158 407q-7 21 -32.5 33.5t-76.5 23.5v77h414v-79q-69 -10 -92.5 -18.5t-18.5 -23.5l56 -144.5l54 -140l54.5 -140.5l56.5 -146l103 285.5l103 285.5v-1q5 16 -19.5 24.5t-92.5 19.5v78h363v-76z" />
<glyph unicode="z" horiz-adv-x="905" d="M838 277q0 -34 -1 -73.5t-2.5 -77.5t-4.5 -71t-6 -55h-724l-36 64l525 753h-299q-13 0 -26 -6t-26 -22.5t-25 -45.5t-22 -76l-83 21l20 276q41 -11 70.5 -15.5t63.5 -4.5h546l31 -63l-527 -755h373q17 0 34 38.5t40 129.5z" />
<glyph unicode="{" horiz-adv-x="688" d="M667 1523q-39 -24 -73 -54t-58.5 -66t-39 -77.5t-14.5 -88.5q0 -53 6.5 -88t13.5 -67q8 -32 14 -68.5t6 -96.5q0 -37 -9.5 -73.5t-28 -69.5t-44.5 -62t-59 -50q73 -31 107 -100.5t34 -167.5q0 -64 -6.5 -106t-14.5 -80q-8 -35 -13.5 -68.5t-5.5 -78.5q0 -50 7.5 -89 t27 -71.5t53.5 -61t86 -57.5l-35 -95q-90 36 -154 76t-105.5 88t-60.5 106.5t-19 132.5q0 58 5.5 97t13.5 72q8 35 14.5 74t6.5 97q0 69 -34.5 104.5t-98.5 35.5h-20q-2 0 -5.5 -0.5t-8.5 -1.5t-19.5 -3t-23.5 -4l-27 88q118 31 177.5 87t59.5 123q0 29 -1.5 51.5t-4 41 t-6 33.5t-7.5 30q-8 32 -14.5 69t-6.5 98q0 69 24 129.5t68 113t108 96.5t143 80z" />
<glyph unicode="|" horiz-adv-x="469" d="M338 -333q-12 -10 -27.5 -19.5t-32.5 -17.5t-34 -14.5l-31 -11.5l-51 33v1970q32 20 59.5 33.5t64.5 24.5l52 -32v-1966z" />
<glyph unicode="}" horiz-adv-x="688" d="M604 639q-119 -30 -177.5 -85t-58.5 -124q0 -29 1.5 -51t4 -40t6 -33t6.5 -30q4 -16 7.5 -33t6.5 -36.5t4.5 -43.5t1.5 -54q0 -69 -24 -130t-68 -113.5t-107.5 -96.5t-141.5 -80l-44 78q39 24 73 54t58.5 66t39 77.5t14.5 89.5q0 56 -5.5 90.5t-12.5 63.5q-4 17 -7.5 34 t-6.5 37t-4.5 43.5t-1.5 52.5q0 37 9.5 73t27.5 69t44.5 61t60.5 49q-75 32 -108.5 101t-33.5 169q0 62 6.5 105.5t13.5 80.5q7 32 12.5 68t5.5 77q0 53 -7.5 92t-27 71t-53.5 60t-86 57l35 93q90 -35 154.5 -74.5t105.5 -87.5t60 -106t19 -132q0 -30 -1.5 -53.5t-4 -44 t-5.5 -38t-7 -34.5q-8 -35 -14 -74t-6 -96q0 -69 34.5 -105t98.5 -36h18q5 0 10.5 1t20.5 4l-1 -1q4 2 15 4t14 3z" />
<glyph unicode="~" horiz-adv-x="999" d="M963 782q-22 -52 -56.5 -108.5t-76.5 -103t-89.5 -76.5t-97.5 -30q-45 0 -93 24.5t-97 55.5h1l-45.5 27.5t-44 24.5t-42.5 17.5t-40 6.5q-42 0 -80 -39.5t-80 -125.5l-85 44q22 53 56.5 109t76.5 102t89.5 76t96.5 30q26 0 51 -7.5t50.5 -19.5t50.5 -27l50 -30 q43 -27 83 -49t74 -22q41 0 80.5 39t81.5 122z" />
<glyph unicode="&#xa2;" d="M282 619q0 -59 13.5 -108t37 -87.5t55.5 -66t68 -43.5v620q-34 -13 -65.5 -39t-55.5 -65t-38.5 -91.5t-14.5 -119.5zM582 3q-21 -19 -32.5 -25t-29.5 -12l-6 -3q-3 -2 -7.5 -3.5l-10.5 -3.5l-40 40v131q-70 7 -135 40t-115 91.5t-80.5 141.5t-30.5 190q0 87 26.5 164 t74.5 138.5t114.5 106t145.5 67.5v145l16 11t13 8l-2 -1l10 6.5t9.5 4.5t14.5 5t25 7l40 -34v-129h29q33 0 68.5 -6t69 -17.5t62.5 -28.5t48 -38q2 -13 -4 -38.5t-16.5 -53t-23 -54t-23.5 -41.5l-54 16q-8 15 -20.5 32t-31 32.5t-44 28t-60.5 18.5v-645q21 1 42 5.5t47 18 t61.5 39.5t84.5 69l63 -65q-51 -60 -92 -101.5t-76.5 -67.5t-67 -40t-62.5 -20v-129z" />
<glyph unicode="&#xa3;" d="M625 521h-229v-15q0 -110 -27 -203t-67 -162q24 2 45 2h41q52 0 98 -3q23 -2 47.5 -3t53.5 -1q9 0 18 0.5t20 0.5q41 1 70.5 6t53 22.5t43.5 51.5t41 93l74 -32q-4 -46 -10 -88.5t-12 -77.5t-12 -62t-10 -43q-35 -20 -75 -27.5t-82 -7.5q-50 0 -102.5 6t-106.5 13 q-56 8 -111 15t-106 7t-98.5 -11t-92.5 -40l-37 82q37 30 64 55t45 58t26.5 79.5t8.5 119.5v37t-0.5 37.5t-2 41.5l-3.5 49h-102l-35 41q2 6 6.5 17.5t6.5 17.5q2 8 5 18.5t13 33.5h97v39q0 130 26 232.5t79 173.5t133.5 108.5t190.5 37.5q26 0 51.5 -2t55 -10t67 -23 t87.5 -41q-1 -27 -5.5 -67t-10.5 -82t-13.5 -79.5t-14.5 -59.5h-78q-13 120 -67.5 174.5t-143.5 54.5q-29 0 -58 -8.5t-52 -38t-37.5 -87t-14.5 -156.5q0 -35 2 -76.5t7 -89.5h233l41 -36z" />
<glyph unicode="&#xa4;" d="M380 707q-21 -21 -32 -48t-11 -55t10.5 -54t31.5 -46q23 -23 49 -33t54 -10t54.5 10.5t47.5 31.5q42 44 42 102q0 28 -11 54.5t-32 47.5t-47 31.5t-54 10.5t-54.5 -10.5t-47.5 -31.5zM727 269l-100 101q-34 -21 -70.5 -30.5t-74.5 -9.5t-75 9t-71 31l-50 -49.5l-49 -49.5 l-51 2l-21 40.5t-21 44.5l102 101q-20 32 -30 70t-10 74q0 38 9.5 75t31.5 71l-50 50l-49 49l2 51q19 11 40.5 21.5t44.5 20.5l101 -101q34 20 71 30.5t75 10.5t74.5 -9.5t69.5 -31.5l97 97l54 1l40 -88l-102 -101q21 -34 31.5 -71t10.5 -75t-9.5 -74.5t-31.5 -70.5 l49.5 -48l48.5 -48l1 -54z" />
<glyph unicode="&#xa5;" d="M223 0v78q88 18 123.5 31.5t35.5 21.5v293h-254l-35 41q2 6 6.5 17t6.5 18q3 8 6 18t13 34h257v27q-33 69 -71 138.5l-75.5 134l-74 121.5l-66.5 100q-7 9 -17.5 17.5t-28.5 14.5t-46 10t-70 4l-6 78q66 9 129 16t104 7q56 0 92 -45q34 -44 64.5 -91l60.5 -98t60 -107.5 l62 -120.5l95.5 168l95.5 168q6 12 -18 20.5t-93 16.5v79h424v-78q-70 -13 -106.5 -25t-47.5 -32l-272 -499v-24h251l41 -36l-34 -92h-258v-293q0 -6 35.5 -21t125.5 -32v-78h-515z" />
<glyph unicode="&#xa6;" horiz-adv-x="469" d="M343 -335q-13 -10 -30 -19t-35.5 -17t-36 -14.5l-31.5 -11.5l-53 33v870q35 21 67 35.5t67 25.5l52 -35v-867zM343 756q-13 -10 -30.5 -19t-35.5 -17t-35.5 -14l-31.5 -11l-53 32v880q34 20 66 34t68 24l52 -32v-877z" />
<glyph unicode="&#xa7;" d="M546 551q8 -4 16.5 -9t19.5 -10q17 -9 28 -13.5t27 -14.5q48 35 48 93q0 41 -18 75t-54 66.5t-90 66t-125 72.5q-19 9 -39.5 22l-37.5 24q-11 -7 -19.5 -19.5t-14 -27.5t-8.5 -30t-3 -27q0 -41 16 -72.5t49 -61.5t84 -61.5zM852 658q0 -42 -8.5 -78t-23 -67t-33 -55.5 t-39.5 -43.5q23 -29 34.5 -60.5t11.5 -78.5q0 -73 -20.5 -124t-53 -85t-73 -53t-80 -28.5t-73.5 -11.5t-54 -2q-25 0 -55 6t-63 17.5t-67.5 26.5t-67.5 33q-10 8 -15 32.5t-5 54.5q0 21 1.5 46.5t4.5 51t7 48.5t10 41l74 -18q2 -40 20 -77t48 -65.5t70 -45.5t87 -17 q61 0 100.5 28.5t39.5 87.5q0 27 -13 48.5t-35.5 39.5t-51.5 33.5t-62 31.5l-34.5 17l-35.5 19q-66 36 -119.5 72.5t-91 79t-57.5 94t-20 117.5q0 35 10.5 68.5t28.5 63.5t41 56t48 45q-29 38 -45.5 83t-16.5 98q0 66 26 113.5t69 78.5t99 46t115 15q32 0 70 -7t75.5 -19.5 t70.5 -29t53 -34.5q8 -8 3.5 -33.5t-15 -55t-22.5 -56.5t-19 -37l-59 11q-46 70 -93 102t-89 32q-56 0 -87 -22.5t-31 -64.5q0 -30 13 -55.5t38.5 -50t64 -49t89.5 -53.5l123.5 -73t97 -75.5t63 -91t22.5 -120.5z" />
<glyph unicode="&#xa9;" horiz-adv-x="1460" d="M1024 365q-46 -43 -87 -72.5t-79.5 -47.5t-75.5 -26t-74 -8q-66 0 -130.5 26.5t-115.5 77t-82 124t-31 166.5q0 102 34.5 185.5t93 142t136.5 90.5t166 32q78 0 135 -19.5t96 -46.5q6 -4 0 -22t-17.5 -39.5t-26 -41.5t-25.5 -28l-36 6q-17 13 -36 26t-40.5 23.5t-46 17 t-51.5 6.5q-29 0 -66.5 -14.5t-70.5 -50t-56 -94.5t-23 -149q0 -72 27 -127t67 -92t86 -55.5t84 -18.5q19 0 39 3.5t43.5 13.5t52.5 28t66 46q16 -5 23.5 -12t12.5 -14q1 -1 1.5 -2t1.5 -2l2 -2zM1240 633q0 111 -38 209t-106 171t-162 115.5t-205 42.5t-204 -42.5 t-161 -115.5t-106 -171t-38 -209q0 -112 38 -210t106 -171.5t161 -116t204 -42.5t205 42.5t162 116t106 171.5t38 210zM1362 633q0 -137 -47.5 -257.5t-131.5 -210.5t-200 -142t-254 -52q-137 0 -253 52t-200 142t-131 210.5t-47 257.5t47 257.5t131 210t200 141.5t253 52 q92 0 174.5 -23.5t153 -66.5t127 -103.5t96 -134t61 -158t21.5 -175.5z" />
<glyph unicode="&#xad;" horiz-adv-x="690" d="M643 555q-8 -27 -18.5 -58.5t-20.5 -53.5h-519l-38 37q7 27 17.5 56.5t21.5 55.5h519z" />
<glyph unicode="&#xae;" horiz-adv-x="730" d="M260 1220l3 1q0 1 -5 0zM334 1222v-106h7q76 0 76 58q0 20 -17.5 34t-62.5 14h-3zM219 863q30 -23 66.5 -36t78.5 -13t78.5 12.5t66.5 35.5q-22 -5 -30 -5q-14 0 -27.5 9t-19.5 18l-98 157v-122q2 4 42 -3v-53h-157zM120 1074q0 -58 20.5 -108t58.5 -86v36q41 9 42 2v299 q-8 -2 -18 -5l-24 -7l-2 60q-36 -36 -56.5 -85t-20.5 -106zM610 1074q0 54 -18.5 101t-51 82.5t-77.5 56t-99 20.5q-46 0 -85.5 -16t-71.5 -43q35 8 69.5 14t70.5 6q83 0 125.5 -31.5t42.5 -80.5q0 -45 -24 -77t-62 -49l42 -57t42 -58q4 -7 16.5 -8.5t38.5 1.5v-9 q42 63 42 148zM706 1074q0 -74 -25.5 -139t-71 -113t-108.5 -76t-137 -28t-136 28t-107 76t-70.5 113t-25.5 139t25.5 139t70.5 113t107 76t136 28t137 -28t108.5 -76t71 -113t25.5 -139z" />
<glyph unicode="&#xb0;" horiz-adv-x="733" d="M461 987q0 25 -6 47.5t-16.5 39.5t-26 27t-34.5 10q-21 0 -40 -8.5t-33.5 -24t-23 -38t-8.5 -50.5q0 -24 5.5 -46t16 -39t26 -27.5t34.5 -10.5q20 0 39 8t34 23.5t24 38t9 50.5zM606 1036q0 -64 -25 -118.5t-65 -94.5t-89 -62.5t-97 -22.5q-45 0 -82 16.5t-64 44 t-42 64.5t-15 79q0 64 25 118.5t64.5 94.5t88.5 62.5t98 22.5q42 0 79 -16.5t64.5 -44.5t43.5 -65t16 -78z" />
<glyph unicode="&#xb1;" horiz-adv-x="840" d="M790 236q-7 -26 -17 -57t-21 -54h-665l-38 37q7 26 17.5 56t21.5 55h665zM495 363q-26 -13 -55.5 -22.5t-57.5 -16.5l-38 34v261h-257l-38 37q7 26 17.5 56t21.5 55h256v260l19 6.5t20 6.5q15 5 37 11.5t37 10.5l38 -35v-260h258l37 -37q-7 -26 -17 -57.5t-21 -53.5h-257 v-256z" />
<glyph unicode="&#xb6;" horiz-adv-x="1135" d="M765 1133l-20.5 5.5t-18.5 4.5v-1265q0 -2 7.5 -4.5t12.5 -4.5q6 2 12.5 4.5t6.5 4.5v1255zM570 632q0 138 0.5 268t0.5 269q-23 2 -44 3t-36 1q-54 0 -99 -19t-78 -51.5t-51.5 -76.5t-18.5 -94q0 -49 17.5 -102t54 -97t94 -72.5t137.5 -28.5h23zM427 -243v78 q68 14 105.5 25.5t37.5 17.5v637q-27 -3 -65 -3q-94 0 -178 24t-147 72.5t-100 121t-37 168.5q0 87 34.5 160t96 125.5t147 81.5t188.5 29q21 0 53 -1t68.5 -3.5l76.5 -5t78 -5.5q49 -4 88.5 -6.5t65.5 -4.5q2 0 3.5 -0.5t3.5 -0.5q14 -1 47 -1.5t68 -0.5v-78 q-67 -14 -104.5 -25.5t-37.5 -18.5v-1265q0 -5 35 -17t107 -26v-78h-634z" />
<glyph unicode="&#xb7;" horiz-adv-x="300" d="M267 721q0 -31 -10 -59t-28 -49t-42.5 -33t-52.5 -12q-54 0 -77.5 29.5t-23.5 83.5q0 32 10.5 59.5t28.5 48t42 32.5t51 12q102 0 102 -112z" />
<glyph unicode="&#xc1;" horiz-adv-x="1219" d="M443 559h283l-36.5 107l-34.5 101.5l-35 102.5l-38 110zM752 0v80q72 5 102 14.5t22 27.5l-106 310h-369l-52 -155l-52 -155q-2 -16 33 -25.5t110 -17.5v-79h-443v78q69 12 107.5 23.5t46.5 32.5v-1l182 551l182 551q12 13 29.5 26t37 25l39 23l35.5 20l417 -1195 q4 -11 12 -19.5t23 -15.5t37.5 -12t55.5 -8v-79h-449zM474 1337q-25 10 -34.5 19.5t-21.5 26.5q-2 2 -7.5 11.5t-7.5 11.5l399 328q5 -2 17 -9l19 -11q25 -14 54.5 -32.5t46.5 -34.5l12 -63z" />
<glyph unicode="&#xc9;" horiz-adv-x="1016" d="M962 269q-9 -94 -22.5 -164.5t-23.5 -104.5h-873v78q66 14 103.5 25t37.5 18v1022q0 6 -35.5 18t-105.5 26v78h810l46 -34q-2 -28 -7 -62.5t-11 -68.5t-13.5 -65t-14.5 -52h-77q-2 45 -7 75t-12.5 47.5t-18 25t-23.5 7.5h-337v-384h384l40 -44q-10 -17 -24 -36t-29.5 -37 t-31.5 -33.5t-30 -25.5q-16 16 -33.5 27.5t-40 18.5t-51 10t-66.5 3h-118v-468q0 -10 6.5 -18t25.5 -13.5t54 -8.5t93 -3h126q41 0 70 5t52 22.5t42.5 52t40.5 94.5zM377 1337q-25 10 -34.5 19.5t-21.5 26.5q-2 2 -7.5 11.5t-7.5 11.5l399 328q5 -2 17 -9l19 -11 q25 -14 54.5 -32.5t46.5 -34.5l12 -63z" />
<glyph unicode="&#xcd;" horiz-adv-x="610" d="M57 0v78q66 14 103.5 25t37.5 18v1022q0 6 -35.5 18t-105.5 26v78h476v-78q-66 -14 -103.5 -25.5t-37.5 -18.5v-1022q0 -6 35.5 -17.5t105.5 -25.5v-78h-476zM170 1337q-25 10 -34.5 19.5t-21.5 26.5q-2 2 -7.5 11.5t-7.5 11.5l399 328q5 -2 17 -9l19 -11 q25 -14 54.5 -32.5t46.5 -34.5l12 -63z" />
<glyph unicode="&#xd3;" horiz-adv-x="1229" d="M953 631q0 97 -25 189.5t-71 164.5t-110.5 115.5t-142.5 43.5q-82 0 -146.5 -35.5t-109.5 -100.5t-69 -158t-24 -207q0 -105 28 -199t75.5 -164.5t111 -112t134.5 -41.5q76 0 140 32.5t110.5 96.5t72.5 158t26 218zM1143 649q0 -91 -20.5 -176.5t-58 -160.5t-90 -138 t-115.5 -108t-135 -70t-148 -25q-81 0 -150.5 24.5t-126 68t-100.5 103.5t-73.5 131.5t-45 152t-15.5 164.5q0 91 20 176.5t56.5 161t88.5 138.5t115 108t135.5 70t151.5 25q84 0 154 -25t127 -69.5t100 -105.5t72 -132.5t43.5 -151t14.5 -161.5zM490 1337 q-25 10 -34.5 19.5t-21.5 26.5q-2 2 -7.5 11.5t-7.5 11.5l399 328q5 -2 17 -9l19 -11q25 -14 54.5 -32.5t46.5 -34.5l12 -63z" />
<glyph unicode="&#xda;" horiz-adv-x="1339" d="M1278 1187q-67 -14 -104 -25.5t-37 -18.5v-614q0 -132 -32.5 -235.5t-93.5 -175.5t-148 -109.5t-197 -37.5q-105 0 -192.5 29t-151 88t-99 149.5t-35.5 213.5v692q0 6 -35 18t-106 26v78h477v-78q-67 -14 -104 -25.5t-37 -18.5v-643q0 -89 21 -159.5t61.5 -119 t100.5 -74.5t138 -26q64 0 114 32t84 83.5t51.5 117.5t17.5 135v654q0 6 -35 18t-106 26v78h448v-78zM552 1337q-25 10 -34.5 19.5t-21.5 26.5q-2 2 -7.5 11.5t-7.5 11.5l399 328q5 -2 17 -9l19 -11q25 -14 54.5 -32.5t46.5 -34.5l12 -63z" />
<glyph unicode="&#xe1;" horiz-adv-x="940" d="M356 136q54 0 115 28t129 85v222l-46 -10t-46 -9q-62 -11 -107 -31.5t-74 -48t-43 -61t-14 -69.5q0 -33 9.5 -53.5t23 -32t28.5 -16t25 -4.5zM937 92q-93 -64 -152 -92.5t-88 -28.5q-35 0 -60.5 38.5t-33.5 106.5q-85 -76 -164.5 -110.5t-139.5 -34.5q-38 0 -78.5 12.5 t-73.5 40.5t-54 71.5t-21 104.5t22 116.5t65 101t107.5 79t149.5 50.5l184 37v118q0 29 -6.5 54t-23 43t-44 28t-69.5 10q-28 -1 -54 -9t-46 -22.5t-31.5 -35t-8.5 -44.5q1 -8 -10.5 -17t-30.5 -18t-42.5 -17t-46 -13.5t-41.5 -7.5t-29 0l-19 54q24 52 73 100t110.5 85 t129.5 59t132 22q118 0 180 -61t62 -171v-548q0 -31 5.5 -44t14.5 -13q12 0 35 6t72 27zM448 1017q-27 4 -49 16.5t-39 26.5l242 428q13 -1 36 -4l47.5 -6.5t47 -8t35.5 -7.5l32 -57z" />
<glyph unicode="&#xe6;" horiz-adv-x="1417" d="M987 833q-19 0 -44.5 -8.5t-51.5 -33t-49 -69.5t-36 -119h315q18 0 18 16q0 43 -8.5 81.5t-27 68t-47 47t-69.5 17.5zM362 136q24 0 54 7.5t63.5 23.5t69 39.5t69.5 55.5q-6 28 -9 55.5t-3 57.5v96q-25 -2 -43 -5t-26 -5q-139 -34 -201 -89.5t-62 -129.5q0 -33 9.5 -53.5 t23.5 -32t29 -16t26 -4.5zM1334 548q-23 -22 -53.5 -40.5t-65.5 -31.5h-423q-1 -5 -0.5 -7.5t0.5 -7.5v-35q0 -53 14 -104.5t40.5 -92.5t65.5 -66t88 -25q29 0 55 3.5t57 17t69.5 40.5t91.5 73q27 -14 41.5 -33t21.5 -31q-63 -75 -115 -121.5t-99 -72t-91.5 -34.5t-92.5 -9 q-86 0 -161.5 49.5t-122.5 138.5q-42 -47 -90.5 -82t-96.5 -58.5t-90.5 -35.5t-72.5 -12q-38 0 -78 12.5t-73 40.5t-54 71.5t-21 104.5q0 123 94.5 221t292.5 155q30 8 67 13.5t74 8.5v65q0 34 -5 65.5t-19.5 55.5t-40.5 38.5t-67 14.5q-24 0 -51 -9.5t-50.5 -26.5 t-39 -39.5t-15.5 -48.5q0 -7 2 -14t5 -15t-8.5 -17.5t-30.5 -18.5t-43 -17.5t-47 -14.5t-42 -8t-29 0l-18 50q5 41 29 80t60.5 74t81.5 64.5t91.5 51t91 33.5t79.5 12q84 0 135.5 -30.5t79.5 -92.5q32 34 66 57.5t68 38t66 21t60 6.5q95 0 157.5 -38.5t99.5 -98.5t52 -133 t15 -142z" />
<glyph unicode="&#xe9;" horiz-adv-x="946" d="M495 833q-88 0 -147.5 -62t-80.5 -168h392q11 0 14 3.5t3 12.5q0 24 -7 60.5t-26.5 70.5t-55 58.5t-92.5 24.5zM870 549q-20 -23 -51.5 -41t-65.5 -31l-497 -3q3 -66 23 -126.5t54.5 -107t83 -74.5t108.5 -28q29 0 56.5 3.5t60 17t73.5 40.5t97 73q26 -14 40.5 -33 t22.5 -32q-70 -76 -123.5 -122.5t-99.5 -72t-90 -33.5t-97 -8q-78 0 -149.5 33.5t-126 95t-86.5 148.5t-32 194q0 68 15 133.5t44 124t70.5 108t94.5 85.5q22 15 50 29.5t58.5 25.5t61 18t58.5 7q67 0 119.5 -18.5t91.5 -50t66 -73t43.5 -87t24 -93t7.5 -90.5zM478 1017 q-27 4 -49 16.5t-39 26.5l242 428q13 -1 36 -4l47.5 -6.5t47 -8t35.5 -7.5l32 -57z" />
<glyph unicode="&#xed;" horiz-adv-x="555" d="M56 0v78q67 14 102 25t35 18v550q0 44 -2 71t-14.5 42.5t-40.5 22.5t-80 12v73q34 7 70.5 16t71 19.5t66.5 22t57 23.5h56v-852q0 -6 32.5 -17.5t104.5 -25.5v-78h-458zM253 1017q-27 4 -49 16.5t-39 26.5l242 428q13 -1 36 -4l47.5 -6.5t47 -8t35.5 -7.5l32 -57z" />
<glyph unicode="&#xf3;" horiz-adv-x="1030" d="M770 462q0 73 -23.5 139t-61.5 116.5t-85 80t-94 29.5q-69 0 -116 -26.5t-76 -73.5t-41.5 -110t-12.5 -137q0 -73 25.5 -139t64.5 -116t85.5 -79t88.5 -29q64 0 110.5 24.5t76.5 69.5t44.5 108.5t14.5 142.5zM958 491q0 -67 -17 -132t-47.5 -122.5t-73 -106.5t-94 -84 t-109.5 -55t-120 -20q-96 0 -174.5 36.5t-134 100.5t-86 152t-30.5 191q0 67 16.5 131.5t46.5 122.5t72.5 107.5t94 85t110.5 55.5t122 20q96 0 174.5 -36.5t134 -101t85.5 -152.5t30 -192zM503 1017q-27 4 -49 16.5t-39 26.5l242 428q13 -1 36 -4l47.5 -6.5t47 -8 t35.5 -7.5l32 -57z" />
<glyph unicode="&#xfa;" horiz-adv-x="1085" d="M1077 90l-75.5 -47t-67 -38t-54.5 -25t-38 -9q-38 0 -63 42.5t-35 125.5q-56 -53 -103.5 -86t-88 -51t-75 -24.5t-65.5 -6.5q-49 0 -94.5 13.5t-80.5 49t-55.5 98t-20.5 159.5v420q0 40 -3 62.5t-15 34t-37 16t-70 9.5v74q41 4 75 10.5t66 15t63.5 19.5t65.5 25l40 -57 v-576q0 -63 9 -104.5t25.5 -67t40.5 -36t54 -10.5q58 0 121.5 35.5t143.5 120.5v429q0 37 -4.5 60t-19 36t-41 18t-71.5 7v75q84 11 152.5 30t126.5 39l42 -54v-655q0 -56 2.5 -90t10.5 -40q8 -5 36.5 2t85.5 31zM513 1017q-27 4 -49 16.5t-39 26.5l242 428q13 -1 36 -4 l47.5 -6.5t47 -8t35.5 -7.5l32 -57z" />
<glyph unicode="&#x104;" horiz-adv-x="1219" d="M443 559h283l-36.5 107l-34.5 101.5l-35 102.5l-38 110zM752 0v80q72 5 102 14.5t22 27.5l-106 310h-369l-52 -155l-52 -155q-2 -16 33 -25.5t110 -17.5v-79h-443v78q69 12 107.5 23.5t46.5 32.5v-1l182 551l182 551q12 13 29.5 26t37 25l39 23l35.5 20l417 -1195 q4 -11 12 -19.5t23 -15.5t37.5 -12t55.5 -8v-79h-449zM1118 -272q-23 -30 -54 -58.5t-63.5 -51t-65 -36.5t-58.5 -14q-32 0 -62.5 6.5t-54.5 24.5t-39 49t-15 81q0 93 80.5 181t237.5 173l87 -36q-78 -48 -125 -90.5t-73 -78.5t-34.5 -65t-8.5 -50q0 -26 17.5 -38.5 t46.5 -12.5q22 0 57.5 19.5t82.5 63.5z" />
<glyph unicode="&#x105;" horiz-adv-x="940" d="M356 136q54 0 115 28t129 85v222l-46 -10t-46 -9q-62 -11 -107 -31.5t-74 -48t-43 -61t-14 -69.5q0 -33 9.5 -53.5t23 -32t28.5 -16t25 -4.5zM937 92q-93 -64 -152 -92.5t-88 -28.5q-35 0 -60.5 38.5t-33.5 106.5q-85 -76 -164.5 -110.5t-139.5 -34.5q-38 0 -78.5 12.5 t-73.5 40.5t-54 71.5t-21 104.5t22 116.5t65 101t107.5 79t149.5 50.5l184 37v118q0 29 -6.5 54t-23 43t-44 28t-69.5 10q-28 -1 -54 -9t-46 -22.5t-31.5 -35t-8.5 -44.5q1 -8 -10.5 -17t-30.5 -18t-42.5 -17t-46 -13.5t-41.5 -7.5t-29 0l-19 54q24 52 73 100t110.5 85 t129.5 59t132 22q118 0 180 -61t62 -171v-548q0 -31 5.5 -44t14.5 -13q12 0 35 6t72 27zM873 -272q-23 -30 -54 -58.5t-63.5 -51t-65 -36.5t-58.5 -14q-32 0 -62.5 6.5t-54.5 24.5t-39 49t-15 81q0 93 80.5 181t237.5 173l87 -36q-78 -48 -125 -90.5t-73 -78.5t-34.5 -65 t-8.5 -50q0 -26 17.5 -38.5t46.5 -12.5q22 0 57.5 19.5t82.5 63.5z" />
<glyph unicode="&#x10c;" horiz-adv-x="1098" d="M1020 211q-64 -68 -123 -114t-114 -74t-107.5 -40t-105.5 -12q-62 0 -124 19t-118.5 55t-105 89t-84 122t-55.5 153t-20 181q0 160 49 290t132 222t194 142t234 50q110 0 192 -29.5t135 -71.5h-1q11 -9 3 -29.5t-24.5 -44t-37 -46.5t-34.5 -37l-50 9q-49 46 -114.5 74.5 t-149.5 28.5q-48 0 -106.5 -26.5t-110 -88t-86.5 -161.5t-35 -246q0 -125 35.5 -218.5t92 -156t125 -94t134.5 -31.5q50 0 133.5 37t192.5 128q20 -9 30 -20.5t17 -22.5q3 -5 6 -9t0 -1zM675 1362h-121l-273 317q10 16 17.5 26t14.5 17t15.5 13.5t21.5 14.5l267 -205 l131 102l130 102q14 -7 23 -13.5t15.5 -14t13 -18l15.5 -25.5z" />
<glyph unicode="&#x10d;" horiz-adv-x="895" d="M856 205q-69 -82 -121 -128.5t-96 -70t-85 -29.5t-89 -6q-75 0 -146 33t-126 95t-88.5 151t-33.5 201q0 109 40 204t109.5 165.5t163.5 111.5t203 41q34 0 70 -6t69 -17.5t61.5 -27.5t46.5 -36q3 -15 -3 -41t-16.5 -54t-22.5 -54t-23 -42l-59 15q-7 17 -24 37.5t-43 38 t-62 29.5t-82 12q-47 0 -91 -21.5t-77.5 -64.5t-54 -108t-20.5 -151q0 -79 23 -142.5t61.5 -108.5t89 -69t105.5 -24q26 0 48 2.5t49.5 15t65.5 39t95 75.5zM552 1042h-123l-272 367q10 15 17 24t14 16t16 14t23 16l265 -243l130 122l130 121q15 -8 24.5 -15t16.5 -14.5 t13 -17.5l15 -24z" />
<glyph unicode="&#x12e;" horiz-adv-x="610" d="M57 0v78q66 14 103.5 25t37.5 18v1022q0 6 -35.5 18t-105.5 26v78h476v-78q-66 -14 -103.5 -25.5t-37.5 -18.5v-1022q0 -6 35.5 -17.5t105.5 -25.5v-78h-476zM503 -272q-23 -30 -54 -58.5t-63.5 -51t-65 -36.5t-58.5 -14q-32 0 -62.5 6.5t-54.5 24.5t-39 49t-15 81 q0 93 80.5 181t237.5 173l87 -36q-78 -48 -125 -90.5t-73 -78.5t-34.5 -65t-8.5 -50q0 -26 17.5 -38.5t46.5 -12.5q22 0 57.5 19.5t82.5 63.5z" />
<glyph unicode="&#x12f;" horiz-adv-x="555" d="M407 1246q0 -31 -10 -59t-28 -49t-42.5 -33t-52.5 -12q-54 0 -77.5 29.5t-23.5 83.5q0 32 10.5 59.5t28 48t41.5 32.5t51 12q103 0 103 -112zM56 0v78q67 14 102 25t35 18v550q0 44 -2 71t-14.5 42.5t-40.5 22.5t-80 12v73q34 7 70.5 16t71 19.5t66.5 22t57 23.5h56v-852 q0 -6 32.5 -17.5t104.5 -25.5v-78h-458zM493 -272q-23 -30 -54 -58.5t-63.5 -51t-65 -36.5t-58.5 -14q-32 0 -62.5 6.5t-54.5 24.5t-39 49t-15 81q0 93 80.5 181t237.5 173l87 -36q-78 -48 -125 -90.5t-73 -78.5t-34.5 -65t-8.5 -50q0 -26 17.5 -38.5t46.5 -12.5 q22 0 57.5 19.5t82.5 63.5z" />
<glyph unicode="&#x131;" horiz-adv-x="555" d="M56 0v78q67 14 102 25t35 18v550q0 44 -2 71t-14.5 42.5t-40.5 22.5t-80 12v73q34 7 70.5 16t71 19.5t66.5 22t57 23.5h56v-852q0 -6 32.5 -17.5t104.5 -25.5v-78h-458z" />
<glyph unicode="&#x147;" horiz-adv-x="1329" d="M47 0v79q73 8 107 21t34 21v1008q-29 24 -64.5 37.5t-76.5 20.5v78h226q18 0 29.5 -2.5t22.5 -11.5t23.5 -25.5l33.5 -44.5l604 -834v796q0 7 -31.5 19.5t-109.5 23.5v79h438v-79q-71 -10 -106 -22.5t-35 -20.5v-1175q-66 8 -101.5 24.5t-49.5 36.5v-1l-165 228.5 l-158.5 219.5l-158.5 219.5l-165 228.5v-803q0 -7 32.5 -19t108.5 -23v-79h-438zM726 1362h-121l-273 317q10 16 17.5 26t14.5 17t15.5 13.5t21.5 14.5l267 -205l131 102l130 102q14 -7 23 -13.5t15.5 -14t13 -18l15.5 -25.5z" />
<glyph unicode="&#x148;" horiz-adv-x="1130" d="M648 0v76q70 18 103 28.5t33 16.5v514q0 53 -5.5 86.5t-18.5 52.5t-32.5 26t-48.5 7q-27 0 -62 -13.5t-74.5 -44.5t-83 -80.5t-88.5 -120.5v-427q0 -7 36 -18t100 -25v-78h-457v76q64 17 100 27.5t36 17.5v590q0 32 -3 51t-16 29.5t-40.5 16t-76.5 11.5v73 q75 13 136.5 34.5t120.5 50.5l49 -50l9 -192q44 57 93.5 101t99 74.5t95.5 46.5t82 16q45 0 87.5 -14t75 -42.5t52 -72.5t19.5 -104v-619q0 -6 30 -15.5t106 -29.5v-76h-457zM639 1042h-123l-272 367q10 15 17 24t14 16t16 14t23 16l265 -243l130 122l130 121 q15 -8 24.5 -15t16.5 -14.5t13 -17.5l15 -24z" />
<glyph unicode="&#x14a;" horiz-adv-x="1235" d="M1129 289q0 -102 -22 -188.5t-58 -157t-82.5 -125.5t-96.5 -94q-28 -21 -63.5 -38t-74.5 -29.5t-78.5 -19.5t-75.5 -7q-45 0 -91.5 12.5t-84 31.5t-61.5 41t-24 40q0 10 18 29.5t43.5 39.5t52 37.5t43.5 24.5q27 -27 57 -47t60 -32.5t58 -18.5t52 -6q42 0 84 28 t75.5 84.5t54 142t20.5 200.5v631q0 74 -10.5 122.5t-29.5 77t-45.5 40.5t-58.5 12q-37 0 -78.5 -16t-91.5 -58.5t-109.5 -116t-131.5 -188.5v-620q0 -6 35 -17.5t107 -25.5v-78h-478v78q67 14 104.5 25t37.5 18v900q0 33 -3 53.5t-16 33t-40.5 19t-76.5 10.5v76 q73 14 148 35t132 50l50 -50v-267q71 92 134.5 152t122.5 96t113.5 50.5t105.5 14.5q45 0 93.5 -13.5t88.5 -49t65.5 -97.5t25.5 -160v-685z" />
<glyph unicode="&#x14b;" horiz-adv-x="1120" d="M968 105q0 -118 -19 -198.5t-49.5 -136t-69.5 -92.5t-79 -70v1q-27 -23 -62 -40.5t-70 -29.5t-66 -18.5t-51 -6.5q-36 0 -78 11.5t-78 29t-60.5 37.5t-24.5 37q0 11 17 30t41 39t49.5 37.5t41.5 26.5q30 -27 60 -45t56.5 -28.5t48.5 -15t35 -4.5q24 0 54.5 17t56.5 60.5 t44 118t18 189.5v581q0 53 -5.5 86.5t-18.5 52t-33 25.5t-49 7q-28 0 -63 -13.5t-74.5 -43.5t-83 -79t-88.5 -121v-428q0 -7 36.5 -18t100.5 -25v-78h-457v76q64 17 100 27.5t36 17.5v590q0 32 -3 51t-16 29.5t-40.5 16t-76.5 11.5v74q75 13 136.5 34.5t120.5 50.5l49 -50 l8 -193q44 57 93.5 101t99 74.5t95.5 46.5t83 16q45 0 87.5 -14t75.5 -42.5t52.5 -72.5t19.5 -104v-635z" />
<glyph unicode="&#x160;" horiz-adv-x="975" d="M894 386q0 -45 -12 -93.5t-37 -95t-62.5 -87.5t-87.5 -72t-113.5 -49t-139.5 -18q-33 0 -72.5 6.5t-81 19.5t-82.5 31t-76 41h1q-11 6 -17 39.5t-6 78.5q0 41 4 85.5t15 82.5l68 -7q22 -57 54.5 -98.5t71.5 -69t84 -41t91 -13.5q41 0 82 16.5t74 45t53.5 66.5t20.5 81 q0 51 -23 90t-61.5 69.5t-87.5 55.5t-101 48q-59 27 -119 59t-108 74.5t-78 98t-30 130.5q0 49 21.5 107t70 108.5t126 84.5t189.5 34q45 0 90.5 -7.5t86 -20.5t74 -30.5t53.5 -37.5q9 -10 2.5 -32t-21 -47t-33 -48.5t-32.5 -36.5l-51 9q-27 32 -56 53.5t-58 34t-57.5 18 t-54.5 5.5q-49 0 -84.5 -14t-58.5 -35.5t-34 -48t-11 -50.5q0 -36 20 -65.5t54 -55t78 -48.5l92 -46l131 -67.5t119 -82t86.5 -108.5t33.5 -147zM561 1362h-121l-273 317q10 16 17.5 26t14.5 17t15.5 13.5t21.5 14.5l267 -205l131 102l130 102q14 -7 23 -13.5t15.5 -14 t13 -18l15.5 -25.5z" />
<glyph unicode="&#x161;" horiz-adv-x="791" d="M711 295q0 -73 -20.5 -125.5t-53 -88.5t-73 -58t-80 -33.5t-73.5 -15t-54 -3.5q-24 0 -54.5 4.5t-63.5 14t-67.5 23t-67.5 31.5q-10 8 -15 32.5t-5 54.5q0 22 1.5 47t4.5 50.5t7 48.5t10 41l74 -17q2 -40 20 -75.5t48 -62.5t70.5 -42.5t86.5 -15.5q30 0 56 10t44.5 28 t29 42.5t10.5 54.5t-16 55t-42.5 46t-61 39.5l-71.5 37.5l-19 10.5t-21 10.5q-43 21 -83 46t-71 56t-50 70t-19 89q0 65 26 116t69 86t99 53t115 18q32 0 70 -5.5t75.5 -16t70.5 -25.5t53 -33q8 -8 3.5 -33.5t-15 -55.5t-22.5 -56.5t-19 -36.5l-59 11q-46 69 -92.5 96.5 t-89.5 27.5q-28 0 -50 -9t-37 -23t-23 -31t-8 -34q0 -24 14.5 -44t38.5 -38.5t55.5 -35.5l65.5 -35l30 -15l88.5 -48.5t80 -58.5t58 -76.5t22.5 -102.5zM459 1042h-123l-272 367q10 15 17 24t14 16t16 14t23 16l265 -243l130 122l130 121q15 -8 24.5 -15t16.5 -14.5 t13 -17.5l15 -24z" />
<glyph unicode="&#x172;" horiz-adv-x="1339" d="M1278 1187q-67 -14 -104 -25.5t-37 -18.5v-614q0 -132 -32.5 -235.5t-93.5 -175.5t-148 -109.5t-197 -37.5q-105 0 -192.5 29t-151 88t-99 149.5t-35.5 213.5v692q0 6 -35 18t-106 26v78h477v-78q-67 -14 -104 -25.5t-37 -18.5v-643q0 -89 21 -159.5t61.5 -119 t100.5 -74.5t138 -26q64 0 114 32t84 83.5t51.5 117.5t17.5 135v654q0 6 -35 18t-106 26v78h448v-78zM918 -272q-23 -30 -54 -58.5t-63.5 -51t-65 -36.5t-58.5 -14q-32 0 -62.5 6.5t-54.5 24.5t-39 49t-15 81q0 93 80.5 181t237.5 173l87 -36q-78 -48 -125 -90.5t-73 -78.5 t-34.5 -65t-8.5 -50q0 -26 17.5 -38.5t46.5 -12.5q22 0 57.5 19.5t82.5 63.5z" />
<glyph unicode="&#x173;" horiz-adv-x="1085" d="M1077 90l-75.5 -47t-67 -38t-54.5 -25t-38 -9q-38 0 -63 42.5t-35 125.5q-56 -53 -103.5 -86t-88 -51t-75 -24.5t-65.5 -6.5q-49 0 -94.5 13.5t-80.5 49t-55.5 98t-20.5 159.5v420q0 40 -3 62.5t-15 34t-37 16t-70 9.5v74q41 4 75 10.5t66 15t63.5 19.5t65.5 25l40 -57 v-576q0 -63 9 -104.5t25.5 -67t40.5 -36t54 -10.5q58 0 121.5 35.5t143.5 120.5v429q0 37 -4.5 60t-19 36t-41 18t-71.5 7v75q84 11 152.5 30t126.5 39l42 -54v-655q0 -56 2.5 -90t10.5 -40q8 -5 36.5 2t85.5 31zM1018 -272q-23 -30 -54 -58.5t-63.5 -51t-65 -36.5 t-58.5 -14q-32 0 -62.5 6.5t-54.5 24.5t-39 49t-15 81q0 93 80.5 181t237.5 173l87 -36q-78 -48 -125 -90.5t-73 -78.5t-34.5 -65t-8.5 -50q0 -26 17.5 -38.5t46.5 -12.5q22 0 57.5 19.5t82.5 63.5z" />
<glyph unicode="&#x17d;" horiz-adv-x="1071" d="M999 320q-1 -24 -2.5 -54l-3 -62l-3 -63.5t-2.5 -58.5q-1 -18 -1.5 -43t-1.5 -39h-896l-41 64l679 1064h-410q-13 0 -28.5 -11t-30.5 -34.5t-29.5 -60.5t-25.5 -89l-92 19l32 333q52 -11 86 -15.5t65 -4.5h661l36 -63l-672 -1066h473q16 0 30 9t27.5 32.5t28.5 63 t33 100.5zM616 1362h-121l-273 317q10 16 17.5 26t14.5 17t15.5 13.5t21.5 14.5l267 -205l131 102l130 102q14 -7 23 -13.5t15.5 -14t13 -18l15.5 -25.5z" />
<glyph unicode="&#x17e;" horiz-adv-x="905" d="M838 277q0 -34 -1 -73.5t-2.5 -77.5t-4.5 -71t-6 -55h-724l-36 64l525 753h-299q-13 0 -26 -6t-26 -22.5t-25 -45.5t-22 -76l-83 21l20 276q41 -11 70.5 -15.5t63.5 -4.5h546l31 -63l-527 -755h373q17 0 34 38.5t40 129.5zM542 1042h-123l-272 367q10 15 17 24t14 16 t16 14t23 16l265 -243l130 122l130 121q15 -8 24.5 -15t16.5 -14.5t13 -17.5l15 -24z" />
<glyph unicode="&#x1dd;" horiz-adv-x="930" d="M444 111q99 0 155 65.5t70 194.5h-368q-21 0 -32.5 -18.5t-11.5 -47.5q0 -42 16.5 -77.5t43.5 -61.5t60.5 -40.5t66.5 -14.5zM859 491q0 -57 -11 -112t-31 -106t-47 -96.5t-60 -83.5q-58 -60 -130 -91t-163 -31q-74 0 -139 24.5t-113 67.5t-76 101.5t-28 126.5 q0 42 11 78t31 63l67.5 32.5t70.5 30.5h431q-5 71 -28 128t-59.5 97t-84 61.5t-101.5 21.5q-25 0 -51 -4t-58 -16t-71.5 -34.5t-90.5 -59.5q-21 11 -33 24t-18 22l1 -1q-3 3 -6.5 9.5l-6.5 12.5q65 68 118.5 110t101.5 66t93 32.5t91 8.5q75 0 145 -33t124.5 -95 t87.5 -151.5t33 -202.5z" />
<glyph unicode="&#x1e6;" horiz-adv-x="1194" d="M1041 1192q15 -10 11 -26.5t-18 -35t-33 -37t-36 -33.5v1q-4 -3 -11.5 -10.5l-10.5 -10.5l-48 9q-32 30 -65.5 49t-69.5 30.5t-76 15.5t-86 4q-23 0 -57.5 -10.5t-73 -34.5t-76.5 -63t-69 -95.5t-50 -132.5t-19 -173q0 -130 34.5 -226.5t90.5 -160t126 -95t140 -31.5 q64 0 119 13t100 34v318q0 7 -9 14t-32 15t-62 16.5t-98 18.5v77h488v-76q-56 -14 -79 -31t-23 -34v-314l8 -9q-2 -3 -8 -7v-5h-7q-75 -61 -134 -97.5t-108.5 -56t-93 -25.5t-87.5 -6q-68 0 -135 17t-128.5 50.5t-114.5 84.5t-92 119.5t-61 154.5t-22 189q0 167 53 298 t144 222.5t212.5 139.5t258.5 48q33 0 73.5 -7t82 -20t81 -32.5t72.5 -43.5zM701 1362h-121l-273 317q10 16 17.5 26t14.5 17t15.5 13.5t21.5 14.5l267 -205l131 102l130 102q14 -7 23 -13.5t15.5 -14t13 -18l15.5 -25.5z" />
<glyph unicode="&#x1e7;" horiz-adv-x="999" d="M666 603q0 48 -16 90t-47 73.5t-77 50t-107 18.5q-22 0 -48.5 -11t-49.5 -33t-38.5 -54.5t-15.5 -75.5q0 -48 15 -90.5t45.5 -74.5t77 -50.5t109.5 -18.5q25 0 52 11t49 33.5t36.5 55.5t14.5 76zM516 -4q-37 4 -66.5 8t-55.5 10q-63 -35 -100 -62t-56 -48.5t-24.5 -38.5 t-5.5 -30q0 -37 25.5 -70t69 -57.5t100.5 -39t119 -14.5q61 0 110.5 16t85 44.5t55 67.5t19.5 85q0 23 -12 42.5t-43 35.5t-84.5 29t-136.5 22zM841 643q0 -79 -35 -144.5t-92 -112.5t-129.5 -73.5t-146.5 -26.5q-40 -33 -54 -52t-14 -24q0 -7 11 -15t38 -16.5t71.5 -16.5 t110.5 -16q105 -13 177 -39t116 -59t63.5 -71t19.5 -74q0 -84 -46 -155.5t-119 -123.5t-163.5 -81t-180.5 -29q-71 0 -149.5 15.5t-144 49.5t-108 88t-42.5 130q0 27 8.5 55t34 59.5t71 67.5t120.5 78q-51 25 -69 53t-18 58q0 9 4.5 22t17.5 31t36 40.5t59 50.5 q-90 35 -143 111t-53 182q0 75 33.5 142t89 117.5t126 79.5t145.5 29q58 0 110.5 -16.5t96.5 -45.5q97 9 162.5 29.5t108.5 37.5l33 -53l-8 -22q-11 -25 -23 -47t-35 -48q-32 -5 -63 -9t-66 -6q39 -70 39 -150zM562 1042h-123l-272 367q10 15 17 24t14 16t16 14t23 16 l265 -243l130 122l130 121q15 -8 24.5 -15t16.5 -14.5t13 -17.5l15 -24z" />
<glyph unicode="&#x1f0;" horiz-adv-x="530" d="M347 116q0 -115 -14.5 -195.5t-40.5 -137.5t-61.5 -96t-76.5 -72q-27 -21 -58 -39.5t-61 -32t-57.5 -21.5t-48.5 -8q-33 0 -65.5 9.5t-58 23t-41.5 28.5t-16 25t16.5 29t40 39t48 37.5t41.5 25.5q34 -29 65.5 -38t66.5 -9q24 0 48.5 17t44 59.5t31.5 115.5t12 185v610 q0 44 -2.5 70.5t-15 42t-40 22.5t-78.5 13v73q41 7 72.5 15t58.5 16.5t51 18l49 19.5v-1q7 3 16 6.5t15 6.5h59v-857zM322 1042h-123l-272 367q10 15 17 24t14 16t16 14t23 16l265 -243l130 122l130 121q15 -8 24.5 -15t16.5 -14.5t13 -17.5l15 -24z" />
<glyph unicode="&#x21e;" horiz-adv-x="1339" d="M47 0v78q67 14 104 25t37 18v1022q0 6 -35 18t-106 26v78h477v-78q-67 -14 -104 -25.5t-37 -18.5v-418h554v418q0 6 -35 18t-106 26v78h477v-78q-67 -14 -104 -25.5t-37 -18.5v-1022q0 -6 35 -17.5t106 -25.5v-78h-477v78q67 14 104 25t37 18v477h-554v-477 q0 -6 34.5 -17.5t106.5 -25.5v-78h-477zM721 1332h-121l-273 317q10 16 17.5 26t14.5 17t15.5 13.5t21.5 14.5l267 -205l131 102l130 102q14 -7 23 -13.5t15.5 -14t13 -18l15.5 -25.5z" />
<glyph unicode="&#x21f;" horiz-adv-x="1130" d="M648 0v76q70 18 103 28.5t33 16.5v514q0 53 -6.5 86.5t-19 52.5t-32.5 26t-47 7q-63 0 -145.5 -65t-162.5 -193v-428q0 -7 36 -18t100 -25v-78h-457v76q64 17 100 27.5t36 17.5v1161q0 35 -3.5 54.5t-17.5 30t-41 15.5t-74 11v73q45 9 82 18t68.5 18.5t60 21.5t58.5 27 l52 -48v-758q42 51 91 93t98 72t94.5 46.5t80.5 16.5q45 0 87.5 -14t75 -42.5t52 -72.5t19.5 -104v-619q0 -6 30 -15.5t106 -29.5v-76h-457zM638 1572h-121l-273 317q10 16 17.5 26t14.5 17t15.5 13.5t21.5 14.5l267 -205l131 102l130 102q14 -7 23 -13.5t15.5 -14t13 -18 l15.5 -25.5z" />
<glyph unicode="&#x2bc;" horiz-adv-x="457" d="M387 1309q-5 -72 -53.5 -144.5t-152.5 -138.5l-66 56q46 42 70 81t26 80q2 22 -5 42t-23 35t-42 23.5t-63 8.5l-15 66q9 12 38.5 26t65 26t69 19.5t49.5 5.5q31 -13 51.5 -33.5t32.5 -45t16 -51.5t2 -55v-1z" />
<glyph unicode="&#x301;" horiz-adv-x="0" d="M-575 1017q-27 4 -49 16.5t-39 26.5l242 428q13 -1 36 -4l47.5 -6.5t47 -8t35.5 -7.5l32 -57z" />
<glyph unicode="&#x30c;" horiz-adv-x="0" d="M-452 1042h-123l-272 367q10 15 17 24t14 16t16 14t23 16l265 -243l130 122l130 121q15 -8 24.5 -15t16.5 -14.5t13 -17.5l15 -24z" />
<glyph unicode="&#x328;" horiz-adv-x="0" d="M-306 -272q-23 -30 -54 -58.5t-63.5 -51t-65 -36.5t-58.5 -14q-32 0 -62.5 6.5t-54.5 24.5t-39 49t-15 81q0 93 80.5 181t237.5 173l87 -36q-78 -48 -125 -90.5t-73 -78.5t-34.5 -65t-8.5 -50q0 -26 17.5 -38.5t46.5 -12.5q22 0 57.5 19.5t82.5 63.5z" />
<glyph unicode="&#x2013;" d="M910 555q-7 -26 -16.5 -57.5t-20.5 -54.5h-784l-38 37q7 27 17.5 56.5t21.5 55.5h784z" />
<glyph unicode="&#x2014;" horiz-adv-x="1569" d="M1510 555q-7 -27 -17.5 -58.5t-20.5 -53.5h-1375l-38 37q7 27 17.5 56.5t21.5 55.5h1375z" />
<glyph unicode="&#x2018;" horiz-adv-x="469" d="M400 1038q-7 -9 -24 -20.5t-40 -23.5t-49 -23t-51 -19.5t-46 -12.5t-34 -3q-19 17 -34 34t-25 37t-15 44.5t-5 55.5q0 40 14.5 87t42.5 93.5t68 90t92 76.5l69 -56q-23 -24 -40 -52t-28 -55t-16.5 -52t-5.5 -44q0 -36 24.5 -62.5t80.5 -28.5z" />
<glyph unicode="&#x2019;" horiz-adv-x="469" d="M392 1280q0 -40 -14.5 -87t-42 -94t-67.5 -90.5t-91 -75.5l-72 53q23 25 40.5 53.5t28.5 56t16.5 52.5t5.5 43q0 36 -24.5 63t-78.5 30l-23 66q10 13 42 31t70.5 34.5t75.5 27.5t57 10q37 -35 57 -73.5t20 -99.5z" />
<glyph unicode="&#x201a;" horiz-adv-x="469" d="M392 79q0 -40 -14.5 -87t-42 -94t-67.5 -90.5t-91 -76.5l-72 54q23 24 40.5 52.5t28.5 56t16.5 52.5t5.5 43q0 37 -24.5 64t-78.5 30l-23 66q10 13 42 31t70.5 34.5t75.5 27.5t57 10q18 -18 32.5 -35.5t24.5 -38t15 -45t5 -54.5z" />
<glyph unicode="&#x201c;" horiz-adv-x="893" d="M817 1038q-10 -14 -42.5 -32.5t-71 -34.5t-75 -26.5t-55.5 -8.5q-37 32 -58.5 71t-21.5 100q0 40 14.5 87t42.5 93.5t68.5 90t92.5 76.5l70 -56q-24 -24 -41 -51.5t-28.5 -55t-17 -53t-5.5 -43.5q0 -36 24.5 -62.5t78.5 -28.5zM406 1038q-7 -9 -24 -20.5t-40 -23.5 t-49 -23t-51 -19.5t-46 -12.5t-34 -3q-19 17 -34 34t-25.5 37t-15.5 44.5t-5 55.5q0 40 14.5 87t42.5 93.5t68.5 90t92.5 76.5l69 -56q-23 -24 -40 -52t-28 -55t-16.5 -52t-5.5 -44q0 -36 24.5 -62.5t80.5 -28.5z" />
<glyph unicode="&#x201d;" horiz-adv-x="893" d="M809 1280q0 -40 -14.5 -87t-42.5 -94.5t-68 -91t-91 -75.5l-70 55q23 24 40 52t28.5 56t17 53t5.5 43q0 36 -25.5 63t-79.5 30l-22 65q9 14 41 32t70.5 34.5t76 27.5t56.5 10q19 -17 33.5 -35t24.5 -38.5t15 -45t5 -54.5zM398 1280q0 -40 -14.5 -87t-42.5 -94t-68 -90.5 t-91 -75.5l-72 53q24 25 41 53.5t28.5 56t17 52.5t5.5 43q0 36 -24.5 63t-78.5 30l-23 66q7 9 23.5 20t39.5 23t49 23t51 19.5t46.5 13.5t34.5 4q19 -17 33.5 -35t24.5 -38.5t15 -45t5 -54.5z" />
<glyph unicode="&#x201e;" horiz-adv-x="920" d="M809 79q0 -40 -14.5 -87t-42.5 -94.5t-68 -90.5t-91 -76l-70 55q23 24 40 52t28.5 55.5t17 52.5t5.5 43q0 37 -25.5 64t-79.5 30l-22 65q9 14 41 32t70.5 34.5t76 27.5t56.5 10q19 -18 33.5 -35.5t24.5 -38t15 -45t5 -54.5zM398 79q0 -40 -14.5 -87t-42.5 -94t-68 -90.5 t-91 -76.5l-72 54q24 24 41 52.5t28.5 56t17 52.5t5.5 43q0 37 -24.5 64t-78.5 30l-23 66q7 9 23.5 20t39.5 23t49 23t51 19.5t46.5 13.5t34.5 4q19 -18 33.5 -35.5t24.5 -38t15 -45t5 -54.5z" />
<glyph unicode="&#x2020;" horiz-adv-x="977" d="M917 1065q-15 -36 -39.5 -83.5t-53.5 -93.5q-70 24 -134 35.5t-138 16.5q2 -61 11.5 -129.5t25.5 -130.5q-20 -113 -27.5 -219.5t-9.5 -197.5q-1 -55 4 -122.5l10 -130.5q-25 -20 -46 -27.5t-43 -14.5q-5 -2 -14 -4.5t-13 -4.5l-45 33q6 70 11 141.5t4 129.5 q-2 94 -9.5 199.5t-27.5 217.5q17 66 25 132t11 128q-82 -4 -159 -17t-164 -34l-36 63q15 37 39.5 84.5t53.5 92.5q67 -24 130.5 -35t135.5 -16q-3 83 -15.5 158.5t-38.5 150.5q46 29 93.5 53.5t83.5 40.5l64 -36q-23 -94 -35 -186t-17 -180q83 5 160.5 16.5t166.5 32.5z " />
<glyph unicode="&#x2021;" horiz-adv-x="977" d="M917 1065q-16 -38 -40 -85.5t-52 -91.5q-71 21 -135 34t-136 18q2 -55 10.5 -106.5t25.5 -113.5q-16 -58 -23.5 -112.5t-10.5 -107.5q83 5 159.5 17t165.5 34l36 -64q-16 -37 -39.5 -84t-52.5 -92q-66 18 -132.5 31.5t-138.5 18.5q2 -86 15 -159t40 -149 q-46 -29 -93.5 -53.5t-83.5 -40.5l-64 36q24 96 37 184.5t16 181.5q-82 -5 -159.5 -17.5t-165.5 -32.5l-36 64q16 38 40 85.5t53 92.5q70 -26 133.5 -37t133.5 -16q-3 53 -11 107.5t-23 112.5q15 60 23 113t11 107q-82 -6 -158.5 -18.5t-165.5 -32.5l-36 63q16 38 40 85.5 t53 92.5q70 -26 133.5 -36.5t134.5 -15.5q-3 85 -17 160t-37 150q44 28 91.5 52t85.5 41l64 -36q-21 -94 -33.5 -184.5t-18.5 -181.5q83 5 160 15.5t165 33.5z" />
<glyph unicode="&#x2022;" horiz-adv-x="569" d="M512 663q0 -63 -18.5 -115.5t-51.5 -90t-79 -58.5t-102 -21q-51 0 -89.5 18t-64 49.5t-38.5 75t-13 94.5q0 63 19.5 115t53.5 90t80 59t99 21q49 0 87 -17.5t64 -48.5t39.5 -74.5t13.5 -96.5z" />
<glyph unicode="&#x2026;" horiz-adv-x="1370" d="M835 139q0 -37 -12 -70t-32.5 -57t-48.5 -38t-60 -14q-63 0 -89.5 33.5t-26.5 96.5q0 37 12.5 69.5t33.5 57t49 38.5t59 14q57 0 86 -33.5t29 -96.5zM397 139q0 -37 -12 -70t-32.5 -57t-48.5 -38t-60 -14q-63 0 -90 33.5t-27 96.5q0 37 12.5 69.5t33.5 57t49 38.5t60 14 q59 0 87 -33.5t28 -96.5zM1274 139q0 -37 -12.5 -70t-33.5 -57t-49.5 -38t-60.5 -14q-60 0 -88 33.5t-28 96.5q0 37 12.5 69.5t33.5 57t49 38.5t59 14q60 0 89 -33.5t29 -96.5z" />
<glyph unicode="&#x20ac;" d="M635 453h-311q13 -90 40 -152t63.5 -101t80 -56.5t89.5 -17.5q28 0 55.5 8.5t59.5 28t71 51t90 77.5q20 -9 30.5 -20.5t17.5 -22.5q1 -2 1 -3t1 -2.5t4.5 -5l11.5 -11.5q-63 -72 -114.5 -121t-98.5 -79t-95 -42.5t-104 -12.5q-76 0 -143 29t-119.5 88t-87.5 150t-47 215 h-81l-35 41q2 6 6.5 17t6.5 18q2 8 5 18.5t13 33.5h81q0 22 1 44t3 42h-52l-35 41q2 6 6.5 17t6.5 18q3 8 6 18.5t12 33.5h72q23 111 66.5 194t105.5 139t140.5 84t170.5 28q51 0 91 -8t73 -21.5t60.5 -32t53.5 -39.5h-1q11 -9 3 -29t-24.5 -43.5t-37 -46.5t-34.5 -37l-48 8 l-45.5 41t-46 32.5t-54.5 21.5t-72 8q-29 0 -62 -13t-63.5 -46.5t-55.5 -91.5t-38 -148h329l41 -36l-34 -92h-348q-1 -16 -1 -32v-34v-20h313l41 -36z" />
<glyph unicode="&#xe900;" horiz-adv-x="530" d="M347 116q0 -115 -14.5 -195.5t-40.5 -137.5t-61.5 -96t-76.5 -72q-27 -21 -58 -39.5t-61 -32t-57.5 -21.5t-48.5 -8q-33 0 -65.5 9.5t-58 23t-41.5 28.5t-16 25t16.5 29t40 39t48 37.5t41.5 25.5q34 -29 65.5 -38t66.5 -9q24 0 48.5 17t44 59.5t31.5 115.5t12 185v610 q0 44 -2.5 70.5t-15 42t-40 22.5t-78.5 13v73q41 7 72.5 15t58.5 16.5t51 18l49 19.5v-1q7 3 16 6.5t15 6.5h59v-857z" />
<glyph horiz-adv-x="0" d="M-668 1017q-25 10 -34.5 19.5t-21.5 26.5q-2 2 -7.5 11.5t-7.5 11.5l399 328q5 -2 17 -9l19 -11q25 -14 54.5 -32.5t46.5 -34.5l12 -63z" />
<glyph horiz-adv-x="0" d="M-453 1042h-121l-273 317q10 16 17.5 26t14.5 17t15.5 13.5t21.5 14.5l267 -205l131 102l130 102q14 -7 23 -13.5t15.5 -14t13 -18l15.5 -25.5z" />
</font>
</defs>
</svg>
