<?xml version="1.0" standalone="no"?>
<!DOCTYPE svg PUBLIC "-//W3C//DTD SVG 1.1//EN" "http://www.w3.org/Graphics/SVG/1.1/DTD/svg11.dtd" >
<svg xmlns="http://www.w3.org/2000/svg">
<metadata>
This is a custom SVG webfont generated by Font Squirrel.
Designer    : Annie Olsen  Victor Gaultney
Foundry     : SIL International Lakota Language Consortium
Foundry URL : httpwwwlakhotaorg
</metadata>
<defs>
<font id="webfonteDXQDn29" horiz-adv-x="1200" >
<font-face units-per-em="2048" ascent="1638" descent="-410" />
<missing-glyph horiz-adv-x="550" />
<glyph unicode=" "  horiz-adv-x="550" />
<glyph unicode="&#x09;" horiz-adv-x="550" />
<glyph unicode="&#xa0;" horiz-adv-x="550" />
<glyph unicode="!" horiz-adv-x="764" d="M280 440q-3 109 -5 228.5t-6 252.5t-12 279.5t-22 309.5h255q-15 -163 -23 -309.5t-12 -279.5t-6 -252.5l-4 -228.5h-165zM225 110q0 28 10.5 52.5t29 43t43 29t52.5 10.5t52.5 -10.5t43 -29t29 -43t10.5 -52.5t-10.5 -52.5t-29 -43t-43 -29t-52.5 -10.5t-52.5 10.5 t-43 29t-29 43t-10.5 52.5z" />
<glyph unicode="&#x22;" horiz-adv-x="1025" d="M280 920l-4 109.5t-6 121.5t-11 141t-19 168h205q-11 -92 -18 -168t-11 -141t-6.5 -121.5t-4.5 -109.5h-125zM620 920l-4 109.5t-6 121.5t-11 141t-19 168h205q-11 -92 -18 -168t-11 -141t-6.5 -121.5t-4.5 -109.5h-125z" />
<glyph unicode="#" d="M84 1110h303l100 350h150l-100 -350h275l100 350h150l-100 -350h213v-150h-256l-67 -235h264v-150h-307l-107 -375h-150l107 375h-275l-107 -375h-150l107 375h-209v150h252l67 235h-260v150zM427 725h275l67 235h-275z" />
<glyph unicode="$" d="M949 1127q-78 43 -140 66t-126 31v-433q88 -27 155.5 -61.5t113.5 -80.5t70 -104t24 -131q0 -81 -28 -149t-76.5 -120.5t-115 -87.5t-143.5 -49v-228h-130v220q-62 2 -120 12t-109 26.5t-94.5 38t-76.5 47.5l42 189q84 -74 174 -110t184 -41v487q-8 2 -13 4 q-108 32 -176 71t-106.5 84.5t-53 97.5t-14.5 111q0 54 20.5 114t65 112.5t113 91.5t164.5 50v215h130v-213q83 -5 154.5 -24.5t148.5 -56.5zM871 396q0 29 -7 55.5t-27.5 52t-57 50t-96.5 49.5v-429q40 11 74 30.5t59.5 47.5t40 64t14.5 80zM365 1030q0 -32 7 -58t27 -49.5 t57 -45t97 -43.5v388q-43 -8 -77.5 -27t-59 -44.5t-38 -56.5t-13.5 -64z" />
<glyph unicode="%" horiz-adv-x="1526" d="M1261 366q0 75 -7.5 125.5t-23.5 81.5t-41 44t-59 13q-33 0 -57 -13t-40 -42.5t-24 -77t-8 -116.5q0 -75 7.5 -126t23.5 -82t40.5 -44.5t57.5 -13.5q32 0 56.5 13.5t41 43t25 77.5t8.5 117zM1426 379q0 -111 -22.5 -188t-62 -125t-94.5 -69.5t-121 -21.5t-119.5 21.5 t-91.5 69t-58.5 122t-20.5 180.5t22 182t62 125t95 72t120 23q66 0 119.5 -22.5t91.5 -70.5t59 -122t21 -176zM1239 1480l-780 -1505h-168l782 1505h166zM525 1076q0 75 -7.5 125.5t-23.5 81.5t-41 44t-59 13q-33 0 -57 -13t-40 -42.5t-24 -77t-8 -116.5q0 -75 7.5 -126 t23.5 -82t40.5 -44.5t57.5 -13.5q32 0 56.5 13.5t41 43t25 77.5t8.5 117zM690 1089q0 -111 -22.5 -188t-62 -125t-94.5 -69.5t-121 -21.5t-119.5 21.5t-91.5 69t-58.5 122t-20.5 180.5t22 182t62 125t95 72t120 23q66 0 119.5 -22.5t91.5 -70.5t59 -122t21 -176z" />
<glyph unicode="&#x26;" horiz-adv-x="1222" d="M490 1485q57 0 111 -19t96 -55.5t67.5 -89.5t25.5 -121q0 -50 -26 -104.5t-70 -112.5t-103 -118t-126 -120q-50 -45 -89 -87t-66 -86.5t-41 -93.5t-14 -108q0 -44 12.5 -83.5t37.5 -70t63.5 -48.5t89.5 -18q44 0 94.5 19.5t103 52.5t103 75.5t93 89.5t75 94t48.5 89 l105 -135q-20 -40 -56 -90t-84 -101t-106.5 -99.5t-123.5 -86t-133.5 -60.5t-136.5 -23q-73 0 -137.5 28.5t-113 80.5t-76.5 125t-28 161q0 74 20.5 137t56 119.5t84 108.5t104.5 105l117 112t88 97t55.5 84t19.5 72t-13 60t-34.5 46t-49.5 29t-58 10q-29 0 -58.5 -8.5 t-53 -27t-38.5 -47t-15 -67.5q0 -31 31.5 -84t81 -121l110 -148.5t117.5 -166.5q95 -144 175.5 -251.5t146.5 -182t116.5 -118t86.5 -58.5l-34 -28.5t-41.5 -31t-41.5 -25t-33 -10.5q-20 0 -62.5 41t-105 118.5l-144 187.5l-178.5 248l-132.5 180t-122.5 167.5t-90 147.5 t-35 120q0 72 30 128t78 94.5t107.5 58t119.5 19.5z" />
<glyph unicode="'" horiz-adv-x="605" d="M240 920l-4 109.5t-6 121.5t-11 141t-19 168h205q-11 -92 -18 -168t-11 -141t-6.5 -121.5t-4.5 -109.5h-125z" />
<glyph unicode="(" horiz-adv-x="795" d="M115 625q0 164 31.5 315.5t89 282.5t139 237t180.5 180l75 -155q-88 -77 -150 -170.5t-101 -202.5t-56.5 -231t-17.5 -256q0 -130 17.5 -249.5t56.5 -229.5t101 -212.5t150 -198.5l-95 -145q-206 214 -313 472t-107 563z" />
<glyph unicode=")" horiz-adv-x="795" d="M680 625q0 -305 -107 -563t-313 -472l-95 145q84 96 145.5 198.5t101.5 212.5t59 229.5t19 249.5q0 126 -19 247.5t-59 232t-101.5 207t-145.5 173.5l75 155q99 -74 180.5 -180t139 -237t89 -282.5t31.5 -315.5z" />
<glyph unicode="*" horiz-adv-x="1028" d="M560 1600q-5 -50 -8.5 -91t-6 -76.5t-4 -67.5t-1.5 -65l55 36.5l56 40l62 46.5l72 57l70 -125l-83 -39l-69 -34l-61 -31.5l-57 -30.5q29 -15 59 -29t63 -28t72 -29l86 -34l-75 -125l-74.5 52l-63.5 42.5l-57 36.5l-55 34q1 -33 3.5 -65.5t5.5 -68t8 -76t13 -90.5h-140 l7.5 91t6 77t4 68t2.5 64q-27 -17 -54 -36l-56.5 -40.5l-62.5 -47l-72 -56.5l-70 125l82.5 38.5l69.5 33.5l60.5 31.5l57.5 31.5q-29 15 -59 29t-63.5 28l-72 29l-85.5 34l75 125l74.5 -52.5l63.5 -43l57 -36.5l55 -33q-1 33 -4 65t-7.5 67.5t-10.5 76.5l-13 91h145v0z" />
<glyph unicode="+" d="M155 810h370v370h150v-370h370v-150h-370v-375h-150v375h-370v150z" />
<glyph unicode="," horiz-adv-x="650" d="M185 150q5 24 18.5 42.5t32.5 31t41 19.5t43 7q30 0 56.5 -11.5t46 -33t31 -52t11.5 -68.5q0 -92 -43.5 -182t-131.5 -173l-100 40q22 22 45.5 54t43.5 69.5t33 78t13 78.5h-140v100z" />
<glyph unicode="-" horiz-adv-x="860" d="M80 705h700v-150h-700v150z" />
<glyph unicode="." horiz-adv-x="640" d="M185 110q0 28 10.5 52.5t29 43t43 29t52.5 10.5t52.5 -10.5t43 -29t29 -43t10.5 -52.5t-10.5 -52.5t-29 -43t-43 -29t-52.5 -10.5t-52.5 10.5t-43 29t-29 43t-10.5 52.5z" />
<glyph unicode="/" horiz-adv-x="1000" d="M805 1570l-475 -1685l-135 30l469 1685z" />
<glyph unicode="0" d="M910 715q0 165 -20 279.5t-59 186t-97 103t-134 31.5q-72 0 -129.5 -31.5t-97.5 -100.5t-61.5 -177t-21.5 -261q0 -165 20.5 -279.5t60 -185.5t97.5 -103t132 -32q72 0 129.5 32t97.5 100.5t61.5 176.5t21.5 261zM1110 740q0 -221 -40.5 -368t-110.5 -235.5t-165 -125 t-204 -36.5q-108 0 -200 37t-158.5 123.5t-104 229.5t-37.5 355q0 211 40.5 357t111 236.5t165.5 131t203 40.5q109 0 200.5 -39.5t158 -128t104 -230.5t37.5 -347z" />
<glyph unicode="1" d="M505 1260l-300 -172l-25 180l345 212h170v-1310h315v-170h-820v170h315v1090z" />
<glyph unicode="2" d="M1080 0h-960v170q68 49 145.5 113.5t154 138.5t147 154.5t124.5 161.5t86.5 159.5t32.5 147.5q0 70 -24.5 119.5t-64.5 81t-91 45.5t-105 14q-46 0 -95 -13.5t-95.5 -38.5t-89 -59t-75.5 -74l-45 170q30 42 78 77.5t106.5 62t123 41t127.5 14.5q90 0 171.5 -29.5 t143.5 -84t98.5 -132t36.5 -174.5q0 -84 -30.5 -170.5t-81.5 -171t-116 -164.5t-134 -152t-136 -133.5l-122 -108.5h255q74 0 140 0.5t121.5 2t99.5 4.5t74 8v-180z" />
<glyph unicode="3" d="M545 -25q-134 0 -245 46t-190 120l25 214q41 -46 88 -84t101 -65t114 -41.5t128 -14.5q57 0 116 17t106 51.5t77 86t30 120.5q0 61 -31.5 111.5t-87.5 87t-132 56.5t-164 20h-70v170h70q75 0 142 21t117.5 55t80.5 78t30 91q0 51 -24 87.5t-61.5 60.5t-84.5 35.5 t-92 11.5q-58 0 -107.5 -8t-94.5 -26t-87 -48t-84 -73l-35 170q30 34 73 63.5t94.5 51t110.5 33.5t122 12q93 0 176.5 -24t146.5 -68.5t100 -108.5t37 -144q0 -69 -30 -126.5t-76.5 -101.5t-103.5 -72.5t-110 -39.5q36 -6 77 -19t82 -34.5t79 -52.5t67.5 -73t47 -95.5 t17.5 -120.5q0 -88 -44.5 -166.5t-119.5 -137t-174 -92.5t-207 -34z" />
<glyph unicode="4" d="M90 395v155l655 930h190v-1480h-190v1230l-482 -680h862v-155h-1035z" />
<glyph unicode="5" d="M196 1460h804v-190q-57 12 -115 16t-121 4h-383v-372q23 3 63.5 6.5t95.5 3.5q108 0 202.5 -33t165 -93t111 -143.5t40.5 -183.5q0 -117 -40.5 -210t-112.5 -157.5t-171.5 -98.5t-216.5 -34q-58 0 -108 5.5t-96.5 18t-91 33t-91.5 49.5l27 207q50 -41 95 -66.5t89 -40.5 t89.5 -20.5t98.5 -5.5q75 0 137.5 20.5t107 60t69.5 98t25 134.5t-33.5 129.5t-85.5 87.5t-115.5 49.5t-123.5 15.5q-40 0 -76.5 -3.5t-74 -11.5t-78 -20.5t-86.5 -30.5v776z" />
<glyph unicode="6" d="M1114 468q0 -114 -37 -205.5t-104.5 -155t-162.5 -98t-210 -34.5q-116 0 -207 48.5t-153.5 139.5t-95 222t-32.5 295q0 92 12.5 187.5t41 185t75 168.5t114.5 137.5t159.5 92.5t210.5 34q44 0 83 -4t76 -14.5t73.5 -28t75.5 -43.5l-44 -195q-65 64 -133.5 87t-140.5 23 q-83 0 -154 -31t-124.5 -99t-87 -177.5t-40.5 -266.5q74 72 162.5 115t195.5 43q104 0 187 -31.5t140.5 -88t88.5 -135t31 -171.5zM630 150q66 0 119.5 22t91.5 60t58.5 90t20.5 112q0 66 -18 119t-53.5 90t-87 57t-118.5 20q-103 0 -188 -36.5t-146 -99.5 q6 -86 28.5 -164.5t62 -138.5t97 -95.5t133.5 -35.5z" />
<glyph unicode="7" d="M275 0q41 141 83 265.5t86.5 236.5t92.5 214t100.5 199t110 190.5t122.5 189.5h-390q-141 0 -232 -4t-148 -16v185h990v-160q-222 -304 -377.5 -630t-252.5 -670h-185z" />
<glyph unicode="8" d="M600 -25q-96 0 -187.5 29t-163.5 84.5t-115.5 135t-43.5 181.5q0 77 22.5 138t59 108t83.5 82.5t95 61.5q-29 16 -64 41t-65 62t-50.5 88t-20.5 119q0 92 39.5 163t104.5 119t147.5 73t168.5 25t165.5 -25t140.5 -73t97.5 -119t36.5 -163q0 -68 -19.5 -118t-49 -86.5 t-63.5 -62t-63 -43.5q41 -21 86 -55.5t82.5 -83t62 -111.5t24.5 -140q0 -102 -43.5 -181.5t-115 -135t-163.5 -84.5t-188 -29zM860 1105q0 55 -20.5 96.5t-56 69t-82.5 41t-101 13.5t-101 -13.5t-82.5 -41t-56 -69t-20.5 -96.5q0 -59 20.5 -103.5t56 -75t82.5 -46t101 -15.5 t101 15.5t82.5 46t56 75t20.5 103.5zM910 425q0 63 -23.5 115t-65 90t-98 59t-123.5 21q-68 0 -124.5 -21t-98 -59t-64.5 -90t-23 -115q0 -66 23 -118t64.5 -88t98 -55t124.5 -19q67 0 123.5 19t98 55t65 88t23.5 118z" />
<glyph unicode="9" d="M112 992q0 114 41 205.5t110.5 155t161 98t191.5 34.5q116 0 208.5 -51.5t157 -144.5t98.5 -222.5t34 -286.5q0 -92 -12.5 -187.5t-41 -185t-75 -168.5t-114.5 -137.5t-159.5 -92.5t-210.5 -34q-44 0 -83 4t-76 14.5t-73.5 28t-75.5 43.5l44 195q32 -32 65.5 -53.5 t68 -34t69.5 -17.5t71 -5q83 0 154 30.5t124 99t86 177.5t41 266q-73 -72 -161.5 -114.5t-195.5 -42.5q-104 0 -187 34.5t-141 93t-88.5 135.5t-30.5 163zM596 1310q-66 0 -119.5 -22t-91.5 -60t-58.5 -90t-20.5 -112q0 -66 21 -119t58 -90t87.5 -57t110.5 -20 q103 0 187.5 36.5t146.5 99.5q-5 85 -24.5 163.5t-58 138.5t-97 96t-141.5 36z" />
<glyph unicode=":" horiz-adv-x="640" d="M185 790q0 28 10.5 52.5t29 43t43 29t52.5 10.5t52.5 -10.5t43 -29t29 -43t10.5 -52.5t-10.5 -52.5t-29 -43t-43 -29t-52.5 -10.5t-52.5 10.5t-43 29t-29 43t-10.5 52.5zM185 110q0 28 10.5 52.5t29 43t43 29t52.5 10.5t52.5 -10.5t43 -29t29 -43t10.5 -52.5t-10.5 -52.5 t-29 -43t-43 -29t-52.5 -10.5t-52.5 10.5t-43 29t-29 43t-10.5 52.5z" />
<glyph unicode=";" horiz-adv-x="650" d="M185 790q0 28 10.5 52.5t29 43t43 29t52.5 10.5t52.5 -10.5t43 -29t29 -43t10.5 -52.5t-10.5 -52.5t-29 -43t-43 -29t-52.5 -10.5t-52.5 10.5t-43 29t-29 43t-10.5 52.5zM185 150q5 24 18.5 42.5t32.5 31t41 19.5t43 7q30 0 56.5 -11.5t46 -33t31 -52t11.5 -68.5 q0 -92 -43.5 -182t-131.5 -173l-100 40q22 22 45.5 54t43.5 69.5t33 78t13 78.5h-140v100z" />
<glyph unicode="&#x3c;" d="M1080 245l-980 400v170l980 400v-180l-790 -305l790 -305v-180z" />
<glyph unicode="=" d="M120 630h960v-150h-960v150zM120 980h960v-150h-960v150z" />
<glyph unicode="&#x3e;" d="M120 1215l980 -400v-170l-980 -400v180l790 305l-790 305v180z" />
<glyph unicode="?" horiz-adv-x="1050" d="M460 1540q79 0 147 -18.5t117.5 -56t77.5 -93.5t28 -132q0 -34 -7 -66.5t-24 -67.5t-44.5 -73t-69.5 -83q-43 -46 -71 -84.5t-44.5 -75t-24 -73t-10 -78t-1.5 -90t1 -109.5h-175q0 68 1.5 142t12.5 146t37 137t74 115t76 85t42 63t18 51.5t4 50.5q0 22 -9.5 46t-32 43.5 t-59.5 32.5t-92 13q-60 0 -125 -27t-122 -87l-45 179q25 24 60.5 44t77.5 34.5t88.5 23t93.5 8.5zM315 110q0 -28 10.5 -52.5t29 -43t43 -29t52.5 -10.5t52.5 10.5t43 29t29 43t10.5 52.5t-10.5 52.5t-29 43t-43 29t-52.5 10.5t-52.5 -10.5t-43 -29t-29 -43t-10.5 -52.5z " />
<glyph unicode="@" horiz-adv-x="1702" d="M1607 698q0 -125 -31.5 -221t-82.5 -162t-115 -100t-130 -34q-46 0 -78 15.5t-55.5 42.5t-40.5 63.5t-33 77.5q-31 -40 -66.5 -75.5t-74 -62.5t-80 -43t-85.5 -16q-50 0 -100.5 21.5t-91 65t-65.5 109t-25 154.5q0 93 21 168t56 135q62 102 144.5 153t205.5 51 q30 0 67.5 -4.5t77 -12.5t78 -19t71.5 -24v-350q0 -98 8 -158.5t22 -95t33 -46.5t41 -12q25 0 57.5 21.5t60.5 65t47.5 109.5t19.5 155q0 124 -37.5 233.5t-112.5 191t-186.5 128.5t-258.5 47q-123 0 -236.5 -48t-201 -135.5t-139.5 -210.5t-52 -272q0 -162 49.5 -291 t135 -219.5t200 -139t244.5 -48.5q70 0 140.5 20.5t136.5 65.5l105 -109q-38 -26 -85 -47.5t-98.5 -36.5t-105 -23t-104.5 -8q-147 0 -284 52t-243.5 154t-170.5 252.5t-64 348.5q0 138 29.5 253t82 207.5t125.5 162.5t160 116.5t185.5 70t202.5 23.5q160 0 293.5 -50.5 t230 -143.5t150 -224t53.5 -291zM848 903q-26 0 -52 -6t-51 -20t-49 -38t-45 -60q-22 -37 -35 -92.5t-13 -113.5q0 -66 12.5 -114t33 -79t46.5 -45.5t53 -14.5q34 0 73 21t77.5 55.5t71.5 79.5t55 94v301q-25 12 -73 22t-104 10z" />
<glyph unicode="A" horiz-adv-x="1395" d="M40 0l27 63l30.5 74.5l36.5 94.5l46 123l400 1105h215l400 -1105l45 -123l37 -94.5l31 -74.5l27 -63h-205l-136 385h-615l-134 -385h-205zM685 1265l-252 -725h507z" />
<glyph unicode="B" horiz-adv-x="1285" d="M365 855h175q80 0 141.5 17t103.5 48t63.5 74.5t21.5 95.5q0 119 -71 172t-229 53q-59 0 -116 -1.5t-89 -3.5v-455zM1140 420q0 -91 -32.5 -169.5t-100.5 -136.5t-172.5 -91t-248.5 -33q-77 0 -152.5 1.5t-136.5 3.5q-71 2 -137 5q6 30 9 77t4.5 106t1.5 128.5v143.5v545 v143t-1.5 130.5t-4.5 108.5t-9 78q33 2 77.5 4t97 3.5t112.5 2t123 0.5q108 0 198.5 -18t156.5 -59t103 -108t37 -165q0 -63 -19 -113.5t-52.5 -90t-78 -68.5t-95.5 -48q58 -15 115 -41.5t102.5 -70.5t74 -109.5t28.5 -158.5zM365 155q28 -2 84 -3.5t141 -1.5q64 0 127.5 13 t114 44t82 83t31.5 130q0 139 -94.5 209.5t-270.5 70.5h-215v-545z" />
<glyph unicode="C" horiz-adv-x="1355" d="M1230 140q-44 -41 -103 -71.5t-123.5 -51.5t-130.5 -31.5t-123 -10.5q-152 0 -273 51.5t-206 147t-130.5 231.5t-45.5 305q0 193 56 338.5t149.5 242.5t215.5 145.5t254 48.5q54 0 110 -7t112.5 -23t112.5 -43t110 -67l-60 -180q-47 42 -96 71t-98 46.5t-97.5 25 t-93.5 7.5q-105 0 -193 -36.5t-151.5 -109.5t-99.5 -181.5t-36 -252.5q0 -116 31 -222t91 -186.5t147.5 -128.5t200.5 -48q57 0 115.5 13t114.5 37.5t107 58.5t93 76z" />
<glyph unicode="D" horiz-adv-x="1435" d="M175 1000v143t-1.5 130.5t-4.5 108.5t-9 78l53.5 2.5t72 2.5t83 2t87 1.5l84.5 1t75 0.5q40 0 91.5 -4.5t108 -17.5t116 -36.5t115 -61.5t104.5 -92t85.5 -128t58 -170.5t21.5 -219.5q0 -149 -33 -262.5t-88.5 -196.5t-128.5 -139t-153 -90t-162 -48t-155 -14 q-24 0 -55.5 0.5t-66.5 1t-72 1.5l-72 2q-82 2 -169 5q6 30 8.5 77t4 106t2 128.5t0.5 143.5v545zM365 165q35 -3 91.5 -6.5t128.5 -3.5q67 0 132.5 13t125 41.5t110.5 73.5t88 107.5t58 144.5t21 185q0 168 -42.5 281t-114.5 181.5t-168.5 98t-204.5 29.5q-25 0 -56 -0.5 t-62.5 -1.5t-59.5 -1.5t-47 -1.5v-1140z" />
<glyph unicode="E" horiz-adv-x="1160" d="M935 845v-160h-570v-520h264q149 0 250 2t161 13v-180h-880q11 60 13 173.5t2 261.5v590q0 148 -2 261.5t-13 173.5h850v-165h-645v-450h570z" />
<glyph unicode="F" horiz-adv-x="1150" d="M945 835v-160h-580v-240q0 -149 2 -262.5t13 -172.5h-220q11 60 13 173.5t2 261.5v585v140.5t-1.5 123t-4.5 101.5t-9 75h870v-165h-665v-460h580z" />
<glyph unicode="G" horiz-adv-x="1420" d="M1275 155q-77 -54 -145 -89t-132 -55t-126 -28t-127 -8q-142 0 -261 49t-205.5 144t-135 233.5t-48.5 318.5t53.5 322t146.5 240.5t218.5 150.5t269.5 52q61 0 118.5 -5.5t115 -20.5t117.5 -42.5t126 -71.5l-65 -180q-56 45 -108.5 74.5t-103.5 46t-100.5 23t-99.5 6.5 q-114 0 -205.5 -40t-155.5 -114t-98 -179.5t-34 -236.5q0 -138 32.5 -248t93.5 -187.5t147.5 -118.5t193.5 -41q45 0 84.5 4.5t78.5 15.5t79 29t86 46v335h-350v165h540v-590z" />
<glyph unicode="H" horiz-adv-x="1475" d="M1085 0v675h-720v-675h-205q11 60 13 170.5t2 259.5v600q0 149 -2 259.5t-13 170.5h205v-625h720v625h205q-11 -60 -13 -170.5t-2 -259.5v-600q0 -149 2 -259.5t13 -170.5h-205z" />
<glyph unicode="I" horiz-adv-x="975" d="M815 1460v-145h-245v-1170h245v-145h-675v145h240v1170h-240v145h675z" />
<glyph unicode="J" horiz-adv-x="965" d="M345 -25q-36 0 -78.5 6.5t-85.5 20.5t-81 36t-65 52l45 185q25 -29 56 -51.5t64.5 -37.5t69 -23t70.5 -8q55 0 101 19.5t79 60t51.5 102.5t18.5 148v495q0 73 -0.5 142.5t-2 131t-4.5 114t-8 92.5h205v-925q0 -156 -32 -263t-89.5 -173t-137.5 -95t-176 -29z" />
<glyph unicode="K" horiz-adv-x="1310" d="M365 787l560 673h240l-606 -687l671 -773h-245l-620 717v-717h-205q11 60 13 173.5t2 261.5v590q0 148 -2 261.5t-13 173.5h205v-673z" />
<glyph unicode="L" horiz-adv-x="1080" d="M589 165q74 0 140 0.5t122 2t100 4.5t74 8v-180h-865q11 60 13 173.5t2 261.5v590q0 148 -2 261.5t-13 173.5h205v-1295h224z" />
<glyph unicode="M" horiz-adv-x="1795" d="M1320 1460h220q12 -357 24 -656q3 -85 7 -170.5l8 -167t8 -155l7.5 -134.5t7.5 -106.5t8 -70.5h-185l-28 1198l-412 -1198h-195l-414 1195l-31 -1195h-185q3 25 7 70.5t7.5 106.5l7.5 134.5t8 155t7.5 167t7.5 170.5q12 299 25 656h225l430 -1255z" />
<glyph unicode="N" horiz-adv-x="1500" d="M340 1150v-1150h-180q11 60 13 173.5t2 261.5v590q0 148 -2 261.5t-13 173.5h180l795 -1160v1160h180q-5 -30 -8 -74t-4.5 -99.5t-2 -121.5t-0.5 -140v-1025h-165z" />
<glyph unicode="O" horiz-adv-x="1460" d="M1145 715q0 138 -30.5 248.5t-86.5 187.5t-134.5 118t-173.5 41t-174 -39.5t-136 -113t-88.5 -178t-31.5 -234.5q0 -137 30.5 -247t87 -187.5t135.5 -119t177 -41.5q92 0 170 38.5t134.5 111t88.5 177.5t32 238zM1340 740q0 -180 -53.5 -322t-142 -240.5t-201.5 -150.5 t-233 -52q-121 0 -232 49t-196 144t-136 233.5t-51 318.5q0 120 24.5 223t68 188t103.5 151t130.5 111t149 68.5t159.5 23.5q119 0 229.5 -49t195 -144t135 -233.5t50.5 -318.5z" />
<glyph unicode="P" horiz-adv-x="1195" d="M365 435q0 -149 2 -262.5t13 -172.5h-220q11 60 13 173.5t2 261.5v565v143t-1.5 130.5t-4.5 108.5t-9 78q63 2 133 5q60 2 135.5 3.5t156.5 1.5q121 0 219 -27.5t167 -83t106.5 -138t37.5 -191.5q0 -110 -36.5 -198t-105 -149.5t-167 -94.5t-221.5 -33q-55 0 -113 2.5 t-107 7.5v-130zM365 720q48 -6 98 -8t107 -2q105 0 173.5 24t109 65.5t56.5 96t16 114.5t-17.5 114.5t-58 95.5t-107.5 65.5t-167 24.5q-35 0 -63 -0.5t-52 -1t-47 -1.5l-48 -2v-585z" />
<glyph unicode="Q" horiz-adv-x="1460" d="M1340 740q0 -98 -16 -191t-48 -175.5t-81 -151t-115 -117.5q94 -58 184 -97.5t191 -52.5l-23.5 -38t-32.5 -48t-38.5 -41.5t-40.5 -17.5q-21 0 -57.5 14t-80 35t-90.5 46l-89.5 46t-76.5 35t-51 14q-43 -14 -83 -19.5t-87 -5.5q-121 0 -231.5 49t-194.5 144t-134 233.5 t-50 318.5q0 120 24.5 223t68 188t103.5 151t130.5 111t149 68.5t159.5 23.5q121 0 231.5 -49t194.5 -144t134 -233.5t50 -318.5zM1145 715q0 138 -30.5 248.5t-86.5 187.5t-134.5 118t-173.5 41t-174 -39.5t-136 -113t-88.5 -178t-31.5 -234.5q0 -137 30.5 -247t87 -187.5 t135.5 -119t177 -41.5q92 0 170 38.5t134.5 111t88.5 177.5t32 238z" />
<glyph unicode="R" horiz-adv-x="1305" d="M365 435q0 -74 0.5 -140t2 -122t4.5 -100t8 -73h-220q11 60 13 173.5t2 261.5v565v143t-1.5 130.5t-4.5 108.5t-9 78q52 2 115 5q54 2 128 3.5t162 1.5q117 0 213.5 -23.5t165.5 -73t107.5 -127.5t38.5 -186q0 -91 -28.5 -161t-75 -120.5t-105.5 -83.5t-120 -50 l73.5 -100.5l93 -126l100 -135l94.5 -126.5l76.5 -100t46.5 -57h-255l-422 625h-203v-190zM365 780h190q170 0 257.5 70t87.5 195q0 64 -19.5 113.5t-61 83t-107 51t-157.5 17.5q-53 0 -101.5 -1.5t-88.5 -3.5v-525z" />
<glyph unicode="S" horiz-adv-x="1175" d="M960 1200q-54 30 -99.5 50.5t-88.5 34t-86 19.5t-91 6q-60 0 -109.5 -18t-85.5 -48t-55.5 -69t-19.5 -80t11.5 -74.5t46.5 -63t100 -58t172 -59.5q99 -29 175.5 -67.5t128.5 -88.5t79 -114t27 -145q0 -101 -39.5 -183.5t-108 -142t-159.5 -92t-193 -32.5q-72 0 -140.5 10 t-129 28t-111.5 42.5t-89 54.5l45 205q100 -87 206.5 -126t218.5 -39q60 0 116 17t99 49.5t69 80t26 108.5q0 39 -12.5 74.5t-50.5 69.5t-109 67.5t-188 68.5t-191 77t-116 91.5t-57.5 106t-15.5 120.5t26.5 135t83.5 131t146 99.5t214 39.5q58 0 108.5 -5t98 -16t93.5 -28 t95 -41z" />
<glyph unicode="T" horiz-adv-x="1265" d="M1200 1460v-185q-60 13 -118.5 16.5t-126.5 3.5h-240v-860q0 -148 3.5 -261.5t16.5 -173.5h-230q13 60 16.5 173.5t3.5 261.5v860h-235q-67 0 -126 -3.5t-119 -16.5v185h1155z" />
<glyph unicode="U" horiz-adv-x="1440" d="M1255 1460q-10 -60 -12.5 -169.5t-2.5 -265.5v-510q0 -122 -32 -221.5t-97.5 -170.5t-165.5 -109.5t-235 -38.5q-137 0 -237.5 38.5t-166.5 109.5t-98.5 170.5t-32.5 221.5v510q0 148 -2.5 261.5t-12.5 173.5h205v-900q0 -98 17 -176.5t57 -134t106 -85t165 -29.5 q97 0 162 29.5t104.5 85t56.5 134t17 176.5v900h205v0z" />
<glyph unicode="V" horiz-adv-x="1375" d="M1100 1460h215l-28 -64.5l-30.5 -76l-36.5 -97l-45 -127.5l-385 -1095h-225l-390 1095l-45.5 126.5l-35.5 97.5l-29 76.5l-25 64.5h215l422 -1265z" />
<glyph unicode="W" horiz-adv-x="2080" d="M1484 186l311 1274h220l-24 -64.5t-25.5 -76l-29.5 -97l-36 -127.5l-305 -1095h-225l-343 1176l-342 -1176h-225l-305 1095l-36 126.5l-29.5 98t-25.5 77t-24 63.5h220l316 -1274l359 1274h185z" />
<glyph unicode="X" horiz-adv-x="1325" d="M330 1110l-82.5 129.5l-61.5 91l-49.5 68l-46.5 61.5h235l331 -526l319 526h235l-45.5 -58.5t-49.5 -69l-61.5 -93l-81.5 -129.5l-211 -343l272 -431l82.5 -129l58 -86.5l44 -62.5l42.5 -58h-230l-388 614l-372 -614h-230l44 60l44 64l56.5 87l80.5 129l272 441z" />
<glyph unicode="Y" horiz-adv-x="1320" d="M290 1065l-56.5 96l-57.5 95t-64.5 98l-76.5 106h230l395 -661l375 661h230l-78 -114.5l-62.5 -97.5l-55 -90l-54.5 -93l-270 -462v-168q0 -148 2 -261.5t13 -173.5h-220q11 60 13 173.5t2 261.5v176z" />
<glyph unicode="Z" horiz-adv-x="1230" d="M1105 1330l-795 -1165h390q147 0 261 4.5t174 15.5v-185h-1060v125l795 1170h-340q-74 0 -133.5 -0.5t-107.5 -3t-86 -6.5t-68 -10v185h970v-130z" />
<glyph unicode="[" horiz-adv-x="790" d="M200 -410v2010h440v-150h-255v-1710h255v-150h-440z" />
<glyph unicode="\" horiz-adv-x="1025" d="M360 1600l470 -1685l-145 -30l-475 1685z" />
<glyph unicode="]" horiz-adv-x="790" d="M150 -410v150h255v1710h-255v150h440v-2010h-440z" />
<glyph unicode="^" horiz-adv-x="1120" d="M95 850l380 750h170l380 -750h-180l-285 580l-285 -580h-180z" />
<glyph unicode="_" horiz-adv-x="1274" d="M0 -170h1274v-165h-1274v165z" />
<glyph unicode="`" horiz-adv-x="580" d="M230 1600l350 -430h-160l-420 430h230z" />
<glyph unicode="a" horiz-adv-x="1150" d="M1000 530q0 -189 21 -317.5t54 -212.5h-175l-14 36t-18.5 52.5t-18 63.5t-14.5 68q-39 -50 -82.5 -94t-91.5 -78t-100 -53.5t-106 -19.5q-63 0 -125.5 27t-112.5 81t-81 135.5t-31 191.5q0 115 25.5 208.5t69.5 166.5q39 64 83 112t96.5 79.5t115.5 47.5t140 16 q38 0 84.5 -5.5t95 -15.5t96.5 -24t89 -30v-435zM595 870q-32 0 -64.5 -7.5t-64 -25.5t-61 -47.5t-55.5 -74.5q-27 -46 -43.5 -114.5t-16.5 -140.5q0 -83 15.5 -142.5t41 -98t58 -56.5t65.5 -18q42 0 91.5 26t96.5 69t88.5 99t68.5 116v375q-15 7 -38.5 14t-52 13t-62 9.5 t-67.5 3.5z" />
<glyph unicode="b" horiz-adv-x="1155" d="M145 1130v118t-1.5 128.5t-4.5 123t-9 100.5h200v-775q35 46 76 85t88.5 68t102.5 45.5t118 16.5q76 0 139 -37t109 -103.5t71.5 -158.5t25.5 -201q0 -129 -34.5 -233t-97.5 -178t-152.5 -114t-200.5 -40q-61 0 -118 8.5t-110.5 22t-103.5 29l-98 30.5v1065zM575 130 q66 0 122 27t96.5 76t63.5 118.5t23 153.5q0 83 -15 150t-43.5 113.5t-70.5 71.5t-96 25q-47 0 -94 -20.5t-89.5 -57.5t-79.5 -88.5t-62 -113.5v-400q37 -15 67.5 -25.5t59.5 -17t57.5 -9.5t60.5 -3z" />
<glyph unicode="c" horiz-adv-x="1020" d="M615 1040q100 0 172.5 -23.5t127.5 -61.5l-35 -180q-68 50 -135 75t-145 25q-67 0 -124.5 -25.5t-100 -73.5t-66.5 -118t-24 -158q0 -81 22 -147t63 -113.5t99 -73.5t131 -26q91 0 165 31t140 89l20 -175q-38 -29 -75.5 -49.5t-78.5 -34t-88 -20t-103 -6.5 q-101 0 -189 35.5t-154 102.5t-104 162t-38 215q0 113 36.5 213t104 175t164 118.5t215.5 43.5z" />
<glyph unicode="d" horiz-adv-x="1190" d="M1030 530q0 -189 21.5 -317.5t53.5 -212.5h-180q-11 26 -26.5 77.5t-28.5 107.5q-72 -102 -163 -156t-202 -54q-92 0 -165.5 34.5t-126 98t-80.5 153t-28 199.5q0 133 36.5 240t100.5 182.5t150.5 116.5t187.5 41q32 0 66.5 -7t69 -19t67.5 -27.5t62 -31.5v280 q0 241 -28 365h45h63h62.5h42.5v-1070zM580 870q-57 0 -109 -26t-92.5 -75t-64.5 -119.5t-24 -159.5q0 -175 59.5 -265t190.5 -90q46 0 91.5 23t86 60t73.5 84.5t54 97.5v395q-37 20 -69 34t-63 23t-63 13.5t-70 4.5z" />
<glyph unicode="e" horiz-adv-x="1095" d="M575 1040q82 0 145 -19.5t109 -54t77 -80.5t49.5 -99t26.5 -110.5t8 -113.5v-39t-1 -39h-709q3 -88 27.5 -153t67 -107.5t100 -63.5t125.5 -21q97 0 190 22t185 78l20 -165q-53 -27 -104 -46t-102 -31t-103.5 -17.5t-110.5 -5.5q-96 0 -183 33.5t-153 99t-105 162.5 t-39 225q0 124 33.5 224.5t95.5 172t151 110t200 38.5zM560 890q-110 0 -180 -64.5t-92 -200.5h522q0 64 -18.5 113.5t-52 83.5t-79.5 51t-100 17z" />
<glyph unicode="f" horiz-adv-x="730" d="M20 995h200v175q0 225 91.5 337.5t253.5 112.5q59 0 116 -18.5t104 -51.5l-46 -150q-38 28 -84 44t-90 16q-39 0 -69 -13.5t-50 -43.5t-30.5 -77.5t-10.5 -115.5v-215h270v-145h-270v-356q0 -73 1.5 -144.5t5 -136t9.5 -119.5t14 -94h-215v850h-200v145z" />
<glyph unicode="g" horiz-adv-x="1125" d="M990 25q0 -132 -38.5 -226t-101 -153.5t-142.5 -87.5t-163 -28q-96 0 -190.5 32.5t-174.5 86.5l65 156q71 -51 143 -83t147 -32q39 0 86 14t88 48.5t68.5 92.5t27.5 145v185q-39 -49 -82.5 -83.5t-88 -56t-89 -31t-85.5 -9.5q-69 0 -133 24t-113.5 76.5t-79 136.5 t-29.5 203q0 115 30 224t93 193.5t161.5 136t235.5 51.5q45 0 92.5 -6.5t94.5 -17.5t92 -24.5l86 -26.5v-940zM595 870q-82 0 -140 -33.5t-94.5 -88t-53.5 -123.5t-17 -140q0 -93 14.5 -154.5t40 -98t60 -52t75.5 -15.5q38 0 81 15.5t86.5 44.5t84 72t73.5 98v435 q-24 9 -51 16.5t-55 12.5t-54.5 8t-49.5 3z" />
<glyph unicode="h" horiz-adv-x="1175" d="M710 1040q160 0 245 -104.5t85 -310.5v-625h-185v550q0 94 -12.5 155t-37.5 96.5t-62.5 49.5t-87.5 14q-54 0 -105.5 -25.5t-94.5 -66t-76 -91.5t-49 -102v-580h-185v1130q0 162 -2 283.5t-13 186.5h200v-770q74 105 174 157.5t206 52.5z" />
<glyph unicode="i" horiz-adv-x="565" d="M375 475q0 -48 1.5 -113.5t4 -132.5t6 -128t8.5 -101h-205v530q0 73 -0.5 144t-2 134.5t-4.5 118t-8 93.5h200v-545zM155 1345q0 28 9.5 52.5t26.5 43t40 29t51 10.5t51.5 -10.5t40.5 -29t26.5 -43t9.5 -52.5t-9.5 -52.5t-26.5 -43t-40.5 -29t-51.5 -10.5t-51 10.5 t-40 29t-26.5 43t-9.5 52.5z" />
<glyph unicode="j" horiz-adv-x="595" d="M405 25q0 -140 -26.5 -235t-76 -152.5t-119 -82.5t-154.5 -25q-21 0 -49.5 4.5t-58.5 12.5t-59.5 20.5t-51.5 27.5l35 165q16 -12 40.5 -23t51.5 -19.5t53.5 -13t47.5 -4.5q40 0 73.5 15.5t57.5 48.5t37.5 85t13.5 126v555q0 73 -0.5 144t-2 134.5t-4.5 118t-8 93.5h200 v-995zM185 1345q0 28 9.5 52.5t26.5 43t40 29t51 10.5t51.5 -10.5t40.5 -29t26.5 -43t9.5 -52.5t-9.5 -52.5t-26.5 -43t-40.5 -29t-51.5 -10.5t-51 10.5t-40 29t-26.5 43t-9.5 52.5z" />
<glyph unicode="k" horiz-adv-x="1035" d="M145 0v1130q0 162 -1.5 283.5t-13.5 186.5h200v-999l405 419h250l-495 -447l525 -573h-245l-440 520v-520h-185z" />
<glyph unicode="l" horiz-adv-x="565" d="M375 475q0 -48 1.5 -113t4 -132t6 -128t8.5 -102h-205v1130q0 146 -5 264.5t-15 205.5h205v-1125z" />
<glyph unicode="m" horiz-adv-x="1705" d="M955 0h-185v550q0 97 -7 158t-23.5 96t-44.5 48t-70 13q-37 0 -77 -21.5t-76.5 -57t-66 -81.5t-45.5 -95v-610h-185v615q0 148 -17 250.5t-33 154.5h180q6 -16 11 -40t9.5 -50.5t8 -51.5t6.5 -43q46 57 89.5 96t86 63t84.5 35t85 11q106 0 165 -50.5t84 -147.5 q87 102 177 150t169 48q76 0 128 -26.5t83.5 -77.5t45 -125.5t13.5 -170.5v-640h-185v550q0 97 -7 158t-23.5 96t-44.5 48t-70 13q-37 0 -76 -22.5t-75 -58.5t-66 -81.5t-48 -92.5v-610z" />
<glyph unicode="n" horiz-adv-x="1185" d="M720 1040q160 0 245 -104.5t85 -310.5v-625h-185v550q0 94 -12.5 155t-37 96.5t-62 49.5t-88.5 14q-54 0 -105.5 -25.5t-94.5 -66t-76 -91.5t-49 -102v-580h-185v615q0 148 -16.5 250.5t-33.5 154.5h180q6 -16 12 -41.5t11 -53.5l9.5 -55l7.5 -45q95 114 192 164.5 t203 50.5z" />
<glyph unicode="o" horiz-adv-x="1140" d="M95 507q0 129 39 228.5t105 167t154 102.5t187 35q103 0 188.5 -35t147 -102.5t95.5 -167t34 -228.5t-39 -228.5t-105 -167t-154 -102t-187 -34.5q-103 0 -188.5 34.5t-147 102t-95.5 167t-34 228.5zM280 507q0 -87 21 -156t59.5 -117t91.5 -73.5t118 -25.5 q60 0 113 25.5t92.5 73.5t62 117t22.5 156q0 88 -21 157t-59.5 117t-92 73.5t-117.5 25.5q-61 0 -114 -25.5t-92 -73.5t-61.5 -117t-22.5 -157z" />
<glyph unicode="p" horiz-adv-x="1170" d="M155 485q0 93 -1.5 172.5t-6.5 146t-15 120.5t-27 96h180q11 -26 22 -73.5t18 -116.5q35 46 76.5 85t88 66.5t98 43t107.5 15.5q85 0 155.5 -37.5t120 -105t77 -160t27.5 -202.5q0 -128 -36 -231.5t-97.5 -176.5t-144.5 -112.5t-177 -39.5q-40 0 -75.5 8t-69 22 t-66.5 34.5t-69 45.5v-235q0 -60 1.5 -108.5t4.5 -89.5t8 -75.5t11 -66.5h-210v975zM620 140q53 0 101.5 25t86 72.5t60 115t22.5 152.5q0 83 -15.5 150.5t-45.5 115t-72.5 73.5t-96.5 26q-43 0 -88 -19t-87.5 -56t-79.5 -92.5t-65 -127.5v-315q51 -36 88.5 -59.5t68.5 -37 t59.5 -18.5t63.5 -5z" />
<glyph unicode="q" horiz-adv-x="1130" d="M980 -150q0 -60 1.5 -108.5t4.5 -89.5t8 -75.5t11 -66.5h-210v630q-78 -91 -149 -128t-141 -37q-69 0 -140 27t-129 83.5t-94.5 143.5t-36.5 206q0 115 30 224t93 193.5t161.5 136t235.5 51.5q45 0 91 -6.5t91 -17.5t88.5 -24.5l84.5 -26.5v-1115zM595 870 q-82 0 -140 -33.5t-94.5 -88t-53.5 -123.5t-17 -140q0 -93 20.5 -158t53.5 -105.5t74 -58.5t82 -18q69 0 141 55t134 165v465q-45 17 -99.5 28.5t-100.5 11.5z" />
<glyph unicode="r" horiz-adv-x="890" d="M155 0v615q0 148 -16.5 250.5t-33.5 154.5h180q12 -28 21.5 -70.5t16 -94.5t9.5 -111t3 -119v-65q51 141 100 233.5t97.5 147.5t97.5 77t100 22q38 0 70 -7t65 -23l-30 -185q-29 12 -51 16t-54 4q-41 0 -86 -34.5t-88.5 -91.5t-82.5 -129t-68.5 -147.5t-47 -147.5 t-17.5 -128q0 -25 0.5 -46t3 -40.5t6.5 -39t10 -41.5h-205z" />
<glyph unicode="s" horiz-adv-x="965" d="M515 1040q54 0 101.5 -7t87 -18.5t72.5 -26t59 -28.5l-35 -175q-25 15 -56.5 31.5t-68 30.5t-79 23.5t-88.5 9.5q-55 0 -93 -12t-61 -30.5t-33.5 -42t-10.5 -45.5q0 -26 8 -46t33.5 -37t72.5 -33t126 -34q68 -15 128 -38.5t105 -59.5t71 -86.5t26 -120.5q0 -68 -30 -126 t-82 -101.5t-122 -68t-151 -24.5q-61 0 -117.5 9t-106 25t-90.5 37t-71 44l50 180q34 -30 76.5 -55t87.5 -43t90.5 -27.5t85.5 -9.5q44 0 80.5 11.5t63 30t41.5 43t15 50.5q0 28 -11.5 52.5t-42 47t-84 43.5t-137.5 42q-91 22 -148.5 52t-90 66t-44.5 78t-12 89q0 23 7.5 54 t25 64.5t46 66t71.5 58t101 41.5t134 16z" />
<glyph unicode="t" horiz-adv-x="835" d="M30 995h200v325h185v-325h325v-145h-325v-460q0 -77 7.5 -126t23 -76.5t39.5 -37.5t58 -10q43 0 97 19t120 56v-160q-69 -45 -132 -62.5t-116 -17.5q-59 0 -110 13.5t-89.5 47.5t-60.5 90.5t-22 143.5v580h-200v145z" />
<glyph unicode="u" horiz-adv-x="1185" d="M475 -25q-320 0 -320 430v295q0 48 -0.5 87t-2.5 75.5t-6 74.5t-11 83h205v-555q0 -85 8.5 -146.5t28.5 -101t52.5 -58.5t80.5 -19q44 0 94 26.5t95.5 67.5t83 90.5t57.5 95.5v280q0 49 -0.5 88.5t-2.5 75.5t-6 73t-11 83h205v-570q0 -146 16.5 -255.5t48.5 -194.5h-170 q-7 17 -15 40t-15.5 49t-14 54.5t-10.5 56.5q-91 -111 -187.5 -168t-202.5 -57z" />
<glyph unicode="v" horiz-adv-x="1070" d="M1050 1020l-43.5 -93l-43 -98l-38.5 -91l-30 -73l-26.5 -65.5l-37 -93l-43.5 -109l-45 -113.5l-113 -284h-190l-109 274l-45 112l-43.5 109.5l-38 96.5l-29.5 73l-30 73.5l-39 91.5l-43 97.5l-43 92.5h210l305 -820l305 820h210z" />
<glyph unicode="w" horiz-adv-x="1550" d="M850 1020l260 -805l210 805h185l-31.5 -102.5l-25.5 -87l-23.5 -81l-24.5 -84.5l-185 -665h-190l-250 785l-250 -785h-190l-185 665l-22.5 79l-24 81l-27 90l-31.5 105h185l210 -805l260 805h150z" />
<glyph unicode="x" horiz-adv-x="1085" d="M270 750l-46 62.5l-44 57l-51.5 65l-68.5 85.5h230l260 -361l245 361h230l-66 -85.5l-49 -65l-41.5 -57.5l-43.5 -62l-166 -243l171 -237l47 -64.5l42 -54.5l48.5 -63l67.5 -88h-230l-266 372l-259 -372h-230l68.5 90.5l49.5 65.5l40.5 55l41.5 59l178 258z" />
<glyph unicode="y" horiz-adv-x="1060" d="M655 0q-52 -144 -102 -235t-101.5 -143.5t-107 -72t-119.5 -19.5q-69 0 -129.5 22t-115.5 63l60 160q16 -13 37.5 -26.5t46 -24t50.5 -17.5t51 -7q30 0 59 10.5t58.5 40t60.5 83t66 140.5l-279 691l-65 153t-95 202h200l323 -817l41.5 117.5l46.5 131l48 136l46 131.5 l105 301h200l-47 -107.5l-39 -93l-32.5 -81.5t-26.5 -73z" />
<glyph unicode="z" horiz-adv-x="1040" d="M930 1020v-95l-595 -775h430q44 0 89.5 2t90.5 13v-165h-840v110l575 760h-390q-45 0 -86 -2t-69 -13v165h795z" />
<glyph unicode="{" horiz-adv-x="1000" d="M210 615q0 12 27.5 34t62.5 47l67.5 47.5t42.5 36.5q6 8 9.5 60t7 127t8 162.5t12 166.5t19 139t29.5 80q15 17 50 35t78.5 34.5t90.5 31t86 24.5l40 -140l-58 -21.5t-64.5 -26.5t-56 -28t-31.5 -24q-6 -9 -10.5 -40t-7 -76.5t-4.5 -101t-3 -113l-2 -113t-3 -100 t-4 -74.5t-6 -37q-7 -14 -32.5 -32.5l-53 -37.5l-50.5 -35.5t-24 -24.5q1 -8 24 -24.5l50.5 -35.5l53 -38t32.5 -32q4 -7 6 -37t4 -74.5t3 -100l2 -113t3 -113t4.5 -101t7 -76.5t10.5 -40q7 -11 31.5 -24.5t56 -27.5t64.5 -26.5l58 -21.5l-40 -140q-39 10 -86 24.5t-90.5 31 t-78.5 34.5t-50 35q-18 20 -29.5 80t-19 139t-12 166.5t-8 162.5t-7 127t-9.5 60q-7 9 -24.5 22.5t-39.5 29l-46 32.5l-44 32t-33 28t-13 21z" />
<glyph unicode="|" horiz-adv-x="690" d="M420 1600v-1990h-150v1990h150z" />
<glyph unicode="}" horiz-adv-x="1000" d="M790 615q0 -8 -13 -21t-33 -28l-44 -32l-46 -32.5t-39.5 -29t-24.5 -22.5q-6 -8 -9.5 -60t-7 -127t-8 -162.5t-12 -166.5t-19 -139t-29.5 -80q-15 -17 -50 -35t-78.5 -34.5t-90.5 -31t-86 -24.5l-40 140l58 21.5t64.5 26.5t55.5 27.5t32 24.5q6 9 10.5 40t7 76.5t4.5 101 t3 113l2 113t3 100t4 74.5t6 37q5 9 18.5 20.5t30.5 24t36.5 25.5l35.5 24.5t27 20.5t12 15q-1 5 -12 14.5t-27 21l-35.5 24.5t-36.5 25.5t-30.5 24t-18.5 20.5q-4 7 -6 37t-4 74.5t-3 100l-2 113t-3 113t-4.5 101t-7 76.5t-10.5 40q-8 10 -32 24t-55.5 28t-64.5 26.5 l-58 21.5l40 140q39 -10 86 -24.5t90.5 -31t78.5 -34.5t50 -35q18 -20 29.5 -80t19 -139t12 -166.5t8 -162.5t7 -127t9.5 -60q10 -14 42.5 -36.5l67.5 -47.5t62.5 -47t27.5 -34z" />
<glyph unicode="~" horiz-adv-x="1080" d="M15 520q0 51 16.5 104.5t48.5 96.5t78 70.5t106 27.5q45 0 118.5 -16.5t186.5 -55.5l63 -21.5t68.5 -21t68.5 -15.5t64 -6q28 0 48 7t33 20.5t20 34.5t11 50h120q0 -54 -15.5 -106.5t-47 -93.5t-78 -66t-107.5 -25q-32 0 -67.5 6t-71.5 15t-71 20l-65 21l-95.5 32 t-75 23.5t-60 14t-50.5 4.5q-31 0 -54.5 -10.5t-39.5 -27t-24 -38.5t-8 -44h-120v0z" />
<glyph unicode="&#xa2;" d="M735 1320v-259q81 -5 141 -26.5t108 -53.5l-33 -171q-54 39 -106.5 62t-109.5 30v-693q69 8 127.5 36.5t112.5 75.5l19 -166q-60 -45 -120.5 -70t-138.5 -32v-263h-130v263q-85 10 -158 48.5t-127 100.5t-84.5 147.5t-30.5 190.5q0 96 28 182t79.5 154t125.5 114.5 t167 63.5v266h130zM386 549q0 -65 15 -120t43 -98t69 -72.5t92 -42.5v678q-48 -14 -88 -43t-69.5 -73t-45.5 -101.5t-16 -127.5z" />
<glyph unicode="&#xa3;" d="M155 835h113q-4 54 -6 104t-2 96q0 112 28.5 196.5t80.5 141t124.5 84.5t161.5 28q29 0 63 -5t67 -14t64 -22t54 -29l-46 -150q-19 14 -44.5 25t-53.5 19t-55 12t-49 4q-47 0 -85.5 -13.5t-66 -43.5t-43 -77.5t-15.5 -115.5q0 -53 3 -114t8 -126h309v-145h-297 q5 -62 8 -119t3 -106q0 -94 -22.5 -167.5t-80.5 -132.5h203q74 0 140 0.5t122 2t100 4.5t74 8v-180h-870v130q30 22 57 50t47.5 61t32.5 71t12 80q0 70 -4.5 145.5t-10.5 152.5h-124v145z" />
<glyph unicode="&#xa4;" d="M1069 318l-211 211q-56 -45 -119.5 -68.5t-134.5 -23.5q-77 0 -141 23t-121 69l-211 -211l-94 93l211 211q-42 56 -63.5 118t-21.5 134t21.5 139.5t67.5 121.5l-215 215l94 94l215 -215q55 41 120.5 63t137.5 22q71 0 133 -23t115 -64l217 217l94 -94l-213 -213 q39 -54 63 -121t24 -139q0 -143 -85 -255l211 -211zM905 877q0 64 -23 119.5t-63 96.5t-95.5 65t-119.5 24q-67 0 -123.5 -23t-98 -64t-65 -97.5t-23.5 -123.5q0 -66 23.5 -122t65.5 -96.5t98.5 -63.5t122.5 -23q65 0 120.5 24t95.5 65.5t62.5 97.5t22.5 121z" />
<glyph unicode="&#xa5;" d="M200 465h317v105h-317v145h245l-159 297l-48.5 91.5t-50 89.5l-56.5 93t-67 101h201l343 -628l326 628h201l-68.5 -109l-54.5 -92.5l-47.5 -85.5l-47.5 -88l-159 -297h250v-145h-326v-105h326v-145h-326q0 -108 2.5 -190.5t10.5 -129.5h-191q8 47 10 129.5t3 190.5h-317 v145z" />
<glyph unicode="&#xa6;" horiz-adv-x="1024" d="M590 445v-835h-150v835h150zM440 775v825h150v-825h-150z" />
<glyph unicode="&#xa7;" horiz-adv-x="1024" d="M903 757q0 -60 -21 -112.5t-56 -95t-79.5 -74.5t-91.5 -50q45 -21 83.5 -47t67 -59.5t44.5 -74.5t16 -90q0 -69 -28.5 -126.5t-79 -99t-120.5 -64.5t-153 -23q-53 0 -101.5 7t-89.5 17.5t-73 21.5t-51 20v268h102q3 -19 5 -30l3.5 -19.5l3 -17.5l4 -23t5.5 -36l8 -58 q18 -12 42 -22t50 -17t52 -11t49 -4q45 0 83.5 11.5t67 33t44.5 52.5t16 69q0 45 -25 79.5t-66 63.5t-93.5 55.5l-107.5 54.5t-107.5 61t-93.5 75.5t-66 97t-25 126.5q0 68 19 118t51.5 87.5t76.5 65t94 50.5q-46 23 -83.5 50t-64.5 59t-41.5 70t-14.5 83q0 70 24.5 126 t74 95t124 59.5t174.5 20.5q45 0 89 -5t82.5 -12.5t68.5 -16t45 -15.5v-266h-97l-20 166l-37.5 19.5t-45 19t-52 14.5t-58.5 6q-46 0 -83.5 -13t-64.5 -36t-41.5 -54.5t-14.5 -68.5q0 -39 25 -70t65.5 -58t92 -53l106 -54t106 -60.5t92 -73.5t65.5 -93t25 -119zM743 705 q0 93 -74 163t-208 126q-47 -16 -81.5 -41.5t-57.5 -56.5t-34.5 -65t-11.5 -68q0 -47 18 -86t54.5 -74t92 -68.5t130.5 -68.5q22 12 52 35.5t56.5 55.5t45 70t18.5 78z" />
<glyph unicode="&#xa9;" horiz-adv-x="1515" d="M755 1365q-112 0 -216.5 -41t-185.5 -121t-129.5 -198.5t-48.5 -274.5t48.5 -274.5t129.5 -198.5t185.5 -121t216.5 -41t217.5 41t187 121t131 198.5t49.5 274.5t-49.5 274.5t-131 198.5t-187 121t-217.5 41zM755 1485q87 0 173.5 -21t165.5 -63.5t146.5 -105.5 t117.5 -147t78.5 -188.5t28.5 -229.5q0 -128 -28.5 -233.5t-78.5 -189t-117.5 -146t-146.5 -104t-165.5 -62t-173.5 -20.5q-90 0 -177 20.5t-165 62t-144.5 104t-115 146t-76 189.5t-27.5 233q0 125 27.5 229.5t76 188.5t115 147t144.5 105.5t165.5 63.5t176.5 21zM1010 505 q-53 -54 -116.5 -87t-133.5 -33q-64 0 -115.5 30t-88 79t-56.5 112t-20 129q0 85 22.5 150t61.5 109.5t91 67.5t110 23t111.5 -22.5t113.5 -77.5l40 120q-69 51 -132.5 70.5t-132.5 19.5q-77 0 -150.5 -31t-131 -91t-93 -149t-35.5 -204q0 -101 28.5 -183.5t80 -142 t124.5 -92t162 -32.5q36 0 75 6.5t76.5 20t71.5 33t62 45.5z" />
<glyph unicode="&#xad;" horiz-adv-x="860" d="M80 705h700v-150h-700v150z" />
<glyph unicode="&#xae;" horiz-adv-x="1615" d="M855 1485q87 0 173.5 -21t165.5 -63.5t146.5 -105.5t117.5 -147t78.5 -188.5t28.5 -229.5q0 -128 -28.5 -233.5t-78.5 -189t-117.5 -146t-146.5 -104t-165.5 -62t-173.5 -20.5q-90 0 -177 20.5t-165 62t-144.5 104t-115 146t-76 189.5t-27.5 233q0 125 27.5 229.5 t76 188.5t115 147t144.5 105.5t165.5 63.5t176.5 21zM855 1365q-112 0 -216.5 -41t-185.5 -121t-129.5 -198.5t-48.5 -274.5t48.5 -274.5t129.5 -198.5t185.5 -121t216.5 -41t217.5 41t187 121t131 198.5t49.5 274.5t-49.5 274.5t-131 198.5t-187 121t-217.5 41zM675 668 h124l261 -378h155q-9 9 -29.5 35.5l-47.5 62l-58 77l-61 81.5l-56 75.5l-43 58.5q37 10 73.5 28.5t66 48.5t47.5 71.5t18 96.5q0 66 -24.5 114t-68.5 79.5t-104.5 46.5t-132.5 15q-57 0 -102.5 -1.5t-78.5 -3.5q-39 -3 -69 -5q7 -38 7.5 -108t0.5 -164v-350q0 -94 -0.5 -157 t-7.5 -101h140q-7 38 -9.5 101t-2.5 157zM675 1072q26 2 54 3t61 1q111 0 160.5 -43t49.5 -118q0 -72 -54 -110t-156 -38l-115 -2v307z" />
<glyph unicode="&#xb0;" horiz-adv-x="640" d="M456 1266q0 28 -11 53t-29.5 43.5t-43.5 29t-53 10.5t-53 -10.5t-43.5 -29t-29 -43.5t-10.5 -53t10.5 -53t29 -43.5t43.5 -29.5t53 -11t53 11t43.5 29.5t29.5 43.5t11 53zM100 1266q0 45 17.5 85t47 69.5t69.5 47t85 17.5t85 -17.5t70.5 -47t48 -69.5t17.5 -85t-17.5 -85 t-48 -70.5t-70.5 -48t-85 -17.5t-85 17.5t-69.5 48t-47 70.5t-17.5 85z" />
<glyph unicode="&#xb1;" d="M155 985h370v380h150v-380h370v-150h-370v-365h-150v365h-370v150zM155 350h890v-150h-890v150z" />
<glyph unicode="&#xb6;" horiz-adv-x="1025" d="M850 1345v-1345h-135v1345h-160v-1345h-135v765q-34 0 -75 7t-82 23.5t-79.5 43t-68 65t-47.5 90.5t-18 119t18 119t48 90.5t69.5 65t83 42.5t87.5 23t84 7h525v-115h-115z" />
<glyph unicode="&#xb7;" horiz-adv-x="679" d="M205 709q0 28 10.5 52.5t28.5 42.5t42.5 28.5t52.5 10.5t52.5 -10.5t42.5 -28.5t28.5 -42.5t10.5 -52.5t-10.5 -52.5t-28.5 -42.5t-42.5 -28.5t-52.5 -10.5t-52.5 10.5t-42.5 28.5t-28.5 42.5t-10.5 52.5z" />
<glyph unicode="&#xc1;" horiz-adv-x="1395" d="M40 0l27 63l30.5 74.5l36.5 94.5l46 123l400 1105h215l400 -1105l45 -123l37 -94.5l31 -74.5l27 -63h-205l-136 385h-615l-134 -385h-205zM685 1265l-252 -725h507zM1087 2030l-420 -430h-160l350 430h230z" />
<glyph unicode="&#xc9;" horiz-adv-x="1160" d="M935 845v-160h-570v-520h264q149 0 250 2t161 13v-180h-880q11 60 13 173.5t2 261.5v590q0 148 -2 261.5t-13 173.5h850v-165h-645v-450h570zM1000 2030l-420 -430h-160l350 430h230z" />
<glyph unicode="&#xcd;" horiz-adv-x="975" d="M815 1460v-145h-245v-1170h245v-145h-675v145h240v1170h-240v145h675zM877 2030l-420 -430h-160l350 430h230z" />
<glyph unicode="&#xd3;" horiz-adv-x="1460" d="M1145 715q0 138 -30.5 248.5t-86.5 187.5t-134.5 118t-173.5 41t-174 -39.5t-136 -113t-88.5 -178t-31.5 -234.5q0 -137 30.5 -247t87 -187.5t135.5 -119t177 -41.5q92 0 170 38.5t134.5 111t88.5 177.5t32 238zM1340 740q0 -180 -53.5 -322t-142 -240.5t-201.5 -150.5 t-233 -52q-121 0 -232 49t-196 144t-136 233.5t-51 318.5q0 120 24.5 223t68 188t103.5 151t130.5 111t149 68.5t159.5 23.5q119 0 229.5 -49t195 -144t135 -233.5t50.5 -318.5zM1117 2030l-420 -430h-160l350 430h230z" />
<glyph unicode="&#xda;" horiz-adv-x="1440" d="M1255 1460q-10 -60 -12.5 -169.5t-2.5 -265.5v-510q0 -122 -32 -221.5t-97.5 -170.5t-165.5 -109.5t-235 -38.5q-137 0 -237.5 38.5t-166.5 109.5t-98.5 170.5t-32.5 221.5v510q0 148 -2.5 261.5t-12.5 173.5h205v-900q0 -98 17 -176.5t57 -134t106 -85t165 -29.5 q97 0 162 29.5t104.5 85t56.5 134t17 176.5v900h205v0zM1107 2030l-420 -430h-160l350 430h230z" />
<glyph unicode="&#xe1;" horiz-adv-x="1150" d="M1000 530q0 -189 21 -317.5t54 -212.5h-175l-14 36t-18.5 52.5t-18 63.5t-14.5 68q-39 -50 -82.5 -94t-91.5 -78t-100 -53.5t-106 -19.5q-63 0 -125.5 27t-112.5 81t-81 135.5t-31 191.5q0 115 25.5 208.5t69.5 166.5q39 64 83 112t96.5 79.5t115.5 47.5t140 16 q38 0 84.5 -5.5t95 -15.5t96.5 -24t89 -30v-435zM595 870q-32 0 -64.5 -7.5t-64 -25.5t-61 -47.5t-55.5 -74.5q-27 -46 -43.5 -114.5t-16.5 -140.5q0 -83 15.5 -142.5t41 -98t58 -56.5t65.5 -18q42 0 91.5 26t96.5 69t88.5 99t68.5 116v375q-15 7 -38.5 14t-52 13t-62 9.5 t-67.5 3.5zM1015 1600l-420 -430h-160l350 430h230z" />
<glyph unicode="&#xe6;" horiz-adv-x="1815" d="M940 887q63 77 155.5 115t199.5 38q82 0 145 -19.5t109 -54t77 -80.5t49.5 -99t26.5 -110.5t8 -113.5v-39t-1 -39h-719q3 -88 29.5 -153t70.5 -107.5t103 -63.5t127 -21q97 0 190 22t185 78l20 -165q-53 -27 -104 -46t-102 -31t-103.5 -17.5t-110.5 -5.5q-70 0 -136 18 t-122.5 53t-102 88t-74.5 122q-33 -51 -78 -101t-97.5 -90t-110.5 -65t-119 -25q-63 0 -125.5 27t-112.5 81t-81 135.5t-31 191.5q0 115 25.5 208.5t69.5 166.5q39 64 83 112.5t96.5 81t115.5 48t140 13.5q68 -2 146.5 -14.5t158.5 -40.5v-98zM595 870q-32 0 -64.5 -7.5 t-64 -25.5t-61 -47.5t-55.5 -74.5q-27 -46 -43.5 -114.5t-16.5 -140.5q0 -83 15.5 -142.5t41 -98t58 -56.5t65.5 -18q42 0 91.5 26t96.5 69t88.5 99t68.5 116v375q-15 7 -38.5 14t-52 13t-62 9.5t-67.5 3.5zM1280 890q-110 0 -184 -64.5t-97 -200.5h531q0 64 -18.5 113.5 t-52 83.5t-79.5 51t-100 17z" />
<glyph unicode="&#xe9;" horiz-adv-x="1095" d="M575 1040q82 0 145 -19.5t109 -54t77 -80.5t49.5 -99t26.5 -110.5t8 -113.5v-39t-1 -39h-709q3 -88 27.5 -153t67 -107.5t100 -63.5t125.5 -21q97 0 190 22t185 78l20 -165q-53 -27 -104 -46t-102 -31t-103.5 -17.5t-110.5 -5.5q-96 0 -183 33.5t-153 99t-105 162.5 t-39 225q0 124 33.5 224.5t95.5 172t151 110t200 38.5zM560 890q-110 0 -180 -64.5t-92 -200.5h522q0 64 -18.5 113.5t-52 83.5t-79.5 51t-100 17zM969 1600l-420 -430h-160l350 430h230z" />
<glyph unicode="&#xed;" horiz-adv-x="530" d="M355 475q0 -48 1.5 -113.5t4 -132.5t6 -128t8.5 -101h-205v530q0 73 -0.5 144t-2 134.5t-4.5 118t-8 93.5h200v-545v0zM665 1600l-420 -430h-160l350 430h230z" />
<glyph unicode="&#xf3;" horiz-adv-x="1140" d="M95 507q0 129 39 228.5t105 167t154 102.5t187 35q103 0 188.5 -35t147 -102.5t95.5 -167t34 -228.5t-39 -228.5t-105 -167t-154 -102t-187 -34.5q-103 0 -188.5 34.5t-147 102t-95.5 167t-34 228.5zM280 507q0 -87 21 -156t59.5 -117t91.5 -73.5t118 -25.5 q60 0 113 25.5t92.5 73.5t62 117t22.5 156q0 88 -21 157t-59.5 117t-92 73.5t-117.5 25.5q-61 0 -114 -25.5t-92 -73.5t-61.5 -117t-22.5 -157zM970 1600l-420 -430h-160l350 430h230z" />
<glyph unicode="&#xfa;" horiz-adv-x="1185" d="M475 -25q-320 0 -320 430v295q0 48 -0.5 87t-2.5 75.5t-6 74.5t-11 83h205v-555q0 -85 8.5 -146.5t28.5 -101t52.5 -58.5t80.5 -19q44 0 94 26.5t95.5 67.5t83 90.5t57.5 95.5v280q0 49 -0.5 88.5t-2.5 75.5t-6 73t-11 83h205v-570q0 -146 16.5 -255.5t48.5 -194.5h-170 q-7 17 -15 40t-15.5 49t-14 54.5t-10.5 56.5q-91 -111 -187.5 -168t-202.5 -57zM989 1600l-420 -430h-160l350 430h230z" />
<glyph unicode="&#x104;" horiz-adv-x="1395" d="M796 14q-39 -27 -67 -51t-45.5 -47.5t-26 -47t-8.5 -49.5q0 -57 36 -88.5t92 -31.5q16 0 34.5 4t37.5 12t36.5 20t31.5 29l27 -93q-46 -43 -93 -60t-95 -17q-36 0 -76 11t-73.5 34t-56 59.5t-22.5 86.5q0 67 38.5 125.5t120.5 103.5h109zM40 0l27 63l30.5 74.5l36.5 94.5 l46 123l400 1105h215l400 -1105l45 -123l37 -94.5l31 -74.5l27 -63h-205l-136 385h-615l-134 -385h-205zM685 1265l-252 -725h507z" />
<glyph unicode="&#x105;" horiz-adv-x="1150" d="M564 -11q-39 -27 -67 -51t-45.5 -47.5t-26 -47t-8.5 -49.5q0 -57 36 -88.5t92 -31.5q16 0 34.5 4t37.5 12t36.5 20t31.5 29l27 -93q-46 -43 -93 -60t-95 -17q-36 0 -76 11t-73.5 34t-56 59.5t-22.5 86.5q0 67 38.5 125.5t120.5 103.5h109zM1000 530q0 -189 21 -317.5 t54 -212.5h-175l-14 36t-18.5 52.5t-18 63.5t-14.5 68q-39 -50 -82.5 -94t-91.5 -78t-100 -53.5t-106 -19.5q-63 0 -125.5 27t-112.5 81t-81 135.5t-31 191.5q0 115 25.5 208.5t69.5 166.5q39 64 83 112t96.5 79.5t115.5 47.5t140 16q38 0 84.5 -5.5t95 -15.5t96.5 -24 t89 -30v-435zM595 870q-32 0 -64.5 -7.5t-64 -25.5t-61 -47.5t-55.5 -74.5q-27 -46 -43.5 -114.5t-16.5 -140.5q0 -83 15.5 -142.5t41 -98t58 -56.5t65.5 -18q42 0 91.5 26t96.5 69t88.5 99t68.5 116v375q-15 7 -38.5 14t-52 13t-62 9.5t-67.5 3.5z" />
<glyph unicode="&#x10c;" horiz-adv-x="1355" d="M1230 140q-44 -41 -103 -71.5t-123.5 -51.5t-130.5 -31.5t-123 -10.5q-152 0 -273 51.5t-206 147t-130.5 231.5t-45.5 305q0 193 56 338.5t149.5 242.5t215.5 145.5t254 48.5q54 0 110 -7t112.5 -23t112.5 -43t110 -67l-60 -180q-47 42 -96 71t-98 46.5t-97.5 25 t-93.5 7.5q-105 0 -193 -36.5t-151.5 -109.5t-99.5 -181.5t-36 -252.5q0 -116 31 -222t91 -186.5t147.5 -128.5t200.5 -48q57 0 115.5 13t114.5 37.5t107 58.5t93 76zM475 2030l275 -280l275 280h150l-340 -430h-170l-340 430h150z" />
<glyph unicode="&#x10d;" horiz-adv-x="1020" d="M615 1040q100 0 172.5 -23.5t127.5 -61.5l-35 -180q-68 50 -135 75t-145 25q-67 0 -124.5 -25.5t-100 -73.5t-66.5 -118t-24 -158q0 -81 22 -147t63 -113.5t99 -73.5t131 -26q91 0 165 31t140 89l20 -175q-38 -29 -75.5 -49.5t-78.5 -34t-88 -20t-103 -6.5 q-101 0 -189 35.5t-154 102.5t-104 162t-38 215q0 113 36.5 213t104 175t164 118.5t215.5 43.5zM295 1600l275 -280l275 280h150l-340 -430h-170l-340 430h150z" />
<glyph unicode="&#x12e;" horiz-adv-x="975" d="M532 14q-39 -27 -67 -51t-45.5 -47.5t-26 -47t-8.5 -49.5q0 -57 36 -88.5t92 -31.5q16 0 34.5 4t37.5 12t36.5 20t31.5 29l27 -93q-46 -43 -93 -60t-95 -17q-36 0 -76 11t-73.5 34t-56 59.5t-22.5 86.5q0 67 38.5 125.5t120.5 103.5h109zM815 1460v-145h-245v-1170h245 v-145h-675v145h240v1170h-240v145h675z" />
<glyph unicode="&#x12f;" horiz-adv-x="565" d="M347 14q-39 -27 -67 -51t-45.5 -47.5t-26 -47t-8.5 -49.5q0 -57 36 -88.5t92 -31.5q16 0 34.5 4t37.5 12t36.5 20t31.5 29l27 -93q-46 -43 -93 -60t-95 -17q-36 0 -76 11t-73.5 34t-56 59.5t-22.5 86.5q0 67 38.5 125.5t120.5 103.5h109zM375 475q0 -48 1.5 -113.5 t4 -132.5t6 -128t8.5 -101h-205v530q0 73 -0.5 144t-2 134.5t-4.5 118t-8 93.5h200v-545zM155 1345q0 28 9.5 52.5t26.5 43t40 29t51 10.5t51.5 -10.5t40.5 -29t26.5 -43t9.5 -52.5t-9.5 -52.5t-26.5 -43t-40.5 -29t-51.5 -10.5t-51 10.5t-40 29t-26.5 43t-9.5 52.5z" />
<glyph unicode="&#x131;" horiz-adv-x="530" d="M355 475q0 -48 1.5 -113.5t4 -132.5t6 -128t8.5 -101h-205v530q0 73 -0.5 144t-2 134.5t-4.5 118t-8 93.5h200v-545v0z" />
<glyph unicode="&#x147;" horiz-adv-x="1500" d="M340 1150v-1150h-180q11 60 13 173.5t2 261.5v590q0 148 -2 261.5t-13 173.5h180l795 -1160v1160h180q-5 -30 -8 -74t-4.5 -99.5t-2 -121.5t-0.5 -140v-1025h-165zM462 2030l275 -280l275 280h150l-340 -430h-170l-340 430h150z" />
<glyph unicode="&#x148;" horiz-adv-x="1185" d="M720 1040q160 0 245 -104.5t85 -310.5v-625h-185v550q0 94 -12.5 155t-37 96.5t-62 49.5t-88.5 14q-54 0 -105.5 -25.5t-94.5 -66t-76 -91.5t-49 -102v-580h-185v615q0 148 -16.5 250.5t-33.5 154.5h180q6 -16 12 -41.5t11 -53.5l9.5 -55l7.5 -45q95 114 192 164.5 t203 50.5zM325 1600l275 -280l275 280h150l-340 -430h-170l-340 430h150z" />
<glyph unicode="&#x14a;" horiz-adv-x="1466" d="M1085 785q0 134 -12 229t-42 155t-82.5 88t-133.5 28q-48 0 -94 -19.5t-88.5 -53t-81 -77.5t-69.5 -93.5t-54.5 -101.5t-37.5 -100v-840h-205q11 60 13 170.5t2 259.5v450q0 105 -6 194t-16 161t-21.5 127.5t-21.5 92.5h185q7 -23 14.5 -59t14 -75.5l12.5 -77t9 -63.5 q60 81 122.5 139t126.5 95t129.5 54t131.5 17q93 0 166.5 -37.5t124 -112t77.5 -185.5t27 -258v-747q0 -159 -27.5 -275t-85.5 -191.5t-146.5 -112t-210.5 -36.5q-40 0 -84.5 7.5t-85.5 18.5t-75.5 24.5t-54.5 24.5l35 185q20 -14 52 -29.5t69.5 -29t76.5 -22.5t72 -9 q63 0 114 21.5t87 67t55 117.5t19 174v705z" />
<glyph unicode="&#x14b;" horiz-adv-x="1185" d="M1050 105q0 -144 -24.5 -252t-76.5 -180t-133.5 -107.5t-195.5 -35.5q-36 0 -75 6.5t-76.5 17.5t-72 25.5t-61.5 31.5l65 159q20 -15 46 -28.5t55 -24t59.5 -16.5t59.5 -6q67 0 113.5 24t76 69t42.5 109t13 143v445q0 120 -12.5 194.5t-37.5 116t-62.5 55.5t-87.5 14 q-54 0 -105.5 -25.5t-94.5 -66t-76 -91.5t-49 -102v-580h-185v615q0 148 -17 250.5t-33 154.5h180q6 -16 12 -41.5t11 -53.5l9.5 -55l7.5 -45q96 114 193 164.5t202 50.5q80 0 141.5 -26.5t103.5 -84t63.5 -149t21.5 -220.5v-455v0z" />
<glyph unicode="&#x160;" horiz-adv-x="1175" d="M960 1200q-54 30 -99.5 50.5t-88.5 34t-86 19.5t-91 6q-60 0 -109.5 -18t-85.5 -48t-55.5 -69t-19.5 -80t11.5 -74.5t46.5 -63t100 -58t172 -59.5q99 -29 175.5 -67.5t128.5 -88.5t79 -114t27 -145q0 -101 -39.5 -183.5t-108 -142t-159.5 -92t-193 -32.5q-72 0 -140.5 10 t-129 28t-111.5 42.5t-89 54.5l45 205q100 -87 206.5 -126t218.5 -39q60 0 116 17t99 49.5t69 80t26 108.5q0 39 -12.5 74.5t-50.5 69.5t-109 67.5t-188 68.5t-191 77t-116 91.5t-57.5 106t-15.5 120.5t26.5 135t83.5 131t146 99.5t214 39.5q58 0 108.5 -5t98 -16t93.5 -28 t95 -41zM305 2030l275 -280l275 280h150l-340 -430h-170l-340 430h150z" />
<glyph unicode="&#x161;" horiz-adv-x="965" d="M515 1040q54 0 101.5 -7t87 -18.5t72.5 -26t59 -28.5l-35 -175q-25 15 -56.5 31.5t-68 30.5t-79 23.5t-88.5 9.5q-55 0 -93 -12t-61 -30.5t-33.5 -42t-10.5 -45.5q0 -26 8 -46t33.5 -37t72.5 -33t126 -34q68 -15 128 -38.5t105 -59.5t71 -86.5t26 -120.5q0 -68 -30 -126 t-82 -101.5t-122 -68t-151 -24.5q-61 0 -117.5 9t-106 25t-90.5 37t-71 44l50 180q34 -30 76.5 -55t87.5 -43t90.5 -27.5t85.5 -9.5q44 0 80.5 11.5t63 30t41.5 43t15 50.5q0 28 -11.5 52.5t-42 47t-84 43.5t-137.5 42q-91 22 -148.5 52t-90 66t-44.5 78t-12 89q0 23 7.5 54 t25 64.5t46 66t71.5 58t101 41.5t134 16zM220 1600l275 -280l275 280h150l-340 -430h-170l-340 430h150z" />
<glyph unicode="&#x172;" horiz-adv-x="1440" d="M764 -11q-39 -27 -67 -51t-45.5 -47.5t-26 -47t-8.5 -49.5q0 -57 36 -88.5t92 -31.5q16 0 34.5 4t37.5 12t36.5 20t31.5 29l27 -93q-46 -43 -93 -60t-95 -17q-36 0 -76 11t-73.5 34t-56 59.5t-22.5 86.5q0 67 38.5 125.5t120.5 103.5h109zM1255 1460 q-10 -60 -12.5 -169.5t-2.5 -265.5v-510q0 -122 -32 -221.5t-97.5 -170.5t-165.5 -109.5t-235 -38.5q-137 0 -237.5 38.5t-166.5 109.5t-98.5 170.5t-32.5 221.5v510q0 148 -2.5 261.5t-12.5 173.5h205v-900q0 -98 17 -176.5t57 -134t106 -85t165 -29.5q97 0 162 29.5 t104.5 85t56.5 134t17 176.5v900h205v0z" />
<glyph unicode="&#x173;" horiz-adv-x="1185" d="M584 -11q-39 -27 -67 -51t-45.5 -47.5t-26 -47t-8.5 -49.5q0 -57 36 -88.5t92 -31.5q16 0 34.5 4t37.5 12t36.5 20t31.5 29l27 -93q-46 -43 -93 -60t-95 -17q-36 0 -76 11t-73.5 34t-56 59.5t-22.5 86.5q0 67 38.5 125.5t120.5 103.5h109zM475 -25q-320 0 -320 430v295 q0 48 -0.5 87t-2.5 75.5t-6 74.5t-11 83h205v-555q0 -85 8.5 -146.5t28.5 -101t52.5 -58.5t80.5 -19q44 0 94 26.5t95.5 67.5t83 90.5t57.5 95.5v280q0 49 -0.5 88.5t-2.5 75.5t-6 73t-11 83h205v-570q0 -146 16.5 -255.5t48.5 -194.5h-170q-7 17 -15 40t-15.5 49t-14 54.5 t-10.5 56.5q-91 -111 -187.5 -168t-202.5 -57z" />
<glyph unicode="&#x17d;" horiz-adv-x="1230" d="M1105 1330l-795 -1165h390q147 0 261 4.5t174 15.5v-185h-1060v125l795 1170h-340q-74 0 -133.5 -0.5t-107.5 -3t-86 -6.5t-68 -10v185h970v-130zM330 2030l275 -280l275 280h150l-340 -430h-170l-340 430h150z" />
<glyph unicode="&#x17e;" horiz-adv-x="1040" d="M930 1020v-95l-595 -775h430q44 0 89.5 2t90.5 13v-165h-840v110l575 760h-390q-45 0 -86 -2t-69 -13v165h795zM250 1600l275 -280l275 280h150l-340 -430h-170l-340 430h150z" />
<glyph unicode="&#x1dd;" horiz-adv-x="1048" d="M485 -27q-124 0 -203.5 41t-125.5 108.5t-64 153t-18 174.5v38.5t1 38.5h698q-2 82 -26.5 146t-67.5 108t-101.5 67t-126.5 23q-97 0 -181.5 -31.5t-167.5 -92.5l-20 165q51 31 97.5 54t93.5 39t97 24t107 8q96 0 183 -33t153 -97.5t105 -159t39 -218.5t-29 -226.5 t-88 -175.5t-147.5 -113.5t-207.5 -40.5zM499 118q63 0 109.5 18.5t78.5 53t51 84.5t28 113h-508q0 -130 61.5 -199.5t179.5 -69.5z" />
<glyph unicode="&#x1e6;" horiz-adv-x="1420" d="M1275 155q-77 -54 -145 -89t-132 -55t-126 -28t-127 -8q-142 0 -261 49t-205.5 144t-135 233.5t-48.5 318.5t53.5 322t146.5 240.5t218.5 150.5t269.5 52q61 0 118.5 -5.5t115 -20.5t117.5 -42.5t126 -71.5l-65 -180q-56 45 -108.5 74.5t-103.5 46t-100.5 23t-99.5 6.5 q-114 0 -205.5 -40t-155.5 -114t-98 -179.5t-34 -236.5q0 -138 32.5 -248t93.5 -187.5t147.5 -118.5t193.5 -41q45 0 84.5 4.5t78.5 15.5t79 29t86 46v335h-350v165h540v-590zM470 2030l275 -280l275 280h150l-340 -430h-170l-340 430h150z" />
<glyph unicode="&#x1e7;" horiz-adv-x="1125" d="M990 25q0 -132 -38.5 -226t-101 -153.5t-142.5 -87.5t-163 -28q-96 0 -190.5 32.5t-174.5 86.5l65 156q71 -51 143 -83t147 -32q39 0 86 14t88 48.5t68.5 92.5t27.5 145v185q-39 -49 -82.5 -83.5t-88 -56t-89 -31t-85.5 -9.5q-69 0 -133 24t-113.5 76.5t-79 136.5 t-29.5 203q0 115 30 224t93 193.5t161.5 136t235.5 51.5q45 0 92.5 -6.5t94.5 -17.5t92 -24.5l86 -26.5v-940zM595 870q-82 0 -140 -33.5t-94.5 -88t-53.5 -123.5t-17 -140q0 -93 14.5 -154.5t40 -98t60 -52t75.5 -15.5q38 0 81 15.5t86.5 44.5t84 72t73.5 98v435 q-24 9 -51 16.5t-55 12.5t-54.5 8t-49.5 3zM320 1600l275 -280l275 280h150l-340 -430h-170l-340 430h150z" />
<glyph unicode="&#x1f0;" horiz-adv-x="595" d="M37 2032l275 -280l275 280h150l-340 -430h-170l-340 430h150zM405 25q0 -140 -26.5 -235t-76 -152.5t-119 -82.5t-154.5 -25q-21 0 -49.5 4.5t-58.5 12.5t-59.5 20.5t-51.5 27.5l35 165q16 -12 40.5 -23t51.5 -19.5t53.5 -13t47.5 -4.5q40 0 73.5 15.5t57.5 48.5t37.5 85 t13.5 126v555q0 73 -0.5 144t-2 134.5t-4.5 118t-8 93.5h200v-995zM185 1345q0 28 9.5 52.5t26.5 43t40 29t51 10.5t51.5 -10.5t40.5 -29t26.5 -43t9.5 -52.5t-9.5 -52.5t-26.5 -43t-40.5 -29t-51.5 -10.5t-51 10.5t-40 29t-26.5 43t-9.5 52.5z" />
<glyph unicode="&#x21e;" horiz-adv-x="1475" d="M1085 0v675h-720v-675h-205q11 60 13 170.5t2 259.5v600q0 149 -2 259.5t-13 170.5h205v-625h720v625h205q-11 -60 -13 -170.5t-2 -259.5v-600q0 -149 2 -259.5t13 -170.5h-205zM450 2030l275 -280l275 280h150l-340 -430h-170l-340 430h150z" />
<glyph unicode="&#x21f;" horiz-adv-x="1175" d="M710 1040q160 0 245 -104.5t85 -310.5v-625h-185v550q0 94 -12.5 155t-37.5 96.5t-62.5 49.5t-87.5 14q-54 0 -105.5 -25.5t-94.5 -66t-76 -91.5t-49 -102v-580h-185v1130q0 162 -2 283.5t-13 186.5h200v-770q74 105 174 157.5t206 52.5zM310 2135l275 -280l275 280h150 l-340 -430h-170l-340 430h150z" />
<glyph unicode="&#x259;" horiz-adv-x="1048" d="M485 -27q-124 0 -203.5 41t-125.5 108.5t-64 153t-18 174.5v38.5t1 38.5h698q-2 82 -26.5 146t-67.5 108t-101.5 67t-126.5 23q-97 0 -181.5 -31.5t-167.5 -92.5l-20 165q51 31 97.5 54t93.5 39t97 24t107 8q96 0 183 -33t153 -97.5t105 -159t39 -218.5t-29 -226.5 t-88 -175.5t-147.5 -113.5t-207.5 -40.5zM499 118q63 0 109.5 18.5t78.5 53t51 84.5t28 113h-508q0 -130 61.5 -199.5t179.5 -69.5z" />
<glyph unicode="&#x2bc;" horiz-adv-x="605" d="M240 920l-4 109.5t-6 121.5t-11 141t-19 168h205q-11 -92 -18 -168t-11 -141t-6.5 -121.5t-4.5 -109.5h-125z" />
<glyph unicode="&#x2c7;" horiz-adv-x="850" d="M150 1600l275 -280l275 280h150l-340 -430h-170l-340 430h150z" />
<glyph unicode="&#x2db;" horiz-adv-x="416" d="M268 2q-39 -27 -67 -51t-45.5 -47.5t-26 -47t-8.5 -49.5q0 -57 36 -88.5t92 -31.5q16 0 34.5 4t37.5 12t36.5 20t31.5 29l27 -93q-46 -43 -93 -60t-95 -17q-36 0 -76 11t-73.5 34t-56 59.5t-22.5 86.5q0 67 38.5 125.5t120.5 103.5h109z" />
<glyph unicode="&#x301;" horiz-adv-x="0" d="M-170 1600l-420 -430h-160l350 430h230z" />
<glyph unicode="&#x30c;" horiz-adv-x="0" d="M-845 1600l275 -280l275 280h150l-340 -430h-170l-340 430h150z" />
<glyph unicode="&#x2013;" horiz-adv-x="1055" d="M80 705h895v-150h-895v150z" />
<glyph unicode="&#x2014;" horiz-adv-x="1735" d="M80 705h1575v-150h-1575v150z" />
<glyph unicode="&#x2018;" horiz-adv-x="530" d="M435 1165q-5 -24 -18.5 -42.5t-32.5 -31t-41 -19.5t-43 -7q-30 0 -56.5 11.5t-46 33t-31 52t-11.5 68.5q0 92 43.5 182t131.5 173l100 -40q-22 -22 -45.5 -54t-43.5 -69.5t-33 -78t-13 -78.5h140v-100z" />
<glyph unicode="&#x2019;" horiz-adv-x="548" d="M165 1485q5 24 18.5 42.5t32.5 31t41 19.5t43 7q30 0 56.5 -11.5t46 -33t31 -52t11.5 -68.5q0 -92 -43.5 -182t-131.5 -173l-100 40q22 22 45.5 54t43.5 69.5t33 78t13 78.5h-140v100z" />
<glyph unicode="&#x201a;" horiz-adv-x="760" d="M265 150q5 24 18.5 42.5t32.5 31t41 19.5t43 7q30 0 56.5 -11.5t46 -33t31 -52t11.5 -68.5q0 -92 -43.5 -182t-131.5 -173l-100 40q22 22 45.5 54t43.5 69.5t33 78t13 78.5h-140v100z" />
<glyph unicode="&#x201c;" horiz-adv-x="1050" d="M915 1165q-5 -24 -18.5 -42.5t-32.5 -31t-41 -19.5t-43 -7q-30 0 -56.5 11.5t-46 33t-31 52t-11.5 68.5q0 92 43.5 182t131.5 173l100 -40q-22 -22 -45.5 -54t-43.5 -69.5t-33 -78t-13 -78.5h140v-100zM485 1165q-5 -24 -18.5 -42.5t-32.5 -31t-41 -19.5t-43 -7 q-30 0 -56.5 11.5t-46 33t-31 52t-11.5 68.5q0 92 43.5 182t131.5 173l100 -40q-22 -22 -45.5 -54t-43.5 -69.5t-33 -78t-13 -78.5h140v-100z" />
<glyph unicode="&#x201d;" horiz-adv-x="1010" d="M205 1485q5 24 18.5 42.5t32.5 31t41 19.5t43 7q30 0 56.5 -11.5t46 -33t31 -52t11.5 -68.5q0 -92 -43.5 -182t-131.5 -173l-100 40q22 22 45.5 54t43.5 69.5t33 78t13 78.5h-140v100zM635 1485q5 24 18.5 42.5t32.5 31t41 19.5t43 7q30 0 56.5 -11.5t46 -33t31 -52 t11.5 -68.5q0 -92 -43.5 -182t-131.5 -173l-100 40q22 22 45.5 54t43.5 69.5t33 78t13 78.5h-140v100z" />
<glyph unicode="&#x201e;" horiz-adv-x="990" d="M215 150q5 24 18.5 42.5t32.5 31t41 19.5t43 7q30 0 56.5 -11.5t46 -33t31 -52t11.5 -68.5q0 -92 -43.5 -182t-131.5 -173l-100 40q22 22 45.5 54t43.5 69.5t33 78t13 78.5h-140v100zM645 150q5 24 18.5 42.5t32.5 31t41 19.5t43 7q30 0 56.5 -11.5t46 -33t31 -52 t11.5 -68.5q0 -92 -43.5 -182t-131.5 -173l-100 40q22 22 45.5 54t43.5 69.5t33 78t13 78.5h-140v100z" />
<glyph unicode="&#x2020;" horiz-adv-x="1025" d="M527 1043h-28l-82 287l96 155l96 -155zM843 906l-287 80v28l287 82l153 -96zM183 906l-153 94l153 96l289 -82v-28zM527 -249h-28l-90 866l90 340h28l90 -340z" />
<glyph unicode="&#x2021;" horiz-adv-x="1024" d="M526 1043h-28l-80 287l94 155l96 -155zM842 906l-287 80v28l287 82l153 -96zM182 906l-152 94l152 96l289 -82v-28zM526 275h-28l-109 342l109 340h28l107 -342zM842 136l-287 80v30l287 80l153 -94zM182 136l-152 96l152 94l289 -80v-30zM512 -253l-94 155l80 287h28 l82 -287z" />
<glyph unicode="&#x2022;" horiz-adv-x="940" d="M250 733q0 45 17.5 85t47 69.5t69.5 47t85 17.5t85 -17.5t70.5 -47t48 -69.5t17.5 -85t-17.5 -85t-48 -70.5t-70.5 -48t-85 -17.5t-85 17.5t-69.5 48t-47 70.5t-17.5 85z" />
<glyph unicode="&#x2026;" horiz-adv-x="1724" d="M185 109q0 28 10.5 52.5t28.5 42.5t42.5 28.5t52.5 10.5t52.5 -10.5t42.5 -28.5t28.5 -42.5t10.5 -52.5t-10.5 -52.5t-28.5 -42.5t-42.5 -28.5t-52.5 -10.5t-52.5 10.5t-42.5 28.5t-28.5 42.5t-10.5 52.5zM728 109q0 28 10.5 52.5t28.5 42.5t42.5 28.5t52.5 10.5 t52.5 -10.5t42.5 -28.5t28.5 -42.5t10.5 -52.5t-10.5 -52.5t-28.5 -42.5t-42.5 -28.5t-52.5 -10.5t-52.5 10.5t-42.5 28.5t-28.5 42.5t-10.5 52.5zM1271 109q0 28 10.5 52.5t28.5 42.5t42.5 28.5t52.5 10.5t52.5 -10.5t42.5 -28.5t28.5 -42.5t10.5 -52.5t-10.5 -52.5 t-28.5 -42.5t-42.5 -28.5t-52.5 -10.5t-52.5 10.5t-42.5 28.5t-28.5 42.5t-10.5 52.5z" />
<glyph unicode="&#x20ac;" d="M60 945h122q31 122 90.5 214t135.5 153.5t163.5 92t174.5 30.5q51 0 97 -6.5t91 -22t91 -41t97 -63.5l-57 -171q-45 40 -84 67.5t-77 44t-76.5 23.5t-81.5 7q-63 0 -121.5 -20.5t-108.5 -62t-88.5 -103t-61.5 -142.5h490l-40 -145h-475q-3 -38 -3 -78v-24t1 -23h449 l-40 -145h-386q20 -78 55 -144.5t83 -115t108 -76.5t129 -28q54 0 102 12.5t92.5 35.5t85.5 55.5t81 72.5l38 -185q-41 -39 -90 -68t-101.5 -49t-108 -30t-109.5 -10q-109 0 -202.5 36.5t-166 105t-122 167t-70.5 221.5h-146l40 145h93v23q0 26 1 51.5t3 50.5h-137z" />
</font>
</defs>
</svg>
