<?xml version="1.0" standalone="no"?>
<!DOCTYPE svg PUBLIC "-//W3C//DTD SVG 1.1//EN" "http://www.w3.org/Graphics/SVG/1.1/DTD/svg11.dtd" >
<svg xmlns="http://www.w3.org/2000/svg">
<metadata>
This is a custom SVG webfont generated by Font Squirrel.
Designer    : Annie Olsen  Victor Gaultney
Foundry     : SIL International Lakota Language Consortium
Foundry URL : httpwwwlakhotaorg
</metadata>
<defs>
<font id="webfontHYgttvm0" horiz-adv-x="1200" >
<font-face units-per-em="2048" ascent="1638" descent="-410" />
<missing-glyph horiz-adv-x="550" />
<glyph unicode=" "  horiz-adv-x="550" />
<glyph unicode="&#x09;" horiz-adv-x="550" />
<glyph unicode="&#xa0;" horiz-adv-x="550" />
<glyph unicode="!" horiz-adv-x="764" d="M209 126q0 32 12 59.5t32 47.5t48 32t59 12q32 0 59.5 -12t47.5 -32t32 -47.5t12 -59.5q0 -31 -12 -58.5t-32 -47.5t-47.5 -32t-59.5 -12q-31 0 -59 12t-48 32t-32 47.5t-12 58.5zM264 428q-2 44 -3 99t-2 103q-4 183 -12.5 404t-29.5 474h291q-26 -277 -33.5 -514.5 t-10.5 -432.5q0 -15 -0.5 -32l-1 -35l-1 -35t-0.5 -31h-197z" />
<glyph unicode="&#x22;" horiz-adv-x="1025" d="M267 895q0 9 -0.5 27t-0.5 27q-1 48 -3.5 100t-7 113t-11.5 134t-19 163h244q-12 -100 -19.5 -181t-12 -148.5t-7 -124.5t-4.5 -110h-159zM598 895q0 9 -0.5 27t-0.5 27q-1 48 -3.5 100t-7 113t-11.5 134t-19 163h244q-12 -100 -19.5 -181t-12 -148.5t-7 -124.5 t-4.5 -110h-159z" />
<glyph unicode="#" d="M457 744h228l27 94t27 96h-228zM79 1119h299l48.5 170.5l48.5 169.5h186l-97 -340h228l48.5 170.5l48.5 169.5h186l-98 -340h202v-185h-254l-27.5 -94l-27.5 -96h251v-185h-303l-52.5 -182l-51.5 -182h-186l104 364h-228l-52.5 -182l-51.5 -182h-185l104 364h-198v185 h250l27.5 94l27.5 96h-247v185z" />
<glyph unicode="$" d="M391 1021q0 -25 6 -46.5t22.5 -41t44.5 -38t71 -36.5v325q-33 -9 -59.5 -26t-45 -38.5t-29 -47t-10.5 -51.5zM844 405q0 23 -5.5 45t-21 43t-44 42t-73.5 42v-362q63 23 103.5 70.5t40.5 119.5zM953 1086q-81 44 -140 67.5t-113 33.5v-384q85 -27 151 -62.5t111 -82 t68 -104.5t23 -132q0 -81 -26.5 -150t-73.5 -122t-111.5 -88.5t-141.5 -50.5v-225h-165v214q-120 6 -222.5 42t-169.5 90l50 229q88 -78 173 -117t169 -47v439h1q-109 33 -178 72.5t-108 86t-53.5 100.5t-14.5 114q0 54 20 114t63 113t110 93.5t160 53.5v212h165v-208 q78 -6 148 -27t150 -59z" />
<glyph unicode="%" horiz-adv-x="1526" d="M1228 376q0 67 -6 112.5t-19.5 73t-33.5 39.5t-49 12q-27 0 -47 -11.5t-33 -38t-19.5 -69t-6.5 -104.5q0 -67 6.5 -113t19.5 -74t33 -40t47 -12q26 0 46.5 12t34 38.5t20.5 69.5t7 105zM512 1066q0 68 -6 113.5t-19.5 73t-33.5 39.5t-49 12q-27 0 -47 -12t-33 -38 t-19.5 -68.5t-6.5 -104.5q0 -67 6.5 -113t19.5 -74t33 -40t47 -12q53 0 80.5 50.5t27.5 173.5zM1258 1479l-779 -1503h-207l781 1503h205zM1427 388q0 -113 -23 -191.5t-64 -127.5t-98.5 -71t-125.5 -22q-69 0 -124.5 22t-94.5 70.5t-60.5 124.5t-21.5 184t23 186t64 128 t98 73.5t125 23.5t124 -23.5t95.5 -72t61 -124t21.5 -180.5zM711 1079q0 -114 -23 -192.5t-64 -127.5t-98.5 -71t-125.5 -22q-69 0 -124.5 22t-94.5 70.5t-60.5 125t-21.5 184.5t23 186t64 128t98 73.5t125 23.5t124 -23.5t95.5 -72t61 -124t21.5 -180.5z" />
<glyph unicode="&#x26;" horiz-adv-x="1222" d="M338 1187q0 -15 10 -37.5t27 -50.5t40.5 -61l50.5 -70q69 70 107 125t38 99q0 28 -11 50.5t-29 38t-42 24t-50 8.5q-25 0 -50 -7.5t-45 -22.5t-33 -39t-13 -57zM522 562l-43 61l-45 61q-69 -70 -109 -142t-40 -163q0 -38 11 -73t33 -62t55.5 -43t78.5 -16q54 0 118 32.5 t129 85.5l-90 122zM494 1484q59 0 115 -20t99.5 -58t70 -93t26.5 -126q0 -40 -17.5 -84.5t-48 -91.5t-72 -95.5t-90.5 -97.5l46 -63.5t43 -62.5q48 -75 93 -138l87 -118q39 45 69 90t45 87l131 -168q-17 -36 -47 -78.5t-68 -87.5q69 -78 124 -123t97 -62l-42 -35.5 t-51 -38.5t-50 -31t-39 -13q-23 0 -68.5 44t-110.5 123q-43 -35 -90.5 -65.5t-97.5 -53t-101 -35.5t-102 -13q-75 0 -141 29t-115.5 82t-78.5 127.5t-29 164.5q0 72 18.5 133t51 115.5t77 104.5t96.5 100q-37 50 -69 97.5t-55.5 90.5t-37 81t-13.5 71q0 75 31 133.5t80.5 98 t111 60t122.5 20.5z" />
<glyph unicode="'" horiz-adv-x="605" d="M222 895q0 9 -0.5 27t-0.5 27q-1 48 -3.5 100t-6.5 113t-11.5 134t-19.5 163h245q-12 -100 -19.5 -181t-12 -148.5t-7 -124.5t-4.5 -110h-160z" />
<glyph unicode="(" horiz-adv-x="795" d="M103 627q0 163 32.5 313.5t92 281.5t143.5 239t186 184l90 -186q-87 -76 -148 -167.5t-99.5 -196.5t-56 -222.5t-17.5 -245.5q0 -125 17.5 -239.5t56 -221.5t100 -207t148.5 -195l-114 -175q-212 220 -321.5 479t-109.5 559z" />
<glyph unicode=")" horiz-adv-x="795" d="M692 627q0 -300 -109.5 -559t-321.5 -479l-113 174q83 95 143.5 195t100 207t58.5 222t19 240q0 121 -19 237.5t-58.5 223.5t-100 201t-143.5 170l90 186q102 -76 186 -184t143.5 -239t92 -281.5t32.5 -313.5z" />
<glyph unicode="*" horiz-adv-x="1028" d="M580 1595l-9 -88.5t-6.5 -70t-4.5 -59.5t-2 -57q48 32 100.5 71l124.5 97l89 -159l-78 -37l-62.5 -30l-54 -27.5l-53.5 -28.5q38 -17 81.5 -34.5l94.5 -38.5l18.5 -7l22.5 -9l23 -10t19 -8l-95 -159l-70.5 49.5l-56.5 39l-50.5 33l-51.5 31.5l4 -55t6 -61t9.5 -72 l12.5 -88h-181q4 49 7.5 86.5t6 69t4.5 60t3 59.5q-46 -31 -100.5 -72l-123.5 -96l-89 160l78 36.5l62.5 29l54.5 27l54 28.5q-40 19 -90 39.5l-100 40.5l-35 14l-35 14l95 159l70.5 -50l56.5 -40l50 -33.5t51 -30.5q-3 45 -9.5 93t-15.5 108q-1 6 -2 16.5t-2.5 21.5l-3 21 l-2.5 17h185z" />
<glyph unicode="+" d="M148 827h360v360h184v-360h360v-185h-360v-365h-184v365h-360v185z" />
<glyph unicode="," horiz-adv-x="650" d="M169 169q6 27 21 48t36 35.5t45.5 22t48.5 7.5q33 0 62.5 -12.5t51 -36t34 -57t12.5 -74.5q0 -95 -45.5 -188t-138.5 -181l-138 55q23 22 47.5 53t45.5 66t35.5 72t17.5 70h-135v120z" />
<glyph unicode="-" horiz-adv-x="860" d="M70 725h720v-185h-720v185z" />
<glyph unicode="." horiz-adv-x="640" d="M169 126q0 32 12 59.5t32 47.5t48 32t59 12q32 0 59.5 -12t47.5 -32t32 -47.5t12 -59.5q0 -31 -12 -58.5t-32 -47.5t-47.5 -32t-59.5 -12q-31 0 -59 12t-48 32t-32 47.5t-12 58.5z" />
<glyph unicode="/" horiz-adv-x="1000" d="M821 1562l-473 -1678l-169 38l467 1677z" />
<glyph unicode="0" d="M882 715q0 155 -18 262.5t-53.5 174.5t-88.5 97t-122 30q-66 0 -118 -29.5t-88.5 -94t-56 -166t-19.5 -245.5q0 -155 19 -262.5t55 -174.5t88.5 -97t119.5 -30q66 0 118 30t88.5 94.5t56 166t19.5 244.5zM1116 739q0 -220 -41 -367t-112 -235t-167 -124.5t-206 -36.5 t-202.5 37t-160 123.5t-105.5 229.5t-38 354t41 356.5t112.5 236t167.5 131t205 40.5q110 0 203 -39.5t160.5 -128t105 -230.5t37.5 -347z" />
<glyph unicode="1" d="M488 1212l-145 -83l-143 -82l-30 216l352 216h190v-1275h306v-204h-836v204h306v1008z" />
<glyph unicode="2" d="M1086 0h-972v195q66 47 141 109.5t149.5 134t143.5 149t121.5 155t84 152.5t31.5 141q0 63 -22 107.5t-58.5 72.5t-83 41t-94.5 13q-43 0 -90 -15t-93.5 -42t-90.5 -64t-80 -81l-56 210q32 44 81.5 82t109 65.5t125 43t128.5 15.5q92 0 174.5 -30t145.5 -85.5t100 -135 t37 -177.5q0 -79 -27 -160t-72 -160t-103.5 -155t-121.5 -144.5t-127 -129l-119 -108.5h196q143 0 255 3t187 16v-218z" />
<glyph unicode="3" d="M546 -24q-136 0 -248 47.5t-195 125.5l30 262q91 -102 199 -164t235 -62q53 0 106.5 15.5t96.5 46.5t70.5 77.5t27.5 108.5q0 55 -29.5 100.5t-81 78.5t-122 51t-152.5 18h-87v204h87q69 0 130.5 18.5t108.5 49.5t74.5 70t27.5 81q0 44 -21.5 76t-55.5 53t-76 31t-83 10 q-54 0 -102 -8.5t-93 -28.5t-89 -53t-91 -81l-43 210q33 37 77 68.5t97 54t113 35.5t124 13q94 0 178.5 -25t148.5 -71t101.5 -112t37.5 -148q0 -60 -22 -111.5t-58 -93.5t-81.5 -73t-93.5 -50q52 -16 106 -46t98 -77t72 -112t28 -152q0 -90 -45 -169.5t-120.5 -139 t-175 -94t-209.5 -34.5z" />
<glyph unicode="4" d="M722 1155l-204.5 -289.5l-207.5 -291.5h412v581zM946 384v-384h-224v384h-637v176l647 919h214v-905h184v-190h-184z" />
<glyph unicode="5" d="M187 1459h821v-228q-69 14 -129 19t-120 5h-353v-320q23 3 57 5t78 2q109 0 204.5 -33.5t167 -94.5t112.5 -145.5t41 -186.5q0 -119 -41 -213t-113.5 -159t-172.5 -99.5t-219 -34.5q-58 0 -108.5 6t-98 19.5t-94.5 35t-97 52.5l33 248q55 -45 102.5 -74t92 -45t89 -22 t93.5 -6q69 0 126 18.5t98 54.5t63.5 89.5t22.5 122.5t-30.5 117.5t-78.5 79t-106.5 44.5t-113.5 14q-37 0 -73 -4t-75 -12.5t-82.5 -22.5t-95.5 -34v802z" />
<glyph unicode="6" d="M630 185q60 0 108 20t82.5 54.5t53 81.5t18.5 101q0 120 -64 189t-186 69q-93 0 -170 -32t-134 -87q6 -78 27 -149.5t57.5 -126.5t88 -87.5t119.5 -32.5zM1120 475q0 -115 -37.5 -207.5t-105.5 -157.5t-164 -99.5t-213 -34.5q-118 0 -210 48.5t-155 139.5t-96 222 t-33 295q0 92 12.5 187.5t41 184.5t75.5 167.5t115.5 137t160.5 92.5t211 34q45 0 85 -4.5t78.5 -16t77 -30.5t81.5 -48l-54 -237q-37 36 -73 60.5t-70.5 39t-68 20.5t-66.5 6q-73 0 -136 -26.5t-112 -85t-81 -152t-43 -227.5q69 59 149 92.5t177 33.5q105 0 189.5 -32 t143 -89.5t90 -137.5t31.5 -175z" />
<glyph unicode="7" d="M257 0q41 139 81.5 261.5t83.5 232t88.5 209t95.5 193.5t104.5 184t115.5 180h-343q-135 0 -227.5 -5t-161.5 -19v223h1002v-182q-218 -299 -369.5 -617.5t-248.5 -659.5h-221z" />
<glyph unicode="8" d="M833 1094q0 50 -18.5 86.5t-50 60.5t-74 36t-90.5 12t-90.5 -12t-74 -36t-50 -60.5t-18.5 -86.5q0 -52 18.5 -92t50 -67t74 -41t90.5 -14t90.5 14t74 41t50 67t18.5 92zM882 433q0 57 -21.5 104t-59 81.5t-89 53.5t-112.5 19t-113 -19t-89.5 -53.5t-58.5 -81.5t-21 -104 q0 -60 21 -107t58.5 -79.5t89.5 -49.5t113 -17t112.5 17t89 49.5t59 79.5t21.5 107zM600 -24q-97 0 -190 29.5t-165.5 85.5t-116.5 137.5t-44 184.5q0 72 20 130.5t52.5 105t74.5 82.5t87 63q-29 18 -60 44t-56.5 62.5t-42 84.5t-16.5 109q0 94 40 167t106 122.5t150 75 t171 25.5t167.5 -25.5t143 -75t99.5 -122.5t37 -167q0 -62 -16 -109.5t-41 -83.5t-55 -62t-59 -45q40 -24 81 -59t74 -82.5t54 -107.5t21 -132q0 -103 -44 -184.5t-116.5 -137.5t-165 -85.5t-190.5 -29.5z" />
<glyph unicode="9" d="M596 1274q-60 0 -108 -19.5t-82.5 -54t-53 -81.5t-18.5 -101q0 -60 19 -108t52 -81.5t79 -51.5t100 -18q93 0 170 32.5t134 86.5q-5 78 -23.5 149.5t-53.5 126t-88 87.5t-127 33zM106 985q0 115 41.5 207.5t111.5 157t162.5 99.5t194.5 35q117 0 210.5 -51.5t159 -144.5 t100 -223t34.5 -287q0 -92 -12.5 -187t-41 -184t-75.5 -167.5t-115.5 -137t-160.5 -92.5t-211 -34q-45 0 -85 4.5t-78.5 15.5t-77 30t-81.5 48l54 237q37 -37 72.5 -61.5t70 -38.5t68.5 -20t67 -6q74 0 137 26.5t111.5 85t80 151.5t42.5 227q-68 -59 -148 -91.5t-177 -32.5 q-106 0 -190 35t-142.5 94.5t-90 138.5t-31.5 166z" />
<glyph unicode=":" horiz-adv-x="640" d="M169 788q0 32 12 59.5t32 47.5t48 32t59 12q32 0 59.5 -12t47.5 -32t32 -47.5t12 -59.5q0 -31 -12 -59t-32 -48t-47.5 -32t-59.5 -12q-31 0 -59 12t-48 32t-32 48t-12 59zM169 126q0 32 12 59.5t32 47.5t48 32t59 12q32 0 59.5 -12t47.5 -32t32 -47.5t12 -59.5 q0 -31 -12 -58.5t-32 -47.5t-47.5 -32t-59.5 -12q-31 0 -59 12t-48 32t-32 47.5t-12 58.5z" />
<glyph unicode=";" horiz-adv-x="650" d="M169 788q0 32 12 59.5t32 47.5t48 32t59 12q32 0 59.5 -12t47.5 -32t32 -47.5t12 -59.5q0 -31 -12 -59t-32 -48t-47.5 -32t-59.5 -12q-31 0 -59 12t-48 32t-32 48t-12 59zM169 169q6 27 21 48t36 35.5t45.5 22t48.5 7.5q33 0 62.5 -12.5t51 -36t34 -57t12.5 -74.5 q0 -95 -45.5 -188t-138.5 -181l-138 55q23 22 47.5 53t45.5 66t35.5 72t17.5 70h-135v120z" />
<glyph unicode="&#x3c;" d="M1086 229l-992 404v193l992 405v-218l-732 -283l366.5 -142l365.5 -141v-218z" />
<glyph unicode="=" d="M114 652h972v-185h-972v185zM114 992h972v-185h-972v185z" />
<glyph unicode="&#x3e;" d="M114 1231l992 -405v-193l-992 -404v218l732 283l-366.5 141.5l-365.5 141.5v218z" />
<glyph unicode="?" horiz-adv-x="1050" d="M339 126q0 24 9 44.5t24 35.5t35.5 23.5t43.5 8.5t43.5 -8.5t35.5 -23.5t24 -35.5t9 -44.5q0 -23 -9 -43.5t-24 -35.5t-35.5 -23.5t-43.5 -8.5t-43.5 8.5t-35.5 23.5t-24 35.5t-9 43.5zM461 1537q81 0 150.5 -19t120.5 -58t79.5 -97.5t28.5 -136.5q0 -68 -33.5 -139 t-112.5 -157q-46 -51 -74 -93t-43 -83.5t-20 -84.5t-5 -96v-54q0 -17 0.5 -44.5t0.5 -46.5h-209v51q0 66 2.5 135t15 136t38 127.5t71.5 108.5q45 47 71 79.5t39.5 58t17 47t3.5 45.5q0 18 -8.5 38t-28 36.5t-52 27t-80.5 10.5q-55 0 -119.5 -30.5t-130.5 -99.5l-55 218 q27 26 65 48.5t81.5 38.5t91.5 25t95 9z" />
<glyph unicode="@" horiz-adv-x="1702" d="M848 878q-22 0 -45 -5t-45.5 -18t-44 -34t-40.5 -53q-20 -34 -32 -85.5t-12 -105.5q0 -60 10.5 -102.5t27.5 -70.5t39 -41t45 -13q30 0 65 19t69.5 50.5t65 72.5t50.5 86v276q-25 10 -65.5 17t-87.5 7zM1606 699q0 -126 -32.5 -223.5t-84.5 -164t-118 -101t-134 -34.5 q-45 0 -77 13.5t-56 37t-41.5 55.5t-32.5 69q-30 -36 -64 -68t-70.5 -55t-76 -36.5t-81.5 -13.5q-52 0 -104.5 22t-94.5 67t-68.5 112.5t-26.5 158.5q0 94 21.5 169t56.5 135q32 53 68 92t79.5 65t95 39t114.5 13q30 0 68.5 -5t79.5 -14t82 -20.5t76 -25.5v-354 q0 -88 6 -143.5t17 -87t26 -42.5t32 -11q23 0 50.5 20t52.5 60t41.5 100.5t16.5 141.5q0 117 -35.5 220t-105.5 179.5t-175 121t-243 44.5q-116 0 -223.5 -45.5t-189.5 -128t-131 -198.5t-49 -257q0 -102 21 -190.5t60 -162t93 -130.5t120 -96.5t141.5 -60t157.5 -20.5 q65 0 133.5 21.5t137.5 68.5l129 -134q-42 -29 -92.5 -53t-104 -41t-108.5 -26t-106 -9q-97 0 -191.5 23t-179 69t-156 114t-123.5 157t-81.5 200t-29.5 242q0 206 64 361.5t172 259.5t250 156.5t297 52.5q160 0 293.5 -50.5t230 -143.5t150 -223.5t53.5 -291.5z" />
<glyph unicode="A" horiz-adv-x="1395" d="M685 1192l-54.5 -158l-53 -155l-53.5 -155.5l-56 -159.5h437zM28 0l28 65.5l33 81.5l39.5 101l46.5 124l197.5 543.5l196.5 543.5h237l394 -1087l45.5 -124l39.5 -101l33.5 -81.5l28.5 -65.5h-243l-133 375h-569l-65.5 -188l-64.5 -187h-244z" />
<glyph unicode="B" horiz-adv-x="1285" d="M392 871h151q73 0 129 15t94.5 42.5t58 66t19.5 85.5q0 106 -64 152.5t-208 46.5q-58 0 -103 -1t-77 -3v-404zM392 189q29 -2 77.5 -3t122.5 -1q59 0 117 11.5t104 39.5t75 75t29 117q0 126 -86 189.5t-249 63.5h-190v-492zM1146 428q0 -93 -33 -173t-101 -139 t-173.5 -92.5t-250.5 -33.5q-76 0 -149.5 1.5t-132.5 3.5q-17 0 -38 1t-42.5 1.5t-41.5 1.5t-35 2q14 74 16.5 185t2.5 244v594q0 66 -0.5 128.5t-2 118t-5.5 103.5t-11 84q32 2 79 4t103 3.5t118 2.5t123 1q109 0 201 -18.5t158.5 -60.5t104 -111t37.5 -170 q0 -58 -14.5 -105.5t-41 -85t-63.5 -66.5t-82 -50q53 -18 102 -47t87.5 -73.5t61.5 -106.5t23 -147z" />
<glyph unicode="C" horiz-adv-x="1355" d="M1236 149q-46 -43 -106.5 -75t-126.5 -54t-132 -33t-123 -11q-152 0 -273.5 51.5t-207 147t-131 231t-45.5 304.5q0 193 56 338t150 242t216 145.5t254 48.5q54 0 110 -7t113.5 -24.5t116 -46t115.5 -71.5l-72 -216q-101 90 -199 125t-184 35q-97 0 -179.5 -34.5 t-141.5 -102.5t-92.5 -170.5t-33.5 -237.5q0 -108 29 -207.5t84.5 -175.5t137 -121t186.5 -45q54 0 111 14t113 40.5t109 63.5t98 82z" />
<glyph unicode="D" horiz-adv-x="1435" d="M395 197q35 -2 83 -4.5t111 -2.5q94 0 184 28.5t160.5 91.5t113.5 164t43 246q0 158 -39.5 264t-107.5 170.5t-158 92t-191 27.5h-52q-27 0 -53.5 -0.5l-51 -1t-42.5 -1.5v-1074zM171 1024q0 66 -0.5 128.5t-2 118t-5.5 103.5t-12 84q21 1 54.5 2t74.5 2.5t86.5 2.5 l90.5 2t86.5 1.5t74.5 0.5q54 0 126.5 -8.5t150.5 -35.5t154 -76t136 -130t97 -199t37 -281q0 -148 -33 -261.5t-88.5 -196.5t-128.5 -139t-153 -90t-162 -48t-155 -14q-23 0 -54 0.5t-65.5 1t-70.5 1.5l-70 2q-35 1 -75 2t-78 3h-35q15 73 17.5 185t2.5 245v594z" />
<glyph unicode="E" horiz-adv-x="1160" d="M945 861v-195h-554v-467h237q71 0 131 0.5t111 2t94.5 6t82.5 11.5v-219h-899q14 78 16.5 189.5t2.5 253.5v574q0 141 -2.5 252.5t-16.5 189.5h870v-199h-627v-399h554z" />
<glyph unicode="F" horiz-adv-x="1150" d="M955 851v-194h-564v-214q0 -144 2.5 -255t16.5 -188h-263q15 78 17.5 189.5t2.5 253.5v601q0 131 -2.5 236t-17.5 179h891v-199h-647v-409h564z" />
<glyph unicode="G" horiz-adv-x="1420" d="M1278 161q-79 -55 -148 -91t-133.5 -57t-126.5 -29t-127 -8q-142 0 -261.5 49t-206 143.5t-135 233t-48.5 318.5t53.5 322t146.5 240t218.5 150t269.5 52q61 0 119 -6t116.5 -22t120.5 -45t132 -75l-78 -216q-60 48 -114 79t-104 48.5t-97.5 24.5t-94.5 7 q-107 0 -192 -37.5t-144.5 -107t-91.5 -168.5t-32 -222q0 -130 30.5 -233.5t87 -176t137 -111t180.5 -38.5q41 0 77.5 4t72.5 13.5t73 26t77 40.5v295h-341v200h564v-603z" />
<glyph unicode="H" horiz-adv-x="1475" d="M1056 0v657h-662v-657h-243q14 78 16.5 186.5t2.5 251.5v583q0 143 -2.5 251.5t-16.5 186.5h243v-608h662v608h243q-14 -78 -16.5 -186.5t-2.5 -251.5v-583q0 -143 2.5 -251.5t16.5 -186.5h-243z" />
<glyph unicode="I" horiz-adv-x="975" d="M825 1459v-180h-238v-1099h238v-180h-695v180h233v1099h-233v180h695z" />
<glyph unicode="J" horiz-adv-x="965" d="M347 -24q-37 0 -81 7.5t-88 22.5t-84.5 38.5t-69.5 56.5l55 227q58 -68 128 -103t135 -35q49 0 90 18t71 54.5t46.5 93.5t16.5 135v482q0 142 -3 267t-15 219h241v-919q0 -157 -32.5 -265t-91 -174.5t-139.5 -95.5t-179 -29z" />
<glyph unicode="K" horiz-adv-x="1310" d="M394 840l258 310l258 309h285l-607 -688l165 -190.5l170.5 -195.5l170.5 -195.5l165 -189.5h-290l-575 664v-664h-244q15 78 17.5 189.5t2.5 253.5v574q0 141 -2.5 252.5t-17.5 189.5h244v-619z" />
<glyph unicode="L" horiz-adv-x="1080" d="M589 199q143 0 256 3t188 16v-218h-886q15 78 17.5 189.5t2.5 253.5v574q0 141 -2.5 252.5t-17.5 189.5h244v-1260h198z" />
<glyph unicode="M" horiz-adv-x="1795" d="M1295 1459h246q5 -174 11.5 -342l12.5 -314l10.5 -247.5t11.5 -234t13 -194t14 -127.5h-223l-25 1074l-185.5 -537.5l-184.5 -536.5h-217l-373 1074q-6 -267 -13 -538l-14 -536h-222q3 24 6.5 70t7.5 107.5t8 136l8.5 155.5t8.5 166l8 168q5 103 9 217t9 232 q1 46 3 102.5t4 104.5h251l405 -1180z" />
<glyph unicode="N" horiz-adv-x="1500" d="M370 1078v-1078h-219q15 78 17.5 189.5t2.5 253.5v574q0 141 -2.5 252.5t-17.5 189.5h210l744 -1086v1086h218q-13 -75 -16 -187.5t-3 -254.5v-1017h-190z" />
<glyph unicode="O" horiz-adv-x="1460" d="M1114 715q0 130 -28.5 233.5t-80.5 176t-124.5 111t-160.5 38.5t-161.5 -37t-126 -106t-82 -167t-29.5 -220q0 -129 28.5 -232t80.5 -176t126 -112t164 -39q85 0 157.5 36t125 104t82 166.5t29.5 223.5zM1343 739q0 -120 -24.5 -223t-68.5 -187.5t-103.5 -150.5 t-130 -110.5t-148.5 -68t-158 -23.5q-121 0 -233 49t-197.5 143.5t-136.5 233t-51 318.5q0 120 24.5 223t68.5 188t104 150.5t131 110.5t150 68.5t160 23.5q120 0 230.5 -49t195.5 -144t136 -233.5t51 -318.5z" />
<glyph unicode="P" horiz-adv-x="1195" d="M392 737q42 -4 86 -5.5t94 -1.5q96 0 159 22t100 59.5t52 86.5t15 104q0 54 -16 103.5t-53 87t-98.5 59.5t-153.5 22h-59q-24 0 -44 -0.5l-39 -1t-43 -1.5v-534zM392 443q0 -144 2.5 -255t16.5 -188h-262q14 78 16.5 189.5t2.5 253.5v581q0 66 -0.5 128.5t-2 118 t-5.5 103.5t-11 84q14 0 31 0.5t36 1.5t37 1.5t33 1.5q5 0 7.5 0.5t7.5 0.5q58 2 133.5 3.5t151.5 1.5q122 0 221 -28t169 -84.5t107.5 -140.5t37.5 -195t-37 -200t-106 -151.5t-168 -96t-224 -33.5q-49 0 -99 1.5t-95 6.5v-105z" />
<glyph unicode="Q" horiz-adv-x="1460" d="M1116 715q0 130 -28.5 233.5t-80.5 176t-124.5 111t-160.5 38.5t-161.5 -37t-126 -106t-82 -167t-29.5 -220q0 -129 28.5 -232t80.5 -176t125.5 -112t164.5 -39q85 0 157 36t124.5 104t82.5 166.5t30 223.5zM1344 739q0 -94 -14.5 -183t-44.5 -168t-75 -146.5 t-105 -117.5q83 -50 170.5 -84.5t193.5 -48.5q-1 -2 -5 -8l-8 -12.5l-8 -12.5t-5 -9l-26 -40t-32.5 -44t-38 -35.5t-41.5 -14.5q-17 0 -44 9t-59.5 23.5t-68.5 32.5l-72 36l-57.5 29.5l-53.5 26.5t-44.5 19.5t-30.5 8.5q-42 -14 -81.5 -19t-86.5 -5q-122 0 -233 49 t-195.5 143.5t-134.5 233t-50 318.5q0 120 24.5 223t68.5 188t104 150.5t130.5 110.5t149.5 68.5t160 23.5q122 0 233 -49t195.5 -144t134.5 -233.5t50 -318.5z" />
<glyph unicode="R" horiz-adv-x="1305" d="M394 798h165q157 0 236.5 62.5t79.5 175.5q0 58 -17.5 102.5t-56 74.5t-98.5 45.5t-144 15.5q-52 0 -89.5 -0.5t-75.5 -2.5v-473zM394 443q0 -143 3.5 -257t14.5 -186h-261q14 78 16.5 189.5t2.5 253.5v581q0 66 -0.5 128.5t-2 118t-5.5 103.5t-11 84q11 0 25 0.5t30 1.5 t31.5 1.5t27.5 1.5q5 0 10 0.5t11 0.5q52 2 126 3.5t157 1.5q118 0 215.5 -24t167.5 -75t108.5 -130t38.5 -189q0 -87 -26.5 -155.5t-69.5 -119.5t-98.5 -85.5t-113.5 -54.5l73 -99l89 -120.5l95.5 -128l92.5 -121l79 -101t56 -66.5h-304l-411 608h-167v-165z" />
<glyph unicode="S" horiz-adv-x="1175" d="M963 1156q-58 32 -106 54.5t-91.5 36.5t-85 20.5t-85.5 6.5q-54 0 -99 -16t-77 -42t-50 -60.5t-18 -70.5t10.5 -66t43.5 -56.5t93.5 -52.5t160.5 -55q99 -29 176 -68t129.5 -90t79.5 -116t27 -148q0 -102 -40 -186t-109 -144.5t-161 -93.5t-196 -33q-72 0 -140.5 10.5 t-130.5 29.5t-115 45.5t-93 57.5l53 243q108 -94 214 -135.5t212 -41.5q55 0 106 15t90 44.5t62.5 72t23.5 96.5q0 35 -11.5 67t-47 62.5t-101.5 61.5t-176 63q-118 35 -192.5 78t-117 93t-58 108t-15.5 124q0 43 12 90.5t36.5 93.5t63 88t91.5 73.5t121 50t152 18.5 q58 0 109 -5.5t100 -17.5t97.5 -30t100.5 -44z" />
<glyph unicode="T" horiz-adv-x="1265" d="M1204 1459v-223q-73 15 -133 19.5t-125 4.5h-214v-817q0 -143 4.5 -256.5t19.5 -186.5h-272q15 73 19.5 186.5t4.5 256.5v817h-209q-64 0 -124.5 -4.5t-133.5 -19.5v223h1163z" />
<glyph unicode="U" horiz-adv-x="1440" d="M1263 1459q-12 -75 -15 -183.5t-3 -258.5v-497q0 -123 -32.5 -223t-98.5 -171.5t-166.5 -110.5t-237.5 -39q-138 0 -239.5 39t-168.5 110.5t-99.5 171.5t-32.5 223v497q0 142 -3 254.5t-15 187.5h242v-895q0 -91 15.5 -164t52 -124t97.5 -78.5t151 -27.5q89 0 148.5 27.5 t95.5 78.5t51.5 124t15.5 164v895h242z" />
<glyph unicode="V" horiz-adv-x="1375" d="M1075 1459h253l-32.5 -73.5t-34 -82l-37.5 -99l-44 -125.5l-379 -1079h-247l-384 1078l-43 118l-39.5 106l-33.5 89l-26 68h252l397 -1189z" />
<glyph unicode="W" horiz-adv-x="2080" d="M1470 276l145 592l145 591h256l-27.5 -73.5t-28 -82l-30.5 -98.5t-35 -125l-301 -1080h-248l-319 1094l-159 -547.5l-159 -546.5h-248l-301 1080q-35 127 -64 217.5t-58 161.5h257l294 -1184l167.5 592.5l166.5 591.5h209z" />
<glyph unicode="X" horiz-adv-x="1325" d="M322 1089l-73.5 115l-56 83.5l-44 63t-39.5 52.5l-9 12l-13 17l-13 16.5t-9 10.5h279l312 -494l150 248l149 246h280l-53 -68l-55.5 -76l-64.5 -96.5l-82 -129.5v1l-100 -161.5l-100 -161.5l129.5 -205l129.5 -205l76 -119.5l54.5 -81.5l41.5 -59l38 -52v0q1 0 3.5 -4 l8.5 -13.5t16 -27.5h-268l-367 581l-176 -290.5l-175 -290.5h-273l54 73.5l52 75l59.5 91l75.5 120.5l128.5 209l129.5 209z" />
<glyph unicode="Y" horiz-adv-x="1320" d="M283 1047q-3 6 -7 11t-6 11l1 -1l-52 87l-56 89.5l-66.5 99l-83.5 115.5h273l374 -624l177 312.5l177 311.5h271l-87 -126.5l-67 -103l-56 -91.5l-53 -92l-260 -445v-158q0 -142 2.5 -253.5t16.5 -189.5h-262q14 78 16.5 189.5t2.5 253.5v166z" />
<glyph unicode="Z" horiz-adv-x="1230" d="M1111 1307l-756 -1108h342q141 0 256 5.5t187 19.5v-224h-1070v148l756 1112h-294q-70 0 -128 -1t-107 -4t-90 -7.5t-79 -11.5v223h983v-152z" />
<glyph unicode="[" horiz-adv-x="790" d="M187 -399v1994h466v-184h-248v-1625h248v-185h-466z" />
<glyph unicode="\" horiz-adv-x="1025" d="M378 1599l468 -1678l-179 -37l-473 1678z" />
<glyph unicode="]" horiz-adv-x="790" d="M137 -399v185h248v1625h-248v184h466v-1994h-466z" />
<glyph unicode="^" horiz-adv-x="1120" d="M76 827l390 768h188l390 -768h-219l-265 540l-132.5 -270l-132.5 -270h-219z" />
<glyph unicode="_" horiz-adv-x="1274" d="M-2 -126h1278v-200h-1278v200z" />
<glyph unicode="`" horiz-adv-x="580" d="M241 1595l373 -457h-205l-447 457h279z" />
<glyph unicode="a" horiz-adv-x="1150" d="M595 846q-29 0 -58.5 -7t-58 -23t-55.5 -43t-50 -68q-25 -42 -40 -106t-15 -132q0 -75 13.5 -129.5t35.5 -89.5t50 -51.5t56 -16.5q39 0 83.5 23.5t88 63t81.5 91t64 107.5v349q-30 13 -82 22.5t-113 9.5zM1008 535q0 -181 23.5 -311.5t59.5 -223.5h-213q-4 12 -12 33 t-16.5 46.5l-17.5 54t-15 55.5q-37 -45 -78.5 -83.5t-86.5 -67.5t-93.5 -45.5t-99.5 -16.5q-65 0 -129.5 27.5t-115.5 82.5t-83 138t-32 194q0 113 25.5 208t69.5 167q77 123 183 190.5t257 67.5q38 0 85 -6t97 -16.5t99.5 -25t92.5 -31.5v-437z" />
<glyph unicode="b" horiz-adv-x="1155" d="M575 165q60 0 111 25t88 70.5t58 109t21 141.5q0 77 -13 138t-38.5 104t-63 66t-85.5 23q-42 0 -85 -19t-82 -53t-72.5 -81.5t-56.5 -104.5v-371q32 -13 59.5 -22t53.5 -15t51.5 -8.5t53.5 -2.5zM138 1142q0 52 -0.5 112t-2 120.5t-5 117.5t-10.5 103h237v-718 q33 38 71.5 70t82.5 55t94 36t107 13q78 0 143 -37.5t112.5 -104.5t73.5 -160t26 -204q0 -130 -35 -235t-99 -179t-155 -114.5t-203 -40.5q-55 0 -106 7t-99.5 18t-94 25l-89.5 28q-8 2 -24 7t-24 8v1073z" />
<glyph unicode="c" horiz-adv-x="1020" d="M612 1051q100 0 176.5 -26t136.5 -69l-41 -217q-77 57 -145 84.5t-141 27.5q-61 0 -114 -23.5t-91 -67.5t-60 -108.5t-22 -145.5q0 -74 20 -135t57 -104.5t90 -67.5t120 -24q85 0 161 35t151 101l24 -218q-40 -31 -79.5 -53t-82 -36.5t-90 -21t-104.5 -6.5 q-102 0 -191 36t-156 103.5t-105.5 163.5t-38.5 217q0 114 37 215t105 176.5t165.5 119.5t217.5 44z" />
<glyph unicode="d" horiz-adv-x="1190" d="M581 846q-51 0 -98.5 -24t-84 -69t-58.5 -110t-22 -147q0 -161 53 -243.5t171 -82.5q41 0 82 21t78 55t67.5 77.5t49.5 88.5v369q-33 18 -61.5 30t-56.5 20t-57.5 11.5t-62.5 3.5zM1038 535q0 -181 23.5 -312t58.5 -223h-216q-12 28 -25.5 68.5t-25.5 85.5 q-70 -88 -155.5 -133t-189.5 -45q-93 0 -169 35t-129 99t-82 155t-29 202q0 134 37 241.5t102 184t153 117.5t190 41q59 0 121 -20.5t117 -48.5v239q0 238 -31 374h250v-1060z" />
<glyph unicode="e" horiz-adv-x="1095" d="M560 866q-95 0 -157 -53.5t-85 -165.5h464q-2 54 -19.5 94.5t-47 68.5t-69 42t-86.5 14zM574 1051q84 0 148 -20t111 -54.5t78.5 -81.5t50.5 -101t27 -112t8 -115v-20t-0.5 -27.5t-1 -27.5t-0.5 -20h-687q5 -76 28 -132t61.5 -92.5t89.5 -54.5t112 -18q92 0 186 24 t195 86l23 -204q-56 -28 -108.5 -48t-105 -33t-105.5 -18.5t-110 -5.5q-97 0 -185.5 34t-155 100t-106 164t-39.5 227q0 125 34 226.5t97 173.5t153 111t202 39z" />
<glyph unicode="f" horiz-adv-x="730" d="M11 1007h195v151q0 114 24 199.5t70 143t111.5 86t149.5 28.5q60 0 121 -21t115 -59l-56 -186q-46 33 -93.5 52t-86.5 19q-33 0 -59 -12t-43 -38.5t-26 -69t-9 -103.5v-190h263v-180h-263v-327q0 -70 2 -140.5t6 -135t10.5 -122t15.5 -102.5h-252v827h-195v180z" />
<glyph unicode="g" horiz-adv-x="1125" d="M594 846q-75 0 -128 -31t-86 -81t-48.5 -114t-15.5 -129q0 -84 12.5 -140.5t35 -90t52.5 -47.5t66 -14q34 0 73 14t78.5 41t77 66t68.5 89v404q-45 15 -95.5 24t-89.5 9zM997 44q0 -134 -39 -228.5t-102.5 -155.5t-145 -89t-165.5 -28q-97 0 -195 34.5t-184 92.5l78 190 q77 -54 149.5 -88.5t141.5 -34.5q35 0 77.5 13t79.5 44.5t62 84t25 131.5v127q-76 -77 -159 -109.5t-158 -32.5q-70 0 -136 24.5t-116.5 78.5t-81 139t-30.5 206q0 116 30 225t94 194.5t163.5 137t237.5 51.5q46 0 94.5 -7t96.5 -18.5t94.5 -25t88.5 -27.5v-929z" />
<glyph unicode="h" horiz-adv-x="1175" d="M707 1051q165 0 252.5 -106t87.5 -318v-627h-219v555q0 86 -11 141.5t-32.5 87.5t-54.5 45t-77 13q-48 0 -95 -23.5t-86.5 -60.5t-70 -83.5t-45.5 -93.5v-581h-219v1119q0 157 -2 276t-16 200h237v-713q74 85 164 127t187 42z" />
<glyph unicode="i" horiz-adv-x="565" d="M139 1328q0 32 10.5 59.5t29.5 47.5t45.5 32t57.5 12q32 0 58.5 -12t45.5 -32t29.5 -47.5t10.5 -59.5q0 -31 -10.5 -59t-29.5 -48t-45.5 -32t-58.5 -12q-31 0 -57.5 12t-45.5 32t-29.5 48t-10.5 59zM392 482q0 -46 1.5 -110.5t4.5 -132t7 -131t9 -108.5h-241v535 q0 71 -0.5 140t-2.5 133t-5 120.5t-9 102.5h236v-549z" />
<glyph unicode="j" horiz-adv-x="595" d="M164 1328q0 32 10.5 59.5t29.5 47.5t45.5 32t57.5 12q32 0 58.5 -12t45.5 -32t29.5 -47.5t10.5 -59.5q0 -31 -10.5 -59t-29.5 -48t-45.5 -32t-58.5 -12q-31 0 -57.5 12t-45.5 32t-29.5 48t-10.5 59zM417 44q0 -142 -27.5 -238t-77.5 -154.5t-121.5 -83.5t-158.5 -25 q-22 0 -52 5t-62.5 14.5t-64.5 23t-57 31.5l43 203q20 -15 46.5 -28.5t54.5 -23t54.5 -15.5t45.5 -6q35 0 64 14t50 44t32.5 77t11.5 113v540q0 71 -0.5 140t-2.5 133t-5.5 120.5t-9.5 102.5h237v-987z" />
<glyph unicode="k" horiz-adv-x="1035" d="M137 0v1154q0 145 -2 255t-16 186h237v-943l183.5 190l183.5 189h302l-504 -455l129 -141l135.5 -148.5l135.5 -147.5l127 -139h-292l-400 473v-473h-219z" />
<glyph unicode="l" horiz-adv-x="565" d="M392 482q0 -46 1.5 -110t4.5 -131.5t7 -131.5t9 -109h-241v1119q0 143 -5.5 262.5t-15.5 213.5h240v-1113z" />
<glyph unicode="m" horiz-adv-x="1705" d="M971 0h-219v555q0 88 -5.5 144t-19.5 87.5t-37.5 43.5t-58.5 12q-33 0 -68.5 -19.5t-68.5 -51.5t-60 -74t-42 -87v-610h-219v618q0 71 -5.5 133.5t-13.5 115t-17.5 94t-18.5 70.5h215q12 -32 20 -74t13 -79q42 47 82.5 80t80 53.5t79.5 30t81 9.5q103 0 162.5 -43.5 t88.5 -129.5q83 89 168 131t160 42q80 0 134 -27t87 -79t47 -128.5t14 -174.5v-642h-219v555q0 88 -5.5 144t-19.5 87.5t-37.5 43.5t-58.5 12q-32 0 -67 -20t-67.5 -53t-60 -75t-44.5 -85v-609z" />
<glyph unicode="n" horiz-adv-x="1185" d="M716 1051q166 0 253.5 -106t87.5 -318v-627h-219v555q0 86 -10.5 141.5t-32.5 87.5t-55 45t-77 13q-49 0 -95.5 -23.5t-86.5 -60.5t-70 -83.5t-45 -93.5v-581h-219v618q0 71 -5 133t-13.5 114.5t-18.5 94.5t-20 71h216q6 -16 11.5 -36.5t10.5 -42t9 -43.5t7 -42 q90 97 180.5 140.5t191.5 43.5z" />
<glyph unicode="o" horiz-adv-x="1140" d="M307 513q0 -80 19 -143.5t54 -108t83.5 -68t106.5 -23.5q55 0 103 23.5t83.5 68t56 108t20.5 143.5q0 81 -19 144.5t-54 107.5t-83 67.5t-107 23.5q-55 0 -103.5 -23.5t-83.5 -67.5t-55.5 -107.5t-20.5 -144.5zM88 513q0 130 39.5 230.5t106.5 168.5t156.5 103.5 t189.5 35.5q105 0 191.5 -35.5t149 -103.5t97 -168.5t34.5 -230.5q0 -131 -39.5 -231t-106.5 -168t-156.5 -103t-189.5 -35q-105 0 -191.5 35t-149 103t-97 168t-34.5 231z" />
<glyph unicode="p" horiz-adv-x="1170" d="M619 175q48 0 91.5 23t77.5 66.5t54 106t20 140.5q0 76 -14 138t-40.5 105.5t-64 67.5t-85.5 24q-39 0 -80 -17.5t-79 -51.5t-72.5 -84.5t-60.5 -117.5v-293l80.5 -53t61.5 -33t54 -16.5t57 -4.5zM147 491q0 90 -1.5 167t-7.5 143.5t-17.5 123.5t-31.5 106h217 q11 -27 22 -66t19 -89q34 39 73 71t83 55t91.5 36t97.5 13q87 0 159 -38t123 -106t79 -162t28 -205q0 -129 -36.5 -233t-99 -177.5t-146.5 -113.5t-180 -40q-73 0 -132 24t-121 65v-191q0 -57 2 -104.5t6 -90t9 -81t12 -75.5h-248v968z" />
<glyph unicode="q" horiz-adv-x="1130" d="M594 846q-75 0 -127.5 -31t-85.5 -81t-48.5 -114t-15.5 -129q0 -85 18 -144.5t47.5 -96.5t66 -53.5t72.5 -16.5q61 0 125.5 50t122.5 149v434q-42 15 -88.5 24t-86.5 9zM988 -126q0 -57 2 -104.5t6 -90t9 -81t12 -75.5h-248v582q-69 -72 -133.5 -100.5t-129.5 -28.5 q-70 0 -142.5 27.5t-131.5 85t-96.5 145.5t-37.5 209q0 116 30 225t94 194.5t163.5 137t237.5 51.5q46 0 93 -7t93 -18.5t91 -25l88 -27.5v-1099z" />
<glyph unicode="r" horiz-adv-x="890" d="M144 0v618q0 142 -18 248t-38 165h215q12 -29 22 -69t16.5 -87t10.5 -100t5 -107q46 111 91 185t90 118t91 62t94 18q41 0 76.5 -8.5t76.5 -28.5l-35 -220l-36.5 13.5t-29 8.5t-26 4.5t-26.5 1.5q-38 0 -79.5 -33t-81.5 -86.5t-76 -121.5t-63.5 -139t-43.5 -139t-16 -121 q0 -24 1 -45t4 -42t8 -44t13 -51h-245z" />
<glyph unicode="s" horiz-adv-x="965" d="M514 1051q55 0 103.5 -8t90 -20.5t77 -28t63.5 -30.5l-42 -212q-27 17 -61 35t-72.5 33.5t-80 25.5t-84.5 10q-48 0 -81.5 -9.5t-54 -25t-29.5 -34.5t-9 -38q0 -21 7.5 -37.5t30.5 -31t66 -28.5t114 -30v1q69 -15 130.5 -39t107.5 -61.5t72.5 -90.5t26.5 -126 q0 -69 -30.5 -129.5t-84 -105t-125 -70t-154.5 -25.5q-61 0 -118 10t-108 26.5t-94 39t-76 47.5l59 218q38 -33 82 -60t89 -46.5t89.5 -30t81.5 -10.5q38 0 70 9.5t55.5 25t36.5 36t13 41.5q0 23 -11.5 44t-40.5 41t-77.5 39t-123.5 38q-90 23 -148.5 54t-92.5 68.5 t-47.5 81t-13.5 91.5q0 24 7.5 56.5t25.5 67t47.5 68.5t73 60.5t103 43t137.5 16.5z" />
<glyph unicode="t" horiz-adv-x="835" d="M20 1007h195v316h219v-316h316v-180h-316v-428q0 -69 6 -113t19 -68.5t32.5 -33.5t47.5 -9q40 0 97 22t134 65v-200q-75 -49 -140.5 -67.5t-120.5 -18.5q-61 0 -114.5 14t-93.5 49t-63 94t-23 149v545h-195v180z" />
<glyph unicode="u" horiz-adv-x="1185" d="M479 -24q-331 0 -331 437v287q0 45 -0.5 82.5t-2.5 75t-7 79t-13 94.5h242v-559q0 -78 7.5 -134t24.5 -92t45 -53.5t69 -17.5q40 0 85 24t87 61.5t76.5 83t52.5 88.5v268q0 47 -0.5 84.5t-2.5 74.5t-7 77.5t-13 94.5h242v-574q0 -141 18.5 -252t53.5 -205h-206 q-14 33 -29 78.5t-24 90.5q-88 -100 -176.5 -146.5t-190.5 -46.5z" />
<glyph unicode="v" horiz-adv-x="1070" d="M1067 1031q-21 -42 -44.5 -94.5l-46 -104.5l-41.5 -97.5l-31 -74.5l-20.5 -49.5l-27.5 -68l-31.5 -80.5l-34.5 -87l-17.5 -44l-16.5 -42l-18 -46.5t-19 -46.5v1l-38 -97l-40 -100h-212l-57.5 143.5l-53.5 135.5l-36.5 92.5l-36.5 90.5l-43.5 113t-34.5 85l-28.5 70.5 l-39.5 92l-46.5 103.5l-49.5 105h249l283 -760l141.5 381l141.5 379h249z" />
<glyph unicode="w" horiz-adv-x="1550" d="M863 1031l237 -733l95.5 367.5l95.5 365.5h220l-51 -167.5l-42 -142.5q-5 -15 -8.5 -29.5t-7.5 -29.5l-45.5 -163l-47 -168.5l-47 -168.5l-44.5 -162h-214l-229 719l-56.5 -176.5l-58.5 -183.5l-58 -183l-56 -176h-214l-184 662l-32.5 114l-38.5 126q-3 12 -8 28.5 l-10 34t-10.5 35t-9.5 31.5h220l191 -733l119.5 367.5l117.5 365.5h176z" />
<glyph unicode="x" horiz-adv-x="1085" d="M262 738v-1l-35.5 49l-33 43.5l-35 44.5l-41.5 52l-18 22.5l-23 28.5l-23.5 29.5l-19.5 24.5h274l242 -335l114.5 168l113.5 167h275l-68 -87.5l-56 -74.5l-49 -67l-46 -65l1 1l-77 -112.5l-77 -112.5l79 -109.5l79 -109.5l34.5 -48l30.5 -40.5l30.5 -40l35.5 -46.5 l18.5 -24l24.5 -31.5l26.5 -33.5l23.5 -30h-274l-249 347l-121.5 -174l-120.5 -173h-273l71 92.5l56 74.5l47 64l44 62l83 119.5l83 119.5z" />
<glyph unicode="y" horiz-adv-x="1060" d="M670 13q-51 -135 -101.5 -225t-104 -144.5t-111 -77.5t-120.5 -23q-72 0 -136 24.5t-126 70.5l73 196q19 -15 42.5 -30.5t48.5 -28t50.5 -20.5t47.5 -8q27 0 52 9t50.5 35.5t53.5 75t60 127.5l-134.5 333.5l-134.5 332.5v-1l-69 161.5t-99 210.5h239l300 -758l36 103 l39 110l42.5 122.5l41.5 117.5l54 151l54 154h238l-93 -214t-60 -157z" />
<glyph unicode="z" horiz-adv-x="1040" d="M938 1031v-118l-558 -728h378q44 0 90 2.5t105 16.5v-204h-856v133l540 713h-341q-42 0 -83.5 -3t-86.5 -21v209h812z" />
<glyph unicode="{" horiz-adv-x="1000" d="M199 618q0 11 10 23.5t26.5 26t37 28l41.5 29.5l53 37.5t31 27.5q2 3 3.5 19t3 42.5t3 62t3.5 75.5q2 48 5 101t7 105.5t9 102t12 91t16.5 72t20.5 45.5q17 18 54.5 37t84 36.5t96 33t90.5 25.5l49 -172q-26 -9 -60 -22t-66 -26.5t-56 -26t-30 -20.5q-5 -7 -8.5 -42 t-5.5 -85.5t-3.5 -111.5t-3.5 -120l-2 -95.5t-3 -84.5t-4.5 -63.5t-6.5 -33.5q-9 -17 -37.5 -38t-58.5 -41q-26 -18 -40.5 -24t-15.5 -14l20.5 -15l37.5 -26v1l57 -40.5t37 -37.5q4 -7 6.5 -32.5t4.5 -63.5t3 -84.5l2 -95.5q2 -59 3.5 -120t3.5 -111.5t5.5 -85.5t9.5 -42 q5 -9 29 -21.5t56 -26t66.5 -26.5l59.5 -22l-49 -172q-41 10 -91 25.5t-96.5 33t-83.5 37t-54 37.5q-17 22 -29 78.5t-20 129.5t-13 154.5t-8 153.5q-2 41 -3.5 76t-3 62t-3 43t-3.5 19q-8 10 -30 26.5t-49 34.5l-43.5 30.5t-38.5 29.5t-27.5 27.5t-10.5 23.5z" />
<glyph unicode="|" horiz-adv-x="690" d="M437 1595v-1974h-184v1974h184z" />
<glyph unicode="}" horiz-adv-x="1000" d="M801 618q0 -10 -11 -23.5t-28.5 -28t-38.5 -30t-42 -29.5q-26 -17 -48.5 -34.5t-30.5 -26.5q-1 -3 -3 -19t-3.5 -43t-3 -62t-3.5 -76q-3 -72 -8 -153.5t-13 -154.5t-20 -129.5t-29 -78.5q-17 -18 -54.5 -37.5t-84 -37t-96 -33t-90.5 -25.5l-49 172l60.5 22.5t66 26 t55.5 26t30 21.5q5 7 8.5 41.5t6 85t4 111.5t2.5 121q1 49 2.5 95.5t3 84.5t4.5 64t7 33q10 17 37 37l56 40q17 11 33 22.5l24 17.5q-6 5 -21.5 15.5l-33.5 23.5v-1l-57 41t-38 38q-4 8 -7 34t-5 64t-3 84l-2 95q-1 59 -2.5 120t-4 111.5t-6 85.5t-8.5 42v-1q-7 9 -31 21.5 t-55.5 26t-65 26.5t-60.5 22l49 172q41 -10 91 -25.5t96.5 -33t84 -36.5t53.5 -37q12 -15 21 -45.5t16 -72t12 -91t9 -102t7 -105.5t5 -101q2 -40 3.5 -75.5t3 -62t3.5 -42.5t3 -19q7 -10 31 -27.5l53 -37.5l41.5 -29.5t37 -28t26.5 -26t10 -23.5z" />
<glyph unicode="~" horiz-adv-x="1080" d="M10 506q0 57 17.5 115.5t50.5 106t81.5 78t111.5 30.5q47 0 119.5 -16.5t184.5 -54.5h-1l61 -21t65 -20t65 -15t60 -6q46 0 64.5 26.5t26.5 82.5h154q0 -60 -16.5 -118t-49 -103t-81.5 -73t-114 -28q-31 0 -66.5 6t-71.5 15t-70.5 20l-64.5 21q-7 2 -14.5 4.5l-13.5 4.5 l-80.5 26.5t-64 19.5t-51.5 12t-43 4q-26 0 -45.5 -10t-32.5 -26.5t-19.5 -37.5t-6.5 -43h-155z" />
<glyph unicode="&#xa2;" d="M411 554q0 -112 46 -190t128 -108v606q-38 -16 -70 -44t-55 -67t-36 -88.5t-13 -108.5zM751 1323v-253q76 -8 135 -31t110 -56l-41 -210q-57 42 -108 67.5t-96 34.5v-630q59 11 114.5 42.5t114.5 83.5l24 -210q-62 -47 -122.5 -73t-130.5 -34v-258h-166v258 q-82 14 -153 54t-123.5 103t-82.5 147.5t-30 186.5q0 95 27 180.5t77 153.5t122.5 115.5t162.5 66.5v262h166z" />
<glyph unicode="&#xa3;" d="M147 851h108q-6 95 -6 175q0 114 29 200t82.5 143.5t128 86t164.5 28.5q30 0 65 -5.5t70.5 -16t69 -25.5t59.5 -33l-57 -186q-22 17 -49.5 30t-56 22t-55 14t-46.5 5q-41 0 -75 -12t-58.5 -39t-38 -69.5t-13.5 -103.5q0 -52 2 -101t7 -113h302v-180h-287q5 -55 7 -105 t2 -94q0 -83 -17.5 -149.5t-60.5 -123.5h156q143 0 256 3t188 16v-218h-886v156q29 21 55.5 48t46.5 58t31.5 66t11.5 73q0 68 -3.5 131.5t-8.5 138.5h-123v180z" />
<glyph unicode="&#xa4;" d="M877 873q0 58 -20.5 108.5t-57 88t-86.5 59t-109 21.5q-61 0 -113 -21t-89.5 -58.5t-58.5 -88.5t-21 -112q0 -60 21.5 -111t59 -88t89.5 -58t112 -21q59 0 109 22t86.5 60t57 89t20.5 110zM1056 302l-206 206q-109 -83 -246 -83q-75 0 -137 20.5t-117 62.5l-206 -206 l-119 117l207 208q-38 54 -57.5 113.5t-19.5 129.5q0 68 20 133.5t60 119.5l-210 210l119 118l211 -211q54 38 117 57.5t132 19.5t128.5 -20t111.5 -58l212 212l119 -118l-209 -209q35 -54 57 -118.5t22 -132.5q0 -137 -77 -246l207 -208z" />
<glyph unicode="&#xa5;" d="M191 491h309v64h-309v179h226l-70 130.5l-70 130.5l-48 90l-51 90.5l-60 98.5t-76 114h245l321 -587l152.5 294l152.5 293h243l-68 -107.5l-52.5 -88l-43.5 -76.5l-40 -74l-13 -23l-13 -24l-139 -261h229v-179h-317v-64h317v-180h-317q0 -100 3 -175.5t14 -135.5h-233 q10 60 13 137.5t4 173.5h-309v180z" />
<glyph unicode="&#xa6;" horiz-adv-x="1024" d="M423 754v841h184v-841h-184zM607 472v-851h-184v851h184z" />
<glyph unicode="&#xa7;" horiz-adv-x="1024" d="M717 705q0 83 -66 146t-189 115q-40 -15 -70.5 -37.5t-50 -49.5t-29.5 -57t-10 -60q0 -41 16 -76t49 -66.5t83 -62t117 -62.5q21 12 47 33.5t49 49.5t38.5 60.5t15.5 66.5zM912 756q0 -54 -18.5 -103t-48.5 -91t-69 -75.5t-80 -55.5q38 -21 70.5 -47.5t57 -59.5 t38.5 -71.5t14 -83.5q0 -71 -29 -130.5t-81 -102.5t-123.5 -67t-156.5 -24q-52 0 -102.5 7.5t-93.5 18.5t-76.5 23t-53.5 22v293h135q3 -19 6.5 -37.5t5.5 -27.5q2 -8 3 -15t3 -19.5t5 -33t7 -54.5q17 -10 38.5 -18t44 -14t45 -9t41.5 -3q40 0 74 10t59 28t39 44.5t14 59.5 q0 34 -18.5 61.5t-49 51.5t-71 46l-84.5 44l-122.5 65t-111 79.5t-80.5 105.5t-31 143q0 63 16.5 111.5t45 85.5t67 65t82.5 50q-81 47 -128 108t-47 147q0 73 25 131t75.5 98t127 61.5t178.5 21.5q44 0 89.5 -5.5t85.5 -14t72 -18t50 -17.5v-290h-132l-20 169 q-31 17 -74.5 33.5t-94.5 16.5q-40 0 -73.5 -11t-56.5 -31t-36 -47t-13 -59q0 -28 17.5 -52t47.5 -46t68.5 -43l80.5 -42l121 -64.5t112 -79.5t82 -103t32 -135z" />
<glyph unicode="&#xa9;" horiz-adv-x="1515" d="M990 472q-51 -47 -107.5 -72t-122.5 -25t-120 31t-92.5 81t-59 115t-20.5 132q0 87 23.5 154.5t64 113t94.5 69t115 23.5q54 0 104.5 -18.5t104.5 -63.5q7 19 12.5 35.5t12.5 39.5q-61 43 -116.5 59.5t-117.5 16.5q-71 0 -139 -29t-121.5 -85t-86.5 -138.5t-33 -190.5 q0 -93 26 -170t74 -132t115.5 -85.5t149.5 -30.5q33 0 67.5 6t68 17t64.5 27.5t56 38.5zM755 1328q-105 0 -203.5 -38.5t-174.5 -114t-121.5 -187t-45.5 -258.5t45.5 -258.5t121.5 -187.5t174.5 -114.5t203.5 -38.5t204.5 38.5t176 114.5t123 187.5t46.5 258.5t-46.5 258.5 t-123 187t-176 114t-204.5 38.5zM755 1484q87 0 173.5 -21t165.5 -63.5t146.5 -105.5t117.5 -147t78.5 -188t28.5 -229q0 -127 -28.5 -232.5t-78.5 -189.5t-117.5 -146.5t-146.5 -103.5t-165.5 -61.5t-173.5 -20.5q-89 0 -176.5 20.5t-165.5 61.5t-144.5 103.5t-115 146.5 t-76 189.5t-27.5 232.5q0 125 27.5 229t76 188t115 147t144.5 105.5t165.5 63.5t176.5 21z" />
<glyph unicode="&#xad;" horiz-adv-x="860" d="M70 725h720v-185h-720v185z" />
<glyph unicode="&#xae;" horiz-adv-x="1615" d="M660 1080q38 3 69.5 4.5t62.5 1.5q118 0 171 -47t53 -129q0 -80 -57.5 -122t-166.5 -42l-132 -2v336zM660 689h150l253 -368h100l-47.5 61.5l-58 77.5l-61 82.5l-55.5 75.5l-13.5 18.5t-16 21t-15.5 20t-11 14.5q38 11 76 29t68.5 46t49.5 65.5t19 86.5q0 59 -22.5 102.5 t-62.5 71.5t-95 41.5t-121 13.5q-56 0 -99.5 -1.5t-75.5 -3.5q-5 0 -9 -0.5t-9 -0.5q-7 0 -14.5 -0.5t-13.5 -1.5q4 -35 4.5 -89t0.5 -125v-407v-115t-4 -83h89q-5 38 -6 95t-1 137zM855 1328q-105 0 -203.5 -38.5t-174.5 -114t-121.5 -187t-45.5 -258.5t45.5 -258.5 t121.5 -187.5t174.5 -114.5t203.5 -38.5t204.5 38.5t176 114.5t123 187.5t46.5 258.5t-46.5 258.5t-123 187t-176 114t-204.5 38.5zM855 1484q87 0 173.5 -21t165.5 -63.5t146.5 -105.5t117.5 -147t78.5 -188t28.5 -229q0 -127 -28.5 -232.5t-78.5 -189.5t-117.5 -146.5 t-146.5 -103.5t-165.5 -61.5t-173.5 -20.5q-89 0 -176.5 20.5t-165.5 61.5t-144.5 103.5t-115 146.5t-76 189.5t-27.5 232.5q0 125 27.5 229t76 188t115 147t144.5 105.5t165.5 63.5t176.5 21z" />
<glyph unicode="&#xb0;" horiz-adv-x="640" d="M433 1251q0 24 -9 44.5t-24.5 35.5t-36.5 24t-44 9q-24 0 -44.5 -9t-35.5 -24t-24 -35.5t-9 -44.5q0 -23 9 -44t24 -36.5t35.5 -24.5t44.5 -9q23 0 44 9t36.5 24.5t24.5 36.5t9 44zM87 1251q0 48 18.5 90.5t50 74t73.5 50t90 18.5t90.5 -18.5t74.5 -50t50.5 -74 t18.5 -90.5t-18.5 -90.5t-50.5 -74.5t-74.5 -50.5t-90.5 -18.5t-90 18.5t-73.5 50.5t-50 74.5t-18.5 90.5z" />
<glyph unicode="&#xb1;" d="M148 379h904v-184h-904v184zM148 997h360v370h184v-370h360v-185h-360v-355h-184v355h-360v185z" />
<glyph unicode="&#xb6;" horiz-adv-x="1025" d="M860 1308v-1308h-170v1308h-117v-1308h-170v744q-35 2 -75.5 11t-80.5 27t-77 45.5t-65 67t-45 91t-17 116.5q0 69 18.5 122.5t49 93t71 66.5t85 44t90 24t85.5 7h530v-151h-112z" />
<glyph unicode="&#xb7;" horiz-adv-x="679" d="M189 709q0 32 11.5 59t32 47.5t48 32t58.5 11.5q32 0 59 -11.5t47.5 -32t32 -47.5t11.5 -59q0 -31 -11.5 -58.5t-32 -47.5t-47.5 -32t-59 -12q-31 0 -58.5 12t-48 32t-32 47.5t-11.5 58.5z" />
<glyph unicode="&#xc1;" horiz-adv-x="1395" d="M685 1192l-54.5 -158l-53 -155l-53.5 -155.5l-56 -159.5h437zM28 0l28 65.5l33 81.5l39.5 101l46.5 124l197.5 543.5l196.5 543.5h237l394 -1087l45.5 -124l39.5 -101l33.5 -81.5l28.5 -65.5h-243l-133 375h-569l-65.5 -188l-64.5 -187h-244zM1125 2025l-447 -457h-205 l373 457h279z" />
<glyph unicode="&#xc9;" horiz-adv-x="1160" d="M945 861v-195h-554v-467h237q71 0 131 0.5t111 2t94.5 6t82.5 11.5v-219h-899q14 78 16.5 189.5t2.5 253.5v574q0 141 -2.5 252.5t-16.5 189.5h870v-199h-627v-399h554zM1038 2025l-447 -457h-205l373 457h279z" />
<glyph unicode="&#xcd;" horiz-adv-x="975" d="M825 1459v-180h-238v-1099h238v-180h-695v180h233v1099h-233v180h695zM915 2025l-447 -457h-205l373 457h279z" />
<glyph unicode="&#xd3;" horiz-adv-x="1460" d="M1114 715q0 130 -28.5 233.5t-80.5 176t-124.5 111t-160.5 38.5t-161.5 -37t-126 -106t-82 -167t-29.5 -220q0 -129 28.5 -232t80.5 -176t126 -112t164 -39q85 0 157.5 36t125 104t82 166.5t29.5 223.5zM1343 739q0 -120 -24.5 -223t-68.5 -187.5t-103.5 -150.5 t-130 -110.5t-148.5 -68t-158 -23.5q-121 0 -233 49t-197.5 143.5t-136.5 233t-51 318.5q0 120 24.5 223t68.5 188t104 150.5t131 110.5t150 68.5t160 23.5q120 0 230.5 -49t195.5 -144t136 -233.5t51 -318.5zM1155 2025l-447 -457h-205l373 457h279z" />
<glyph unicode="&#xda;" horiz-adv-x="1440" d="M1263 1459q-12 -75 -15 -183.5t-3 -258.5v-497q0 -123 -32.5 -223t-98.5 -171.5t-166.5 -110.5t-237.5 -39q-138 0 -239.5 39t-168.5 110.5t-99.5 171.5t-32.5 223v497q0 142 -3 254.5t-15 187.5h242v-895q0 -91 15.5 -164t52 -124t97.5 -78.5t151 -27.5q89 0 148.5 27.5 t95.5 78.5t51.5 124t15.5 164v895h242zM1145 2025l-447 -457h-205l373 457h279z" />
<glyph unicode="&#xe1;" horiz-adv-x="1150" d="M595 846q-29 0 -58.5 -7t-58 -23t-55.5 -43t-50 -68q-25 -42 -40 -106t-15 -132q0 -75 13.5 -129.5t35.5 -89.5t50 -51.5t56 -16.5q39 0 83.5 23.5t88 63t81.5 91t64 107.5v349q-30 13 -82 22.5t-113 9.5zM1008 535q0 -181 23.5 -311.5t59.5 -223.5h-213q-4 12 -12 33 t-16.5 46.5l-17.5 54t-15 55.5q-37 -45 -78.5 -83.5t-86.5 -67.5t-93.5 -45.5t-99.5 -16.5q-65 0 -129.5 27.5t-115.5 82.5t-83 138t-32 194q0 113 25.5 208t69.5 167q77 123 183 190.5t257 67.5q38 0 85 -6t97 -16.5t99.5 -25t92.5 -31.5v-437zM1053 1595l-447 -457h-205 l373 457h279z" />
<glyph unicode="&#xe6;" horiz-adv-x="1815" d="M1270 866q-96 0 -160 -53.5t-89 -165.5h472q-3 54 -20.5 94.5t-47 68.5t-69 42t-86.5 14zM604 846q-29 0 -58.5 -7t-58 -23t-55.5 -43t-50 -68q-25 -42 -40.5 -106t-15.5 -132q0 -75 13.5 -129.5t35.5 -89.5t50 -51.5t57 -16.5q38 0 82.5 23.5t88 63t82 91t63.5 107.5 v349q-30 13 -82 22.5t-112 9.5zM959 932q63 59 147 89t179 30q84 0 148 -20t111 -54.5t78.5 -81.5t50.5 -101t27 -112t8 -115v-20t-0.5 -27.5t-1 -27.5t-0.5 -20h-698q6 -76 31 -131.5t65 -92.5t92.5 -55t112.5 -18q92 0 186 24t195 86l24 -204q-56 -28 -108.5 -48t-105 -33 t-105.5 -18.5t-110 -5.5q-67 0 -130 16t-118.5 48t-101 79.5t-77.5 110.5q-34 -48 -78 -93.5t-94.5 -81t-106 -57.5t-112.5 -22q-65 0 -129.5 27.5t-115.5 82.5t-83 138t-32 194q0 113 25.5 208t70.5 167q39 62 84 110.5t98.5 82t117.5 50.5t140 15q69 -2 149.5 -15.5 t166.5 -43.5v-60z" />
<glyph unicode="&#xe9;" horiz-adv-x="1095" d="M560 866q-95 0 -157 -53.5t-85 -165.5h464q-2 54 -19.5 94.5t-47 68.5t-69 42t-86.5 14zM574 1051q84 0 148 -20t111 -54.5t78.5 -81.5t50.5 -101t27 -112t8 -115v-20t-0.5 -27.5t-1 -27.5t-0.5 -20h-687q5 -76 28 -132t61.5 -92.5t89.5 -54.5t112 -18q92 0 186 24 t195 86l23 -204q-56 -28 -108.5 -48t-105 -33t-105.5 -18.5t-110 -5.5q-97 0 -185.5 34t-155 100t-106 164t-39.5 227q0 125 34 226.5t97 173.5t153 111t202 39zM1007 1595l-447 -457h-205l373 457h279z" />
<glyph unicode="&#xed;" horiz-adv-x="530" d="M372 482q0 -46 1.5 -110.5t4.5 -132t7 -131t9 -108.5h-241v535q0 71 -0.5 140t-2.5 133t-5 120.5t-9 102.5h236v-549zM703 1595l-447 -457h-205l373 457h279z" />
<glyph unicode="&#xf3;" horiz-adv-x="1140" d="M307 513q0 -80 19 -143.5t54 -108t83.5 -68t106.5 -23.5q55 0 103 23.5t83.5 68t56 108t20.5 143.5q0 81 -19 144.5t-54 107.5t-83 67.5t-107 23.5q-55 0 -103.5 -23.5t-83.5 -67.5t-55.5 -107.5t-20.5 -144.5zM88 513q0 130 39.5 230.5t106.5 168.5t156.5 103.5 t189.5 35.5q105 0 191.5 -35.5t149 -103.5t97 -168.5t34.5 -230.5q0 -131 -39.5 -231t-106.5 -168t-156.5 -103t-189.5 -35q-105 0 -191.5 35t-149 103t-97 168t-34.5 231zM1008 1595l-447 -457h-205l373 457h279z" />
<glyph unicode="&#xfa;" horiz-adv-x="1185" d="M479 -24q-331 0 -331 437v287q0 45 -0.5 82.5t-2.5 75t-7 79t-13 94.5h242v-559q0 -78 7.5 -134t24.5 -92t45 -53.5t69 -17.5q40 0 85 24t87 61.5t76.5 83t52.5 88.5v268q0 47 -0.5 84.5t-2.5 74.5t-7 77.5t-13 94.5h242v-574q0 -141 18.5 -252t53.5 -205h-206 q-14 33 -29 78.5t-24 90.5q-88 -100 -176.5 -146.5t-190.5 -46.5zM1027 1595l-447 -457h-205l373 457h279z" />
<glyph unicode="&#x104;" horiz-adv-x="1395" d="M860 15q-98 -68 -141.5 -116t-43.5 -93q0 -47 29.5 -72.5t75.5 -25.5q28 0 68.5 21t76.5 63l40 -137q-52 -49 -103.5 -68.5t-102.5 -19.5q-37 0 -79.5 12t-78.5 37t-59.5 64t-23.5 93q0 71 41 132.5t128 109.5h173zM685 1192l-54.5 -158l-53 -155l-53.5 -155.5 l-56 -159.5h437zM28 0l28 65.5l33 81.5l39.5 101l46.5 124l197.5 543.5l196.5 543.5h237l394 -1087l45.5 -124l39.5 -101l33.5 -81.5l28.5 -65.5h-243l-133 375h-569l-65.5 -188l-64.5 -187h-244z" />
<glyph unicode="&#x105;" horiz-adv-x="1150" d="M632 -9q-98 -68 -141.5 -116t-43.5 -93q0 -47 29.5 -72.5t75.5 -25.5q28 0 68.5 21t76.5 63l40 -137q-52 -49 -103.5 -68.5t-102.5 -19.5q-37 0 -79.5 12t-78.5 37t-59.5 64t-23.5 93q0 71 41 132.5t128 109.5h173zM595 846q-29 0 -58.5 -7t-58 -23t-55.5 -43t-50 -68 q-25 -42 -40 -106t-15 -132q0 -75 13.5 -129.5t35.5 -89.5t50 -51.5t56 -16.5q39 0 83.5 23.5t88 63t81.5 91t64 107.5v349q-30 13 -82 22.5t-113 9.5zM1008 535q0 -181 23.5 -311.5t59.5 -223.5h-213q-4 12 -12 33t-16.5 46.5l-17.5 54t-15 55.5q-37 -45 -78.5 -83.5 t-86.5 -67.5t-93.5 -45.5t-99.5 -16.5q-65 0 -129.5 27.5t-115.5 82.5t-83 138t-32 194q0 113 25.5 208t69.5 167q77 123 183 190.5t257 67.5q38 0 85 -6t97 -16.5t99.5 -25t92.5 -31.5v-437z" />
<glyph unicode="&#x10c;" horiz-adv-x="1355" d="M1236 149q-46 -43 -106.5 -75t-126.5 -54t-132 -33t-123 -11q-152 0 -273.5 51.5t-207 147t-131 231t-45.5 304.5q0 193 56 338t150 242t216 145.5t254 48.5q54 0 110 -7t113.5 -24.5t116 -46t115.5 -71.5l-72 -216q-101 90 -199 125t-184 35q-97 0 -179.5 -34.5 t-141.5 -102.5t-92.5 -170.5t-33.5 -237.5q0 -108 29 -207.5t84.5 -175.5t137 -121t186.5 -45q54 0 111 14t113 40.5t109 63.5t98 82zM490 2025l260 -264l130.5 132.5l129.5 131.5h193l-361 -457h-184l-361 457h193z" />
<glyph unicode="&#x10d;" horiz-adv-x="1020" d="M612 1051q100 0 176.5 -26t136.5 -69l-41 -217q-77 57 -145 84.5t-141 27.5q-61 0 -114 -23.5t-91 -67.5t-60 -108.5t-22 -145.5q0 -74 20 -135t57 -104.5t90 -67.5t120 -24q85 0 161 35t151 101l24 -218q-40 -31 -79.5 -53t-82 -36.5t-90 -21t-104.5 -6.5 q-102 0 -191 36t-156 103.5t-105.5 163.5t-38.5 217q0 114 37 215t105 176.5t165.5 119.5t217.5 44zM310 1595l260 -264l130.5 132.5l129.5 131.5h193l-361 -457h-184l-361 457h193z" />
<glyph unicode="&#x12e;" horiz-adv-x="975" d="M564 15q-98 -68 -141.5 -116t-43.5 -93q0 -47 29.5 -72.5t75.5 -25.5q28 0 68.5 21t76.5 63l40 -137q-52 -49 -103.5 -68.5t-102.5 -19.5q-37 0 -79.5 12t-78.5 37t-59.5 64t-23.5 93q0 71 41 132.5t128 109.5h173zM825 1459v-180h-238v-1099h238v-180h-695v180h233v1099 h-233v180h695z" />
<glyph unicode="&#x12f;" horiz-adv-x="565" d="M380 15q-98 -68 -141.5 -116t-43.5 -93q0 -47 29.5 -72.5t75.5 -25.5q28 0 68.5 21t76.5 63l40 -137q-52 -49 -103.5 -68.5t-102.5 -19.5q-37 0 -79.5 12t-78.5 37t-59.5 64t-23.5 93q0 71 41 132.5t128 109.5h173zM139 1328q0 32 10.5 59.5t29.5 47.5t45.5 32t57.5 12 q32 0 58.5 -12t45.5 -32t29.5 -47.5t10.5 -59.5q0 -31 -10.5 -59t-29.5 -48t-45.5 -32t-58.5 -12q-31 0 -57.5 12t-45.5 32t-29.5 48t-10.5 59zM392 482q0 -46 1.5 -110.5t4.5 -132t7 -131t9 -108.5h-241v535q0 71 -0.5 140t-2.5 133t-5 120.5t-9 102.5h236v-549z" />
<glyph unicode="&#x131;" horiz-adv-x="530" d="M372 482q0 -46 1.5 -110.5t4.5 -132t7 -131t9 -108.5h-241v535q0 71 -0.5 140t-2.5 133t-5 120.5t-9 102.5h236v-549z" />
<glyph unicode="&#x147;" horiz-adv-x="1500" d="M370 1078v-1078h-219q15 78 17.5 189.5t2.5 253.5v574q0 141 -2.5 252.5t-17.5 189.5h210l744 -1086v1086h218q-13 -75 -16 -187.5t-3 -254.5v-1017h-190zM477 2025l260 -264l130.5 132.5l129.5 131.5h193l-361 -457h-184l-361 457h193z" />
<glyph unicode="&#x148;" horiz-adv-x="1185" d="M716 1051q166 0 253.5 -106t87.5 -318v-627h-219v555q0 86 -10.5 141.5t-32.5 87.5t-55 45t-77 13q-49 0 -95.5 -23.5t-86.5 -60.5t-70 -83.5t-45 -93.5v-581h-219v618q0 71 -5 133t-13.5 114.5t-18.5 94.5t-20 71h216q6 -16 11.5 -36.5t10.5 -42t9 -43.5t7 -42 q90 97 180.5 140.5t191.5 43.5zM340 1595l260 -264l130.5 132.5l129.5 131.5h193l-361 -457h-184l-361 457h193z" />
<glyph unicode="&#x14a;" horiz-adv-x="1466" d="M1055 783q0 125 -10.5 214t-38 145t-74.5 82t-120 26q-44 0 -86.5 -18t-81.5 -49t-74.5 -72.5t-64.5 -87.5t-51.5 -94.5t-35.5 -93.5v-835h-243q14 78 16.5 186.5t2.5 251.5v438q0 101 -7 189t-17 161.5t-22 130.5t-23 97h220q6 -22 13 -51.5t13 -62l11.5 -65t9.5 -59.5 q114 143 236 205.5t247 62.5q95 0 170 -38t127 -113t79.5 -186.5t27.5 -259.5v-726q0 -160 -28 -276.5t-86.5 -192.5t-148.5 -112.5t-214 -36.5q-40 0 -86 8t-89.5 20.5t-80 27t-58.5 26.5l43 224q22 -16 56.5 -34t73 -33t77.5 -25t69 -10q57 0 103 19.5t78.5 61.5 t49.5 108.5t17 160.5v686z" />
<glyph unicode="&#x14b;" horiz-adv-x="1185" d="M1057 122q0 -146 -25 -254.5t-78 -180.5t-136 -108t-199 -36q-37 0 -77.5 7t-80.5 19t-77 28.5t-67 35.5l79 194q22 -17 49.5 -32.5t57.5 -27t59.5 -18.5t56.5 -7q60 0 101.5 22t67.5 63t38 99.5t12 131.5v433q0 111 -11 179.5t-33 107t-54.5 51.5t-76.5 13 q-49 0 -95.5 -23.5t-86.5 -60.5t-70 -83.5t-45 -93.5v-581h-219v618q0 71 -5.5 133.5t-13.5 115t-18 94t-19 70.5h215q6 -16 11.5 -36.5t10.5 -42t9 -43.5t7 -42q91 97 181.5 140.5t190.5 43.5q83 0 146.5 -27t106.5 -85.5t65.5 -151t22.5 -223.5v-442z" />
<glyph unicode="&#x160;" horiz-adv-x="1175" d="M963 1156q-58 32 -106 54.5t-91.5 36.5t-85 20.5t-85.5 6.5q-54 0 -99 -16t-77 -42t-50 -60.5t-18 -70.5t10.5 -66t43.5 -56.5t93.5 -52.5t160.5 -55q99 -29 176 -68t129.5 -90t79.5 -116t27 -148q0 -102 -40 -186t-109 -144.5t-161 -93.5t-196 -33q-72 0 -140.5 10.5 t-130.5 29.5t-115 45.5t-93 57.5l53 243q108 -94 214 -135.5t212 -41.5q55 0 106 15t90 44.5t62.5 72t23.5 96.5q0 35 -11.5 67t-47 62.5t-101.5 61.5t-176 63q-118 35 -192.5 78t-117 93t-58 108t-15.5 124q0 43 12 90.5t36.5 93.5t63 88t91.5 73.5t121 50t152 18.5 q58 0 109 -5.5t100 -17.5t97.5 -30t100.5 -44zM320 2025l260 -264l130.5 132.5l129.5 131.5h193l-361 -457h-184l-361 457h193z" />
<glyph unicode="&#x161;" horiz-adv-x="965" d="M514 1051q55 0 103.5 -8t90 -20.5t77 -28t63.5 -30.5l-42 -212q-27 17 -61 35t-72.5 33.5t-80 25.5t-84.5 10q-48 0 -81.5 -9.5t-54 -25t-29.5 -34.5t-9 -38q0 -21 7.5 -37.5t30.5 -31t66 -28.5t114 -30v1q69 -15 130.5 -39t107.5 -61.5t72.5 -90.5t26.5 -126 q0 -69 -30.5 -129.5t-84 -105t-125 -70t-154.5 -25.5q-61 0 -118 10t-108 26.5t-94 39t-76 47.5l59 218q38 -33 82 -60t89 -46.5t89.5 -30t81.5 -10.5q38 0 70 9.5t55.5 25t36.5 36t13 41.5q0 23 -11.5 44t-40.5 41t-77.5 39t-123.5 38q-90 23 -148.5 54t-92.5 68.5 t-47.5 81t-13.5 91.5q0 24 7.5 56.5t25.5 67t47.5 68.5t73 60.5t103 43t137.5 16.5zM235 1595l260 -264l130.5 132.5l129.5 131.5h193l-361 -457h-184l-361 457h193z" />
<glyph unicode="&#x172;" horiz-adv-x="1440" d="M796 -9q-98 -68 -141.5 -116t-43.5 -93q0 -47 29.5 -72.5t75.5 -25.5q28 0 68.5 21t76.5 63l40 -137q-52 -49 -103.5 -68.5t-102.5 -19.5q-37 0 -79.5 12t-78.5 37t-59.5 64t-23.5 93q0 71 41 132.5t128 109.5h173zM1263 1459q-12 -75 -15 -183.5t-3 -258.5v-497 q0 -123 -32.5 -223t-98.5 -171.5t-166.5 -110.5t-237.5 -39q-138 0 -239.5 39t-168.5 110.5t-99.5 171.5t-32.5 223v497q0 142 -3 254.5t-15 187.5h242v-895q0 -91 15.5 -164t52 -124t97.5 -78.5t151 -27.5q89 0 148.5 27.5t95.5 78.5t51.5 124t15.5 164v895h242z" />
<glyph unicode="&#x173;" horiz-adv-x="1185" d="M652 -9q-98 -68 -141.5 -116t-43.5 -93q0 -47 29.5 -72.5t75.5 -25.5q28 0 68.5 21t76.5 63l40 -137q-52 -49 -103.5 -68.5t-102.5 -19.5q-37 0 -79.5 12t-78.5 37t-59.5 64t-23.5 93q0 71 41 132.5t128 109.5h173zM479 -24q-331 0 -331 437v287q0 45 -0.5 82.5t-2.5 75 t-7 79t-13 94.5h242v-559q0 -78 7.5 -134t24.5 -92t45 -53.5t69 -17.5q40 0 85 24t87 61.5t76.5 83t52.5 88.5v268q0 47 -0.5 84.5t-2.5 74.5t-7 77.5t-13 94.5h242v-574q0 -141 18.5 -252t53.5 -205h-206q-14 33 -29 78.5t-24 90.5q-88 -100 -176.5 -146.5t-190.5 -46.5z " />
<glyph unicode="&#x17d;" horiz-adv-x="1230" d="M1111 1307l-756 -1108h342q141 0 256 5.5t187 19.5v-224h-1070v148l756 1112h-294q-70 0 -128 -1t-107 -4t-90 -7.5t-79 -11.5v223h983v-152zM345 2025l260 -264l130.5 132.5l129.5 131.5h193l-361 -457h-184l-361 457h193z" />
<glyph unicode="&#x17e;" horiz-adv-x="1040" d="M938 1031v-118l-558 -728h378q44 0 90 2.5t105 16.5v-204h-856v133l540 713h-341q-42 0 -83.5 -3t-86.5 -21v209h812zM265 1595l260 -264l130.5 132.5l129.5 131.5h193l-361 -457h-184l-361 457h193z" />
<glyph unicode="&#x1dd;" horiz-adv-x="1048" d="M499 154q108 0 163.5 58.5t73.5 163.5h-452q5 -108 59.5 -165t155.5 -57zM486 -26q-126 0 -207.5 41.5t-128.5 110t-65 155t-18 176.5v20v27q0 15 0.5 28t0.5 20h678q-4 71 -27.5 125.5t-62.5 92.5t-90.5 57.5t-112.5 19.5q-91 0 -177 -34.5t-178 -102.5l-25 206 q53 32 101.5 57t97 41.5t99 25t107.5 8.5q98 0 186 -33.5t154.5 -98.5t106 -161t39.5 -221t-29.5 -228.5t-89 -177t-149.5 -114t-210 -40.5z" />
<glyph unicode="&#x1e6;" horiz-adv-x="1420" d="M1278 161q-79 -55 -148 -91t-133.5 -57t-126.5 -29t-127 -8q-142 0 -261.5 49t-206 143.5t-135 233t-48.5 318.5t53.5 322t146.5 240t218.5 150t269.5 52q61 0 119 -6t116.5 -22t120.5 -45t132 -75l-78 -216q-60 48 -114 79t-104 48.5t-97.5 24.5t-94.5 7 q-107 0 -192 -37.5t-144.5 -107t-91.5 -168.5t-32 -222q0 -130 30.5 -233.5t87 -176t137 -111t180.5 -38.5q41 0 77.5 4t72.5 13.5t73 26t77 40.5v295h-341v200h564v-603zM485 2025l260 -264l130.5 132.5l129.5 131.5h193l-361 -457h-184l-361 457h193z" />
<glyph unicode="&#x1e7;" horiz-adv-x="1125" d="M594 846q-75 0 -128 -31t-86 -81t-48.5 -114t-15.5 -129q0 -84 12.5 -140.5t35 -90t52.5 -47.5t66 -14q34 0 73 14t78.5 41t77 66t68.5 89v404q-45 15 -95.5 24t-89.5 9zM997 44q0 -134 -39 -228.5t-102.5 -155.5t-145 -89t-165.5 -28q-97 0 -195 34.5t-184 92.5l78 190 q77 -54 149.5 -88.5t141.5 -34.5q35 0 77.5 13t79.5 44.5t62 84t25 131.5v127q-76 -77 -159 -109.5t-158 -32.5q-70 0 -136 24.5t-116.5 78.5t-81 139t-30.5 206q0 116 30 225t94 194.5t163.5 137t237.5 51.5q46 0 94.5 -7t96.5 -18.5t94.5 -25t88.5 -27.5v-929zM335 1595 l260 -264l130.5 132.5l129.5 131.5h193l-361 -457h-184l-361 457h193z" />
<glyph unicode="&#x1f0;" horiz-adv-x="595" d="M47 2058l260 -264l130.5 132.5l129.5 131.5h193l-361 -457h-184l-361 457h193zM164 1328q0 32 10.5 59.5t29.5 47.5t45.5 32t57.5 12q32 0 58.5 -12t45.5 -32t29.5 -47.5t10.5 -59.5q0 -31 -10.5 -59t-29.5 -48t-45.5 -32t-58.5 -12q-31 0 -57.5 12t-45.5 32t-29.5 48 t-10.5 59zM417 44q0 -142 -27.5 -238t-77.5 -154.5t-121.5 -83.5t-158.5 -25q-22 0 -52 5t-62.5 14.5t-64.5 23t-57 31.5l43 203q20 -15 46.5 -28.5t54.5 -23t54.5 -15.5t45.5 -6q35 0 64 14t50 44t32.5 77t11.5 113v540q0 71 -0.5 140t-2.5 133t-5.5 120.5t-9.5 102.5h237 v-987z" />
<glyph unicode="&#x21e;" horiz-adv-x="1475" d="M1056 0v657h-662v-657h-243q14 78 16.5 186.5t2.5 251.5v583q0 143 -2.5 251.5t-16.5 186.5h243v-608h662v608h243q-14 -78 -16.5 -186.5t-2.5 -251.5v-583q0 -143 2.5 -251.5t16.5 -186.5h-243zM465 2025l260 -264l130.5 132.5l129.5 131.5h193l-361 -457h-184l-361 457 h193z" />
<glyph unicode="&#x21f;" horiz-adv-x="1175" d="M707 1051q165 0 252.5 -106t87.5 -318v-627h-219v555q0 86 -11 141.5t-32.5 87.5t-54.5 45t-77 13q-48 0 -95 -23.5t-86.5 -60.5t-70 -83.5t-45.5 -93.5v-581h-219v1119q0 157 -2 276t-16 200h237v-713q74 85 164 127t187 42zM325 2130l260 -264l130.5 132.5l129.5 131.5 h193l-361 -457h-184l-361 457h193z" />
<glyph unicode="&#x259;" horiz-adv-x="1048" d="M499 154q108 0 163.5 58.5t73.5 163.5h-452q5 -108 59.5 -165t155.5 -57zM486 -26q-126 0 -207.5 41.5t-128.5 110t-65 155t-18 176.5v20v27q0 15 0.5 28t0.5 20h678q-4 71 -27.5 125.5t-62.5 92.5t-90.5 57.5t-112.5 19.5q-91 0 -177 -34.5t-178 -102.5l-25 206 q53 32 101.5 57t97 41.5t99 25t107.5 8.5q98 0 186 -33.5t154.5 -98.5t106 -161t39.5 -221t-29.5 -228.5t-89 -177t-149.5 -114t-210 -40.5z" />
<glyph unicode="&#x2bc;" horiz-adv-x="605" d="M222 895q0 9 -0.5 27t-0.5 27q-1 48 -3.5 100t-6.5 113t-11.5 134t-19.5 163h245q-12 -100 -19.5 -181t-12 -148.5t-7 -124.5t-4.5 -110h-160z" />
<glyph unicode="&#x2c7;" horiz-adv-x="850" d="M165 1595l260 -264l130.5 132.5l129.5 131.5h193l-361 -457h-184l-361 457h193z" />
<glyph unicode="&#x2db;" horiz-adv-x="416" d="M328 41q-98 -68 -141.5 -116t-43.5 -93q0 -47 29.5 -72.5t75.5 -25.5q28 0 68.5 21t76.5 63l40 -137q-52 -49 -103.5 -68.5t-102.5 -19.5q-37 0 -79.5 12t-78.5 37t-59.5 64t-23.5 93q0 71 41 132.5t128 109.5h173z" />
<glyph unicode="&#x301;" horiz-adv-x="0" d="M-132 1595l-447 -457h-205l373 457h279z" />
<glyph unicode="&#x30c;" horiz-adv-x="0" d="M-830 1595l260 -264l130.5 132.5l129.5 131.5h193l-361 -457h-184l-361 457h193z" />
<glyph unicode="&#x2013;" horiz-adv-x="1055" d="M73 725h909v-185h-909v185z" />
<glyph unicode="&#x2014;" horiz-adv-x="1735" d="M82 725h1571v-185h-1571v185z" />
<glyph unicode="&#x2018;" horiz-adv-x="530" d="M451 1149q-6 -27 -21 -48t-36 -35.5t-45.5 -22t-48.5 -7.5q-33 0 -62.5 12.5t-51.5 36t-34.5 57t-12.5 74.5q0 193 185 369l137 -55q-22 -22 -46.5 -53t-45.5 -66t-35.5 -71.5t-17.5 -69.5h135v-121z" />
<glyph unicode="&#x2019;" horiz-adv-x="548" d="M149 1468q6 27 21 48t36 35.5t45.5 22t48.5 7.5q33 0 62.5 -12.5t51 -36t34 -57t12.5 -74.5q0 -96 -45.5 -188.5t-138.5 -180.5l-138 55q23 22 47.5 53t45.5 66t35.5 71.5t17.5 69.5h-135v121z" />
<glyph unicode="&#x201a;" horiz-adv-x="760" d="M249 169q6 27 21 48t36 35.5t45.5 22t48.5 7.5q33 0 62.5 -12.5t51 -36t34 -57t12.5 -74.5q0 -95 -45.5 -188t-138.5 -181l-138 55q23 22 47.5 53t45.5 66t35.5 72t17.5 70h-135v120z" />
<glyph unicode="&#x201c;" horiz-adv-x="1050" d="M925 1149q-6 -27 -21 -48t-36 -35.5t-45.5 -22t-48.5 -7.5q-33 0 -62 12.5t-51 36t-34.5 57t-12.5 74.5q0 96 45.5 188.5t138.5 180.5l138 -55q-22 -22 -46.5 -53t-45.5 -66t-36 -71.5t-18 -69.5h135v-121zM507 1149q-6 -27 -21 -48t-36 -35.5t-45.5 -22t-48.5 -7.5 q-33 0 -62.5 12.5t-51.5 36t-34.5 57t-12.5 74.5q0 193 185 369l137 -55q-22 -22 -46.5 -53t-45.5 -66t-36 -71.5t-18 -69.5h136v-121z" />
<glyph unicode="&#x201d;" horiz-adv-x="1010" d="M195 1468q6 27 21 48t36 35.5t45.5 22t48.5 7.5q33 0 62 -12.5t51 -36t34.5 -57t12.5 -74.5q0 -96 -45.5 -188.5t-139.5 -180.5l-137 55q23 22 47 53t45 66t36 71.5t18 69.5h-135v121zM613 1468q6 27 21 48t36 35.5t45.5 22t48.5 7.5q33 0 62.5 -12.5t51.5 -36t34.5 -57 t12.5 -74.5q0 -193 -185 -369l-137 55q22 22 46.5 53t45.5 66t36 71.5t18 69.5h-136v121z" />
<glyph unicode="&#x201e;" horiz-adv-x="990" d="M205 169q6 27 21 48t36 35.5t45.5 22t48.5 7.5q33 0 62 -12.5t51 -36t34.5 -57t12.5 -74.5q0 -95 -45.5 -188t-139.5 -181l-137 55q23 22 47 53t45 66t36 72t18 70h-135v120zM623 169q6 27 21 48t36 35.5t45.5 22t48.5 7.5q33 0 62.5 -12.5t51.5 -36t34.5 -57t12.5 -74.5 q0 -95 -46 -188t-139 -181l-137 55q22 22 46.5 53t45.5 66t36 72t18 70h-136v120z" />
<glyph unicode="&#x2020;" horiz-adv-x="1025" d="M493 970h42v45h-42v-45zM837 880l-294 81l91 -341l-90 -862h-62l-90 862l90 341l-293 -81l-183 112l182 114l294 -83l-84 294l115 184l115 -184l-85 -295l295 85l182 -115z" />
<glyph unicode="&#x2021;" horiz-adv-x="1024" d="M492 970h42v45h-42v-45zM492 223h42v45h-42v-45zM837 131l-294 81l83 -292l-114 -184l-112 185l81 291l-294 -81l-181 114l181 112l294 -81l-109 344l109 341l-294 -81l-181 112l181 115l294 -84l-81 293l112 185l115 -184l-85 -295l295 85l182 -115l-183 -112l-294 81 l108 -343l-108 -343l294 82l183 -112z" />
<glyph unicode="&#x2022;" horiz-adv-x="940" d="M237 733q0 48 18.5 90t50 73.5t73.5 50t90 18.5t90.5 -18.5t74.5 -50t50.5 -73.5t18.5 -90t-18.5 -90.5t-50.5 -75t-74.5 -51t-90.5 -18.5t-90 18.5t-73.5 51t-50 75t-18.5 90.5z" />
<glyph unicode="&#x2026;" horiz-adv-x="1724" d="M712 125q0 32 11.5 59t32 47.5t48 32t58.5 11.5q32 0 59 -11.5t47.5 -32t32 -47.5t11.5 -59q0 -31 -11.5 -58t-32 -47.5t-47.5 -32t-59 -11.5q-31 0 -58.5 11.5t-48 32t-32 47.5t-11.5 58zM184 125q0 32 11.5 59t32 47.5t48 32t58.5 11.5t58.5 -11.5t47.5 -32t32 -47.5 t12 -59q0 -31 -12 -58t-32 -47.5t-47.5 -32t-58.5 -11.5t-58.5 11.5t-48 32t-32 47.5t-11.5 58zM1240 125q0 32 12 59t32 47.5t47.5 32t58.5 11.5q32 0 59 -11.5t47.5 -32t32 -47.5t11.5 -59q0 -31 -11.5 -58t-32 -47.5t-47.5 -32t-59 -11.5q-31 0 -58.5 11.5t-47.5 32 t-32 47.5t-12 58z" />
<glyph unicode="&#x20ac;" d="M59 958h119q33 119 92.5 208.5t135.5 149t162.5 89.5t172.5 30q51 0 97.5 -7t93 -23.5t95 -43.5t103.5 -68l-70 -207q-48 43 -89 72t-78.5 47t-74.5 25.5t-77 7.5q-55 0 -107 -17.5t-97 -53t-80.5 -88t-58.5 -121.5h476l-50 -180h-459q-1 -14 -1 -28v-28v-9v-5v-5v-7h444 l-50 -180h-365q20 -68 52.5 -126t76 -100t97 -66t114.5 -24q50 0 97 13.5t91.5 38.5t88 60.5t86.5 79.5l46 -227q-43 -41 -93.5 -72t-104.5 -51.5t-110.5 -31t-110.5 -10.5q-108 0 -201 35.5t-166 102t-122.5 162.5t-72.5 216h-151l49 180h86v3v22v18q0 9 0.5 18t1.5 21 h-137z" />
</font>
</defs>
</svg>
