<?xml version="1.0" standalone="no"?>
<!DOCTYPE svg PUBLIC "-//W3C//DTD SVG 1.1//EN" "http://www.w3.org/Graphics/SVG/1.1/DTD/svg11.dtd" >
<svg xmlns="http://www.w3.org/2000/svg">
<metadata>
This is a custom SVG webfont generated by Font Squirrel.
Designer    : Mark Williamson
Foundry     : Mark Williamson Lakota Language Consortium
</metadata>
<defs>
<font id="webfontscmtiIeV" horiz-adv-x="1081" >
<font-face units-per-em="2048" ascent="1638" descent="-410" />
<missing-glyph horiz-adv-x="540" />
<glyph unicode=" "  horiz-adv-x="540" />
<glyph unicode="&#x09;" horiz-adv-x="540" />
<glyph unicode="&#xa0;" horiz-adv-x="540" />
<glyph unicode="!" horiz-adv-x="625" d="M424 1155l-35 -397l-36 -397h-77l-6.5 76.5l-10 122.5l-12 152.5l-13 166.5t-12 164t-10.5 145t-7.5 110t-2.5 59q28 32 72.5 50.5t95.5 18.5q24 -14 40 -46t16 -83v-68.5t-2 -73.5zM365 199q16 -5 27 -17t17.5 -27.5t9 -33.5t2.5 -36q0 -34 -7.5 -54t-22.5 -30 t-36.5 -12.5t-48.5 -2.5q-35 0 -55 8t-30 23t-12.5 36t-2.5 47q0 42 14.5 62.5t37 29t51 8t56.5 -0.5z" />
<glyph unicode="&#x22;" horiz-adv-x="781" d="M525 875l-51 285q-5 52 -8.5 102t-3.5 104q13 32 39.5 46t62.5 14q34 0 61 -14.5t40 -38.5v-60q0 -45 -4.5 -88l-9.5 -92l-48 -258h-78zM177 875q-2 10 -7.5 44l-12.5 80l-15 97l-14.5 95t-10.5 75.5t-4 38.5q0 48 13 77t36 44q48 0 88 -14.5t66 -39.5v-30 q0 -10 -4 -44.5t-10 -81.5t-13.5 -100.5l-14.5 -102t-13 -86t-8 -52.5h-76z" />
<glyph unicode="#" d="M109 -26l45 219.5l45 220.5h-170v115h193l35.5 177l35.5 176h-264v115h289l44 220.5l45 221.5h116l-44 -221.5l-45 -220.5h326l46 220.5l46 221.5h117l-45.5 -221.5l-45.5 -220.5h172v-115h-194l-36.5 -176l-36.5 -177h267v-115h-290l-45 -220.5l-45 -219.5h-116 l44.5 219.5l44.5 220.5h-327l-45.5 -220.5l-45.5 -219.5h-116zM411 882l-36 -176l-36 -177h326l37 177l37 176h-328v0z" />
<glyph unicode="$" d="M126 110q-16 60 -24.5 125t-11.5 135q29 5 56.5 9l56.5 8q16 -151 91 -221q75 -77 192 -87v578q-57 23 -108.5 50t-99.5 59q-89 59 -130 141q-42 73 -42 172q0 133 84 231q24 28 55 52q89 68 241 84v89h85v-89q67 -4 118 -18q58 -15 171 -72q30 -62 47.5 -132.5 t23.5 -151.5q-28 -3 -56 -6.5t-56 -7.5q-15 131 -75 197q-59 65 -173 82v-514q66 -31 114 -56.5t79 -46.5q101 -58 151 -128q65 -90 65 -223q0 -9 -0.5 -18.5t-1.5 -19.5q-10 -131 -108 -232q-110 -115 -299 -127v-155h-85v154q-115 10 -198 40t-162 99zM486 1337 q-111 -15 -166 -84q-46 -56 -46 -135q0 -73 38 -132q24 -37 66.5 -69t107.5 -61v481zM571 79q72 10 119 41q17 11 31 24t26 27q63 74 63 174q0 82 -45 141q-22 30 -70 64.5t-124 72.5v-544z" />
<glyph unicode="%" horiz-adv-x="1763" d="M1386 1439l-446.5 -747l-446.5 -747h-119l447 746.5l448 747.5h117zM395 1439q137 0 219 -106q83 -106 83 -273q0 -179 -88 -278q-88 -97 -214 -97q-90 0 -160 49q-12 8 -22.5 18l-21.5 21q-36 39 -60 95q-36 85 -36 198q0 111 42 201q16 31 36 61q42 56 98.5 83.5 t123.5 27.5zM396 1349q-59 0 -101 -59q-42 -60 -42 -233q0 -63 6.5 -110.5t19.5 -81.5q3 -8 6.5 -15.5t7.5 -14.5q15 -26 36 -42q28 -21 66 -21q58 0 97 55q2 3 3.5 6.5t3.5 7.5q40 67 40 220q0 168 -47 233q-37 55 -96 55zM1361 697q86 0 160 -51q14 -9 26.5 -19.5 t23.5 -23.5q47 -50 70.5 -121.5t23.5 -161.5q0 -181 -89 -279q-89 -96 -213 -96q-87 0 -159 51q-26 16 -48 42q-45 50 -69 122t-24 166q0 111 42 200q16 35 36 61q41 55 97.5 82.5t122.5 27.5zM1364 608q-48 0 -82 -40q-13 -13 -23 -29q-38 -68 -38 -226q0 -160 46 -224 q7 -9 16 -16q35 -38 80 -38q58 0 98 56q46 65 46 232q0 149 -39 217q-9 15 -23 30q-35 38 -81 38z" />
<glyph unicode="&#x26;" horiz-adv-x="1479" d="M1039 763l11 6.5t12 6.5q71 -4 140.5 -7.5t139.5 -7.5l-4 -24.5l-4 -24.5q-46 -5 -65 -20q-12 -15 -30.5 -45.5t-43.5 -78.5q-64 -137 -146 -246q54 -65 97 -95q26 -20 53 -35.5t54 -24.5q33 -10 64 -10q54 0 89 33l-21 -43t-21 -42q-26 -55 -67.5 -81t-95.5 -26 q-18 0 -36 3q-58 14 -117 53.5t-127 113.5q-76 -77 -155.5 -120.5t-166.5 -54.5q-56 -13 -117 -13q-38 0 -77 6q-69 10 -123.5 35.5t-98.5 70.5q-81 81 -93 184q-4 23 -4 52q0 33 6 68q5 35 17.5 69t31.5 67q79 144 322 268q-73 108 -98 177q-25 68 -25 133q0 130 87 220 q17 17 35 31t38 25q84 53 196 53q8 0 15 -0.5t14 -1.5q115 -7 191 -80q85 -81 85 -197q0 -107 -71 -190q-72 -86 -232 -169l131 -192l133 -182q106 139 116 251q0 23 -15 41q-8 28 -24 44zM635 892q134 70 181 147q35 56 35 121q0 75 -46 121q-45 47 -114 47q-81 0 -127 -54 q-46 -52 -46 -116q0 -44 17 -91q12 -34 39 -77l29 -47.5zM839 268l-174 234l-68.5 97l-70.5 108q-66 -39 -113.5 -78t-75.5 -79q-55 -77 -55 -163q0 -99 70 -187q69 -88 193 -88q61 0 116 23q12 5 24.5 11.5t25.5 14.5q35 20 66.5 46.5t61.5 60.5z" />
<glyph unicode="'" horiz-adv-x="380" d="M147 875l-25.5 142.5l-24.5 142.5q-12 91 -12 144q0 48 13 77.5t36 44.5q48 0 88 -14.5t66 -38.5v-31q0 -32 -3 -77.5t-10 -105.5q-2 -8 -3 -16.5t-3 -17.5l-22.5 -125l-22.5 -125h-77z" />
<glyph unicode="(" horiz-adv-x="682" d="M622 -416q-17 -5 -32.5 -9t-32.5 -9q-53 38 -98.5 79.5t-83.5 89.5q-92 118 -159 263q-11 22 -20 44l-18 45q-74 203 -74 424q0 249 91 467q13 32 27.5 64t31.5 64q119 212 303 350q17 -5 32.5 -10.5t32.5 -10.5q-122 -137 -181 -241q-35 -65 -62 -137.5t-45 -156.5 q-21 -93 -31 -186.5t-10 -190.5q0 -179 30 -339q26 -142 72 -254q36 -91 91 -176.5t136 -169.5z" />
<glyph unicode=")" horiz-adv-x="682" d="M85 1435l32 10.5l32 10.5q108 -79 184 -172q122 -155 192 -340q78 -207 78 -432q0 -265 -105 -500l-22 -46l-23 -46q-122 -226 -304 -354q-16 5 -32 9t-32 9q54 54 97.5 113t79.5 125q82 156 119 340q33 163 33 334q0 199 -38 381q-2 12 -4.5 22.5t-4.5 20.5 q-21 90 -51 165q-9 23 -19.5 44.5l-21.5 43.5q-28 53 -74.5 118t-115.5 144z" />
<glyph unicode="*" horiz-adv-x="910" d="M417 1143q-2 26 -6 51.5t-11 50.5q-20 79 -22 122v4q0 36 12 57t29 28h72q14 -8 25.5 -28.5t11.5 -52.5v-3q-1 -44 -18 -112q-15 -60 -21 -117q40 24 79 57q29 26 55 43t49 28q33 15 68 21q20 -11 35.5 -34.5t19.5 -50.5v-12q0 -24 -9 -45q-58 -28 -163 -50 q-59 -12 -108 -26q17 -11 37.5 -20.5t44.5 -17.5q76 -28 118 -71q33 -33 47 -70q-8 -20 -26 -36.5t-41 -21.5q-31 -11 -64 -11q-37 37 -90 109q-17 23 -36 46t-42 46q-1 -5 -1 -9.5v-9.5q0 -26 6 -56q1 -11 1 -21v-19q0 -54 -9 -85q-6 -30 -23.5 -52.5t-36.5 -30.5 q-11 -4 -23 -4t-21 4q-16 14 -20 40q0 26 11 58q6 17 9.5 28.5t5.5 17.5q-2 8 -2 19.5t-2 25.5q-20 -6 -38 -13t-34 -16q-21 -19 -36.5 -30t-27.5 -15q-14 -8 -27 -8q-20 2 -34.5 15t-16.5 29q11 26 30.5 51t48.5 44q30 25 90 48q43 17 77 36q-51 18 -111 30 q-51 11 -88.5 21.5t-63.5 20.5q-13 25 -13 53q0 6 0.5 11.5t1.5 11.5q3 23 17 42.5t32 28.5q29 -4 62 -20q50 -22 102 -65q46 -40 88 -65z" />
<glyph unicode="+" horiz-adv-x="1175" d="M524 189v450h-449v125h449v448h125v-448h449v-125h-449v-450h-125z" />
<glyph unicode="," horiz-adv-x="540" d="M165 -315q-7 15 -13 30l-12 30q44 17 75.5 42t51.5 62q34 49 36 110q0 9 -4 16q-2 7 -3 13.5t-3 11.5q-14 0 -41 -9q-28 -5 -53 -5q-24 11 -38.5 36.5t-14.5 61.5q0 54 18 101q42 17 90 17q65 0 117 -29q14 -40 20 -84.5t6 -93.5q0 -109 -55.5 -187t-176.5 -123z" />
<glyph unicode="-" horiz-adv-x="682" d="M74 578h535v-166h-535v166z" />
<glyph unicode="." horiz-adv-x="540" d="M323 199q22 -7 40 -33q16 -35 16 -74q0 -24 -4.5 -47t-12.5 -43q-20 -7 -43 -11.5t-47 -4.5q-25 0 -47.5 4.5t-42.5 11.5q-8 20 -12.5 43t-4.5 47q0 48 16 91q34 8 69.5 12t72.5 4z" />
<glyph unicode="/" horiz-adv-x="569" d="M571 1456l-228.5 -741.5l-228.5 -740.5h-113l229 740.5l229 741.5h112z" />
<glyph unicode="0" d="M79 696q0 246 62 409q34 90 82.5 155.5t112.5 107.5q46 29 96.5 44.5t106.5 15.5q99 0 178 -43.5t139 -128.5q68 -96 104 -225q36 -131 36 -324q0 -125 -15.5 -226.5t-45.5 -182.5q-66 -179 -188 -258q-101 -64 -213 -64q-202 0 -328 190q-10 13 -22 33 q-105 189 -105 497zM270 684q0 -321 76 -469q72 -134 190 -134q57 0 113 39q47 33 79 92q7 12 13 26.5t12 31.5q52 152 52 459q0 266 -53 411q-6 17 -12.5 30.5t-13.5 26.5q-37 61 -81 92q-46 31 -107 31q-77 0 -132 -54q-26 -24 -44 -52q-43 -68 -64 -185q-14 -78 -21 -164 t-7 -181z" />
<glyph unicode="1" d="M239 1061l-4 51l-4 51q72 34 137.5 71.5t126.5 79.5q75 59 113 114h75v-1136q0 -51 1 -89.5t3 -67.5q3 -18 7.5 -34t12.5 -31q16 -8 61 -8v-62h-345v100q47 1 62 8q14 26 20 61q2 17 3.5 45t1.5 69v776q-11 -11 -24 -21q-25 52 -66 54q-8 8 -19.5 11t-25.5 3 q-6 0 -12 -0.5t-12 -1.5l-54 -19.5t-58 -23.5z" />
<glyph unicode="2" d="M966 217l9.5 -43.5l9.5 -43.5l-51 -65l-51 -65h-830v8q0 19 2.5 37.5t7.5 35.5q63 90 141 174l118.5 121.5l123.5 121.5l78 74.5t65 67.5q75 88 115 165q58 104 58 201q0 10 -0.5 19t-1.5 18q-9 90 -74 155t-159 74q-8 1 -15 1h-15q-33 0 -63 -6q-52 -11 -93 -37 q-54 -30 -90 -84t-51 -131l-111 9q24 211 154 314q109 90 278 90q189 0 304 -112q117 -111 117 -270q0 -78 -28 -155q-15 -40 -38 -78q-23 -40 -52 -79q-77 -111 -242 -267q-156 -150 -220 -217q-26 -26 -45 -48t-33 -40h383q40 0 71.5 1t54.5 3q48 4 91 16t82 35z" />
<glyph unicode="3" d="M210 1071l-53 12l-53 12q38 143 127 225q55 54 123.5 81t153.5 27q108 0 194 -45q57 -30 98 -77q42 -48 60.5 -100t18.5 -107q0 -6 -0.5 -12t-0.5 -12q-7 -79 -55 -150t-137 -127q128 -39 196 -131.5t68 -225.5q0 -8 -0.5 -14.5t-1.5 -14.5q-7 -164 -124 -287 q-124 -128 -324 -145q-8 -1 -16.5 -1h-16.5q-35 0 -69 4t-67 13q-76 12 -128 44q-28 16 -45 34q-66 68 -74 161q8 16 27 27.5t43 12.5q22 2 43 3t43 1q18 -53 69 -101q48 -46 90 -65q23 -11 49 -15.5t55 -4.5q115 0 195 83q5 5 9 10.5l8 10.5q51 61 60 141q1 8 1.5 17 t0.5 17q0 14 -1.5 29t-3.5 30q-2 17 -5.5 32.5t-8.5 31.5q-21 63 -64 105q-62 60 -162 77q-23 8 -46.5 11t-48.5 3h-10l-24.5 -4t-26.5 -4q2 24 4.5 47.5t5.5 46.5q34 3 67 14q17 3 32 7.5l31 9.5q35 13 63.5 30.5t53.5 40.5q72 67 72 177q0 102 -66 165q-13 11 -25 18 q-50 37 -112 43q-8 1 -16 1.5t-16 0.5t-15.5 -0.5t-15.5 -1.5q-78 -9 -136 -61.5t-93 -149.5z" />
<glyph unicode="4" d="M996 508v-154h-190v-354h-172v354h-605v147l324 462l325 462h128v-917h190zM634 508v667l-234 -333.5l-234 -333.5h468z" />
<glyph unicode="5" d="M938 1401l-39 -171h-496l-84 -288q78 21 154 21q26 0 51.5 -2.5t51.5 -7.5q122 -24 218 -101l33.5 -31t30.5 -34q86 -104 100 -245q1 -13 1.5 -26t0.5 -26v-16.5t-1 -16.5q-2 -42 -11 -81t-23 -76q-31 -78 -85 -143q-89 -108 -221 -149q-43 -13 -89 -19.5t-90 -6.5 q-23 0 -45 2t-43 6q-82 14 -139 50q-34 25 -58 53q-58 67 -64 153q12 15 35 26.5t53 13.5q9 0 17.5 0.5t17.5 0.5t17.5 -0.5t17.5 -0.5q10 -37 31 -68t51 -57q37 -30 79.5 -45t88.5 -15q123 0 213 93q89 94 89 238q0 140 -83 236q-72 84 -189 111q-5 0 -10.5 0.5t-10.5 0.5 q-45 0 -82 -15.5t-63 -40.5q-49 14 -107 23t-126 14l100.5 320l100.5 320h607z" />
<glyph unicode="6" d="M873 1379q69 -48 95 -134q-23 -6 -44.5 -12.5t-44.5 -12.5q-79 47 -142 50q-26 6 -53 6q-57 0 -120 -27q-22 0 -40 -6q-35 -22 -65 -52q-70 -65 -115 -168q-45 -102 -60 -267q69 75 152 111t171 36q160 0 273 -122q115 -122 115 -315q0 -132 -59 -248q-26 -48 -58 -88 q-125 -154 -328 -154q-156 0 -264 92q-20 17 -37.5 35t-34.5 39q-117 145 -129 395q-1 15 -1.5 30t-0.5 31q0 15 0.5 30.5t1.5 31.5q8 171 53.5 305.5t126.5 232.5q36 42 73 75q111 95 246 119q23 5 44 6.5t42 1.5q30 3 58 3q79 0 145 -24zM332 694q-22 -51 -34 -100 t-16 -96q-1 -7 -1 -13v-13v-13t1 -13q3 -73 27 -148q8 -24 19 -48q36 -79 98 -127q61 -46 137 -46q100 0 175 87q68 79 74 212q1 14 1 29v29q-4 143 -74 240q-73 106 -198 106q-51 0 -98 -19q-46 -19 -111 -67z" />
<glyph unicode="7" d="M86 1241l72 80l72 80h759v-89q-57 -100 -112.5 -212.5l-111.5 -237.5q-55 -126 -102.5 -251.5t-87.5 -254.5q-28 -89 -50.5 -181t-40.5 -189h-149q16 87 38.5 182.5t53.5 200.5q31 106 68.5 208t82.5 203q52 123 106 235.5t110 217.5h-330q-64 0 -120 -3t-104 -10 q-79 -24 -139 -71q-4 23 -7.5 46t-7.5 46z" />
<glyph unicode="8" d="M377 739q-74 45 -122.5 90t-73.5 90q-41 74 -41 158q0 146 109 248q107 103 288 103q177 0 287 -101q93 -86 105 -198q1 -8 1 -16v-16q0 -42 -9.5 -81.5t-32.5 -75.5q-53 -89 -203 -167q89 -49 148.5 -102.5t89.5 -110.5q43 -71 50 -153q1 -11 1.5 -20.5t0.5 -20.5 t-0.5 -21t-1.5 -20q-12 -136 -117 -235q-122 -114 -318 -114q-205 0 -325 124q-14 12 -24 27q-76 92 -83 202q-1 6 -1 12.5v12.5q0 11 0.5 21t1.5 21q3 39 14 75t29 70q32 60 88.5 110t138.5 88zM389 928q76 -69 169 -101q97 40 151 100q17 19 29 41q13 23 20 48.5t9 53.5 v15q0 11 -0.5 21t-1.5 21q-8 71 -50 121q-63 77 -176 77q-102 0 -168 -63q-54 -50 -62 -119q-3 -15 -3 -30q0 -6 0.5 -12.5t1.5 -12.5q5 -45 25.5 -85.5t55.5 -74.5zM501 681q-93 -24 -152 -92q-77 -95 -77 -221q0 -71 27 -132q21 -50 59 -87q20 -20 47 -36q64 -37 142 -37 q119 0 193 72q61 60 70 140q1 9 1.5 18t0.5 18v19t-2 19q-4 31 -17 61q-19 62 -72 116q-81 84 -220 142z" />
<glyph unicode="9" d="M204 21q-68 47 -94 134l43 13.5l43 13.5q34 -48 79 -70.5t100 -22.5q16 0 31.5 2t32.5 5q20 10 37 24q60 15 108.5 53t86.5 95q46 67 78 162q23 75 30 151l6 29t5 32q-54 -60 -124 -98q-98 -49 -193 -49q-161 0 -276 121q-114 121 -114 321q0 199 116 338 q127 153 326 153q134 0 242 -78q36 -26 68 -59q31 -34 56 -72.5t44 -83.5q49 -113 55 -278q1 -14 1 -26.5v-26.5v-27.5t-1 -27.5q-9 -229 -84 -391q-58 -132 -156.5 -216t-229.5 -116q-11 -7 -20.5 -12.5t-20.5 -10.5q-29 -6 -56.5 -8.5t-53.5 -2.5q-86 0 -165 29zM748 706 q40 99 47 189q1 10 1 20.5v21.5v19q-3 85 -30 161q-11 31 -24.5 57t-30.5 49q-77 98 -186 98q-16 0 -29 -3q-86 -9 -154 -86q-68 -79 -76 -216q-1 -12 -1.5 -23.5t-0.5 -22.5q0 -5 0.5 -9t0.5 -9q6 -136 72 -224q15 -21 36 -40q68 -68 162 -68q56 0 112 22t101 64z" />
<glyph unicode=":" horiz-adv-x="569" d="M339 1003q23 -26 39.5 -68t16.5 -90q-26 -23 -68 -39.5t-90 -16.5q-23 26 -39.5 68t-16.5 90q26 23 68 39.5t90 16.5zM236 200q72 0 142 -17q16 -41 16 -91q0 -26 -6 -50.5t-17 -44.5q-41 -11 -84 -11q-27 0 -51.5 6t-44.5 17q-11 41 -11 83q0 36 16.5 65.5t39.5 42.5z " />
<glyph unicode=";" horiz-adv-x="569" d="M334 1003q23 -26 39.5 -67.5t16.5 -89.5q-26 -23 -68 -39.5t-90 -16.5q-23 26 -39.5 68t-16.5 90q26 23 68 39t90 16zM181 -315q-7 15 -13 30l-12 30q44 17 75.5 42t51.5 62q34 49 36 110q0 9 -4 16q-2 7 -3 13.5t-3 11.5q-14 0 -41 -9q-28 -5 -53 -5q-24 11 -38.5 36.5 t-14.5 61.5q0 54 18 101q42 17 90 17q65 0 117 -29q14 -40 20 -84.5t6 -93.5q0 -109 -55.5 -187t-176.5 -123z" />
<glyph unicode="&#x3c;" horiz-adv-x="1175" d="M74 757l512 219l512 219v-133l-424 -179l-424 -180l424 -181l424 -181v-135l-512 221.5l-512 221.5v108z" />
<glyph unicode="=" horiz-adv-x="1175" d="M75 956h1024v-125h-1024v125zM75 571h1024v-125h-1024v125z" />
<glyph unicode="&#x3e;" horiz-adv-x="1175" d="M1098 647l-512 -220.5l-512 -220.5v133l424.5 180l423.5 180l-423.5 180.5l-424.5 180.5v135l512 -220l512 -220v-108z" />
<glyph unicode="?" horiz-adv-x="1024" d="M442 340q0 17 0.5 31.5t1.5 25.5q2 48 9 89.5t19 76.5q19 54 60 120q17 27 43.5 65t61.5 77q33 40 54 71.5t32 54.5q20 44 22 95v13v16.5t-1 16.5q-7 83 -58 147q-8 11 -17.5 20l-19.5 18q-68 60 -161 60q-86 0 -144 -41q-47 -33 -63 -81q-3 -14 -3 -29q0 -22 4 -42 q0 -8 0.5 -15t0.5 -14q0 -20 -1.5 -39.5t-3.5 -38.5q-21 -14 -52 -23.5t-66 -9.5q-4 0 -7 0.5t-7 0.5q-20 20 -33 54q-5 13 -7 28t-2 32v13.5t1 14.5q20 115 108 194q110 98 295 98q194 0 306 -100q10 -9 19 -18.5t18 -20.5q70 -86 78 -192q0 -7 0.5 -13t0.5 -13 q0 -6 -0.5 -12.5t-0.5 -12.5q-3 -57 -24 -111q-5 -12 -10.5 -24t-12.5 -24q-35 -66 -115 -147l-23 -24.5t-24 -23.5q-38 -38 -64.5 -67.5t-42.5 -52.5q-25 -36 -37 -71q-2 -4 -3.5 -8.5t-3.5 -9.5q-8 -27 -13 -65.5t-7 -88.5h-107zM553 200q23 -26 39.5 -67.5t16.5 -90.5 q-26 -23 -68 -39t-91 -16q-23 15 -39 46.5t-16 69.5q0 46 16 81q65 16 142 16z" />
<glyph unicode="@" horiz-adv-x="1982" d="M1299 995l84 6t84 5l-53.5 -211.5l-53.5 -211.5l-31 -121.5t-25 -103.5l-11 -48t-8 -35q-5 -25 -7.5 -42.5t-2.5 -28.5q0 -30 20.5 -50.5t51.5 -20.5q65 0 157 67q109 76 178 225q58 123 66 252q1 12 1.5 23.5t0.5 23.5q0 17 -1 33l-2 33q-5 69 -24.5 133.5t-54.5 125.5 q-85 147 -244 227q-161 83 -353 83q-233 0 -429 -117q-196 -116 -307 -333q-110 -214 -110 -458q0 -238 103 -420q105 -182 297 -272q192 -91 422 -91q25 0 51 3q233 12 406 112q195 114 297 312h119q-52 -133 -168 -252q-75 -78 -176 -139q-51 -31 -103 -54 q-186 -86 -427 -86q-14 0 -27.5 0.5t-27.5 1.5q-85 2 -164.5 17t-154.5 41l-57 22t-55 25q-122 61 -211.5 150.5t-146.5 203.5q-98 199 -98 431q0 230 89 432q11 26 23 50.5t26 47.5q134 240 367 360q210 111 463 111q228 0 409 -94q182 -93 283 -276q41 -73 62.5 -151 t26.5 -161q1 -14 1.5 -28t0.5 -28q0 -11 -0.5 -20.5t-0.5 -19.5q-8 -156 -75 -298q-53 -110 -130 -193q-20 -22 -41.5 -41.5t-44.5 -35.5q-132 -98 -284 -98q-72 0 -112.5 28.5t-50.5 80.5q-4 19 -4 53q0 28 3 64q-62 -73 -120 -122t-111 -71q-66 -30 -124 -30q-23 0 -39 4 q-40 6 -76 27q-36 20 -68 57q-32 36 -51 84q-15 39 -21 85q-5 22 -6.5 45t-1.5 47v19.5t1 20.5q10 130 83 271q77 148 190 236q80 57 154 70q66 27 124 27q30 0 62 -8q53 -12 92.5 -46t61.5 -92q8 33 17 66t17 66zM1040 926q-77 0 -147 -63q-40 -34 -75 -82 q-28 -38 -52 -82.5t-44 -97.5q-6 -15 -11 -30l-10 -31q-22 -70 -29 -126q-2 -15 -3 -29t-1 -28q0 -15 1.5 -28.5t3.5 -26.5q7 -58 42 -97q40 -46 87 -53q5 -1 10 -1h10q25 0 47 7q11 2 22 5.5t22 8.5q40 17 81 49.5t81 82.5q28 34 50 72t39 80q5 12 9 24.5l8 24.5 q11 35 17.5 69t10.5 66q2 20 3.5 39t1.5 37q0 14 -1 28t-3 27q-4 30 -15.5 54.5t-28.5 43.5q-52 57 -126 57z" />
<glyph unicode="A" horiz-adv-x="1422" d="M998 351l-59 49l-59 49h-492l-43.5 -109.5l-43.5 -108.5q-12 -29 -19 -53t-11 -43q-3 -17 -3 -32q0 -18 4 -33q15 -10 64 -15q-3 -14 -6.5 -27.5t-6.5 -27.5h-317l15 57q26 14 42.5 28t27.5 30q24 41 49 94t52 119l223 549l223 549h122l228.5 -552l228.5 -552 q26 -63 50.5 -114t48.5 -90q31 -40 80 -61q5 -14 8.5 -28.5t7.5 -28.5h-378l-14 46l-14 46q24 15 34 35.5t10 44.5q0 19 -4 36q-14 60 -48 143zM913 565l-76.5 192.5l-76.5 192.5q-28 69 -50 130l-41 114q-17 -59 -36.5 -116.5t-42.5 -115.5l-79 -198.5l-80 -198.5h482z" />
<glyph unicode="B" horiz-adv-x="1366" d="M963 736q64 -16 113 -41.5t84 -60.5q95 -95 95 -236q0 -103 -54 -193l-15 -27q-20 -28 -42.5 -51t-49.5 -41q-25 -16 -57 -31q-116 -55 -346 -55h-599v57h25q43 19 61 65q12 55 12 152v862q0 103 -15 157q-19 42 -58 61q-6 10 -12.5 19t-12.5 19v19h568q72 0 131.5 -6 t106.5 -19q34 -9 63 -21q101 -41 159 -121q68 -90 68 -202q0 -49 -14 -94.5t-42.5 -85t-70.5 -72t-98 -54.5zM383 798q45 -4 95 -5.5t105 -1.5h49.5t47.5 1q53 2 92.5 7.5t65.5 15.5q75 27 112.5 84.5t37.5 135.5q0 75 -39 135q-27 44 -77 68q-70 43 -209 50q-45 3 -93 3 q-50 0 -96 -3t-91 -8v-482zM383 135q75 -7 148.5 -10t148.5 -3q107 0 167 21q55 15 93 43q46 35 72.5 86.5t26.5 116.5q0 82 -43 147q-38 61 -110 91q-35 16 -83.5 26t-108.5 13q-26 2 -53.5 3t-56.5 1q-60 0 -109.5 -1t-91.5 -4v-530z" />
<glyph unicode="C" horiz-adv-x="1422" d="M1181 1383l26.5 -15.5l25.5 -15.5q28 -84 49.5 -172.5t35.5 -184.5l-55.5 -11.5l-55.5 -11.5q-28 92 -68.5 158t-93.5 108t-118 62t-142 20q-11 0 -22 -1t-22 -3q-99 -8 -179 -49q-40 -19 -70 -45q-49 -41 -85 -94.5t-59 -122.5q-46 -135 -46 -305q0 -163 43 -288 l16 -40.5t19 -37.5q44 -83 116 -137q38 -29 75 -47q82 -40 172 -47q11 -1 23 -1.5t23 -0.5q27 0 54 3q117 11 203 70q53 38 100 100.5t88 151.5l56 -17.5l56 -17.5q-74 -198 -209 -302q-153 -117 -375 -117q-232 0 -384 103q-48 32 -88 73.5t-73 93.5q-13 20 -24.5 39.5 t-22.5 41.5q-82 170 -82 377q0 218 89 386q90 171 249 261q163 92 353 92q156 0 290 -68l38.5 -19.5l31.5 -15.5q14 0 23 9q13 13 19 38z" />
<glyph unicode="D" horiz-adv-x="1479" d="M96 0v18l13 25t13 24q43 0 61 28q5 32 8 74.5t3 96.5v878q0 110 -14 177q-19 22 -58 22l-13 25t-13 24v19h529q89 0 160 -6t126 -17q43 -9 81 -22t70 -30q19 -9 36 -20l34 -23q52 -38 93.5 -88t73.5 -111q86 -162 86 -381q0 -155 -40.5 -278t-114.5 -214 q-59 -72 -131 -118q-162 -103 -435 -103h-568zM387 135q71 -7 136.5 -10.5t126.5 -3.5q148 0 250 50q36 16 66 36.5t56 46.5q73 76 111 189t38 266q0 209 -72 338q-35 63 -84 112q-24 24 -50.5 43t-55.5 33q-99 51 -266 51q-61 0 -124.5 -3.5t-131.5 -10.5v-1137z" />
<glyph unicode="E" horiz-adv-x="1308" d="M578 1287l-93 -18.5l-93 -18.5v-455h392q78 0 118 17q46 24 70 81h99v-322h-99q-7 47 -14 64q-40 17 -91 27t-124 10h-351v-431q0 -33 1 -57t3 -40q35 -9 75 -15t99 -6h238q50 0 91 2t75 6q23 5 45.5 12.5t44.5 19.5q51 30 105 93h61l-29.5 -128l-29.5 -128h-1069v61h24 q24 0 45 12q16 7 22 24q6 58 6 152v914q0 54 -3.5 95.5t-9.5 70.5q-17 20 -60 20l-12 21.5l-12 21.5v19h1052l4 -118l4 -117h-63q-34 54 -67 73q-33 20 -81 31q-86 4 -179 5.5t-194 1.5z" />
<glyph unicode="F" horiz-adv-x="1195" d="M540 1287l-75 -14l-75 -14v-465h324q72 0 120 18q34 19 55 75h76v-316h-76q-2 40 -11 58q-31 18 -69.5 27.5t-94.5 9.5h-324v-395q0 -41 1.5 -73t5.5 -55q4 -28 21 -52q20 -26 46 -42l12 -15.5l12 -15.5v-18h-388v48h24q43 29 61 83q12 60 12 165v819q0 81 -6 126 q-3 21 -8 41t-13 40q-20 26 -46 41h-24v48h999q2 -60 3.5 -118t3.5 -118h-46q-26 47 -59 70q-33 24 -71 32q-91 5 -188 7.5t-202 2.5z" />
<glyph unicode="G" horiz-adv-x="1536" d="M1175 1413l29.5 -9.5t28.5 -9.5q51 -81 82.5 -176t51.5 -211l-105 -24q-36 116 -89 186q-23 30 -50 52q-57 49 -132 74.5t-165 25.5q-138 0 -236 -49t-162 -137q-22 -29 -39 -60t-31 -64q-53 -135 -53 -292q0 -194 71 -341q71 -146 197 -216q124 -69 262 -69 q117 0 230 46q78 32 124 68v332q-43 51 -94 67q-31 15 -68 24q-29 4 -64.5 6t-78.5 2v105q144 0 286.5 0.5t286.5 0.5v-65h-12q-40 0 -54 -26q-5 -20 -7.5 -49.5t-2.5 -68.5v-389q-139 -95 -283 -139q-123 -35 -258 -35q-233 0 -405 95q-117 62 -198 169q-14 18 -26 36.5 t-23 37.5q-98 172 -98 381q0 195 88 371q51 101 122.5 175t164.5 123q151 79 351 79q9 0 18 -0.5t17 -1.5q22 -1 43 -2.5t41 -4.5q40 -6 84 -18.5t94 -31.5q26 -10 37 -10q10 0 16.5 8.5t8.5 34.5z" />
<glyph unicode="H" horiz-adv-x="1479" d="M387 795h698v333q0 87 -6 138q-6 34 -21 68q-23 12 -46 12l-12 23l-12 23v19h387v-42h-24q-23 -23 -45 -59q-16 -32 -22 -72q-6 -51 -6 -137v-792q0 -44 1.5 -78.5t5.5 -60.5q4 -34 20 -69q22 -35 46 -59h24v-42h-387v18l12 23.5l12 22.5q42 34 61 94q12 49 12 146v368 h-696v-368q0 -43 1.5 -77t5.5 -60q4 -35 21 -68q22 -23 45 -35l12.5 -22.5t12.5 -23.5v-18h-388v42l24 24q43 35 61 95q12 51 12 148v792q0 88 -6 139q-3 19 -8 35.5t-13 33.5q-11 18 -22.5 33t-23.5 27h-24v42h388v-65q-6 -12 -12.5 -23.5l-12.5 -22.5q-25 -25 -45 -58 q-16 -31 -32 -71l3 -83z" />
<glyph unicode="I" horiz-adv-x="625" d="M484 0h-363v43l12 24l12 25q42 36 61 97q12 52 12 151v780q0 45 -1.5 79.5t-5.5 61.5q-4 35 -20 70q-11 12 -22.5 21.5t-23.5 15.5h-24v43h387v-43l-12 -25l-12 -24q-42 -37 -61 -98q-12 -53 -12 -150v-780q0 -89 6 -141q6 -36 21 -71q23 -36 46 -61v-18z" />
<glyph unicode="J" horiz-adv-x="910" d="M470 1392v19h355v-52h-25q-20 -26 -35.5 -56t-24.5 -68q-12 -66 -12 -177v-508q0 -51 -2 -97t-6 -89q-3 -32 -7.5 -61t-11.5 -55q-16 -59 -47 -105q-60 -90 -171 -134q-14 -6 -28 -10t-29 -7q-50 -11 -93 -11q-37 0 -77 8q-43 8 -77.5 25.5t-60.5 46.5q-43 45 -54 104 q-8 37 -8 71q0 36 7 70q60 21 126 27q8 -21 17.5 -41t20.5 -40q8 -18 18.5 -36.5t23.5 -37.5l16 -21.5l17 -21.5q35 -41 86 -41q32 0 59.5 20t40.5 71q26 47 37 108q5 38 7.5 83.5t2.5 100.5v624q0 50 -1.5 90.5t-5.5 72.5q-5 29 -21 53q-21 43 -45 75h8z" />
<glyph unicode="K" horiz-adv-x="1422" d="M769 915l-43.5 -62.5l-43.5 -62.5l213 -244l213 -244l90 -96t80 -76q67 -54 135 -90q4 -10 7.5 -20t8.5 -20h-451q-8 15 -15 30.5t-15 31.5q28 15 28 47q0 18 -8 36t-17 35q-10 16 -25.5 35.5t-36.5 43.5l-193.5 225.5l-193.5 224.5l-60 -167.5l-60 -167.5v-51 q0 -77 6 -119q6 -38 21 -72q23 -39 46 -63q5 -13 11 -25.5l12 -25.5v-18h-386v45l12 14l12 14q41 27 61 78q12 57 12 159v818q0 39 -1.5 69.5t-5.5 53.5q-4 37 -20 75q-23 26 -46 39h-24v46h386v-19l-12 -13.5t-11 -14.5q-23 -13 -46 -39q-15 -36 -21 -80t-6 -122v-403 l79.5 77l103.5 101l196 189.5t137 145.5q11 15 19.5 28t13.5 26q0 11 -10.5 20t-35.5 9q6 10 11 19.5t11 18.5l39 57h380q-10 -14 -19 -28t-19 -28q-43 -20 -79 -43l-82.5 -58.5t-102.5 -87.5l-107.5 -104.5z" />
<glyph unicode="L" horiz-adv-x="1195" d="M1120 274l8 -16.5l8 -16.5l-28.5 -120l-29.5 -121h-983v49l13 15l13 15q44 33 61 89q11 49 11 136v803q0 108 -14 172q-19 50 -58 83h-26v49h404v-80q-55 0 -76 -10q-22 -44 -29 -88q-5 -32 -6.5 -73.5t-1.5 -95.5v-796q0 -36 1.5 -65.5t6.5 -52.5q18 -5 37.5 -9.5 t40.5 -6.5q22 -2 56.5 -3.5t82.5 -1.5h109q123 0 200 12q44 10 88 40q55 29 112 93z" />
<glyph unicode="M" horiz-adv-x="1763" d="M800 0l-474 1194v-921q0 -112 14 -182q18 -21 58 -21l12 -25.5t12 -26.5v-18h-329v18q6 14 12 26.5t12 26.5q44 0 61 26q5 34 8 78t3 99v862q0 49 -2.5 91t-7.5 79q-8 14 -26 24t-60 10v71h338l197.5 -498.5l197.5 -498.5l33 -90l26 -71l28.5 75.5l34.5 94.5l197 493.5 l197 494.5h322v-19l-11.5 -26l-11.5 -26q-44 0 -62 -26q-5 -35 -8 -79t-3 -99v-862q0 -112 14 -182q19 -21 59 -21l11.5 -26.5l11.5 -26.5v-18h-381v18l24 51q43 0 61 26q5 34 8 78t3 98v913l-237.5 -592.5l-237.5 -591.5h-104z" />
<glyph unicode="N" horiz-adv-x="1479" d="M64 1392q8 5 16.5 9.5t16.5 9.5h251l399.5 -542.5l399.5 -541.5v833q0 54 -3 95.5t-11 71.5q-18 21 -58 21l-12 22l-12 22v19h329v-19l-12 -21.5l-12 -21.5q-43 -22 -61 -69q-5 -30 -8 -69.5t-3 -89.5v-1132h-117l-416.5 561l-415.5 561v-817q0 -108 13 -166 q19 -43 59 -65l24 -45v-18h-298q-8 5 -15.5 9t-15.5 9l11.5 21.5l11.5 21.5q44 23 62 70q11 61 11 159v859q-15 39 -26 71.5t-19 60.5q-15 32 -45 64q-14 26 -44 47z" />
<glyph unicode="O" horiz-adv-x="1536" d="M775 1439q200 0 361 -105q54 -35 100 -80q70 -65 117 -152q97 -170 97 -394q0 -228 -100 -401q-49 -89 -119 -153q-49 -46 -102 -80q-164 -102 -363 -102q-209 0 -370 106q-53 34 -100 81q-69 65 -115 152q-96 172 -96 387q0 345 208 549q193 192 482 192zM766 1319 q-195 0 -324 -138q-142 -154 -142 -482q0 -267 116 -426q31 -41 64 -72q115 -111 285 -111q205 0 337 152q134 152 134 453q0 195 -55 333q-37 92 -97 158q-34 38 -77 66q-103 67 -241 67z" />
<glyph unicode="P" horiz-adv-x="1252" d="M389 611l-3 -193v-30q0 -55 3 -96.5t11 -72.5q18 -51 57 -82l13.5 -29.5t12.5 -29.5v-78h-387v49q6 8 12.5 15t12.5 15q43 31 62 89q5 31 7.5 72.5t2.5 93.5v804q0 107 -14 171q-20 38 -58 53h-25v49h525q71 0 127.5 -5t98.5 -13q22 -5 41 -10t37 -11q20 -8 38.5 -17 t35.5 -20q29 -17 53 -40t45 -50q9 -12 16.5 -24.5l15.5 -26.5q43 -84 43 -183q0 -175 -115 -293q-100 -101 -298 -113q-8 -1 -16.5 -1h-16.5q-35 0 -337 7zM386 730q62 -5 117.5 -7.5t106.5 -2.5q20 0 40 1.5t40 3.5q95 9 158 51q33 22 53 49q57 67 57 173q0 8 -0.5 14.5 t-1.5 14.5q-2 45 -16.5 83.5t-39.5 67.5q-14 17 -30.5 31.5t-36.5 25.5q-50 35 -154 44q-33 2 -66.5 3.5t-67.5 1.5q-37 0 -76.5 -2.5t-82.5 -7.5v-544z" />
<glyph unicode="Q" horiz-adv-x="1536" d="M276 183q-17 18 -32.5 37t-29.5 39q-115 162 -130 386q-3 36 -3 74v20q0 10 1 21q9 167 77 308q47 94 117 167q52 55 112 93q168 111 380 111q181 0 329 -85q86 -48 155 -122q70 -74 115 -166q67 -137 76 -308q1 -11 1 -20.5v-19.5q0 -37 -3 -73q-7 -90 -29.5 -169.5 t-63.5 -151.5q-97 -166 -263 -253q37 -52 75.5 -91t78.5 -66q101 -67 216 -88q-8 -21 -14.5 -41.5t-14.5 -41.5q-145 30 -231.5 73t-109.5 65l-48.5 45t-73.5 62t-99.5 89.5t-72 114t-21.5 64.5q4 117 69.5 162.5t150 -13.5t49.5 -136t-2 -95q38 40 73 96.5t62 124t43 143.5 t16 155q0 209 -68 360q-58 129 -164 197q-104 67 -237 67q-200 0 -326 -139q-142 -157 -142 -471q0 -309 142 -473zM957 236.5q35 86.5 -2 105t-70 4t-31 -74t35 -90.5t68 55.5z" />
<glyph unicode="R" horiz-adv-x="1422" d="M1291 218l63.5 -109.5l63.5 -108.5h-303l-189 279q-49 74 -89 129t-75.5 97t-68.5 73.5t-68 60.5q-21 2 -45 2h-50q-35 0 -70.5 0.5t-71.5 0.5v-360q0 -52 3 -92t11 -68q19 -44 57 -63l13 -20.5l13 -20.5v-18h-387v18q6 11 12.5 20.5t12.5 20.5q42 19 62 69 q5 28 7.5 66.5t2.5 88.5v886q0 52 -3 92t-11 69q-20 22 -58 22h-25v59h490q48 0 91.5 -1t83.5 -3q45 -2 82.5 -6.5t69.5 -10.5q36 -8 67 -19.5t57 -28.5q65 -30 107 -95q67 -91 67 -211q0 -133 -81 -227q-45 -54 -117.5 -91t-175.5 -55q37 -34 69 -67t60 -67q39 -44 76 -92 t74 -102q48 -68 83 -89q34 -22 90 -28zM388 758q35 0 68 -0.5t64 -0.5q50 0 97 3t92 8q103 10 165 45q63 35 94.5 91.5t31.5 125.5q0 96 -56 159q-22 28 -52 48q-61 41 -153 50q-39 2 -78 3.5t-79 1.5q-44 0 -92 -2.5t-102 -7.5v-524z" />
<glyph unicode="S" horiz-adv-x="1252" d="M926 1412q23 -8 43 -17t38 -21q33 -88 50.5 -185.5t19.5 -203.5q-28 -2 -56 -3.5t-56 -3.5q-14 110 -52 176q-49 84 -142 124q-32 14 -67 22t-74 11q-10 1 -19 1h-18h-18t-17 -1q-110 -6 -173 -62q-74 -65 -74 -150q0 -14 5 -29q6 -37 23 -63q11 -21 34 -42 q67 -61 281 -140q12 -2 23 -5t22 -5q80 -31 137.5 -56.5t93.5 -46.5q15 -8 29 -16.5t26 -16.5q79 -57 119 -133t40 -166q0 -8 -0.5 -15t-1.5 -14q-6 -88 -53 -167q-30 -49 -80 -94q-47 -41 -108 -70q-107 -48 -242 -48q-69 0 -130 9q-67 9 -157 42q-115 45 -167 103 q-12 0 -19.5 -7.5t-10.5 -30.5h-19v66q-37 140 -40 298l55.5 4l54.5 4q19 -127 65 -200q46 -71 141 -117q96 -45 212 -45h6q130 0 213 60q48 33 73 76t25 93v6q0 60 -33.5 111t-108.5 91q-50 25 -237 99q-171 63 -249 111q-14 8 -26 16.5l-23 16.5q-146 111 -146 280 q0 110 63 202q19 27 42 50q26 27 57 48t67 37q98 43 222 43q8 0 16.5 -0.5t16.5 -0.5q52 -2 101 -12.5t97 -27.5q22 -9 40 -14.5l32 -9.5q13 0 21 8t13 31z" />
<glyph unicode="T" horiz-adv-x="1251" d="M1197 1411l4 -123l4 -123h-50q-18 40 -45 60q-38 29 -86 43t-114 14h-186v-1035q0 -97 13 -143q19 -37 59 -53h23v-51h-384v51h24q44 17 61 58q11 50 11 138v1035h-172q-39 0 -71 -2t-57 -5q-42 -10 -75.5 -36.5t-51.5 -73.5h-49l4 123l4 123h1134z" />
<glyph unicode="U" horiz-adv-x="1479" d="M1081 1392v19h304v-51l-12.5 -16.5l-12.5 -16.5q-20 -16 -35.5 -41t-26.5 -58q-10 -46 -10 -137v-503q0 -210 -46 -334q-5 -12 -11 -25q-42 -90 -132 -156l-24 -17.5t-26 -16.5q-118 -67 -309 -67q-212 0 -337 73q-122 73 -175 206q-44 114 -44 351v493q0 110 -17 180 q-18 53 -56 85h-25v51h390v-51h-26q-42 -33 -60 -92q-13 -48 -13 -140v-556q0 -68 6.5 -125.5t18.5 -105.5q26 -97 87 -149q41 -41 102.5 -65.5t146.5 -24.5q132 0 225 46q63 32 101 77q9 11 17 22.5t14 24.5q51 99 51 321v568q0 110 -14 177q-19 37 -58 54h7z" />
<glyph unicode="V" horiz-adv-x="1422" d="M1402 1411q-4 -14 -7.5 -27.5t-7.5 -27.5q-42 -24 -68 -60q-20 -31 -39.5 -67.5t-36.5 -80.5l-233.5 -582l-232.5 -581h-118l-234 566.5l-233 566.5l-31 74l-25 55q-20 34 -45.5 61t-63.5 48q-3 14 -6.5 27.5t-7.5 27.5h382l13.5 -47.5l13.5 -47.5q-47 -5 -61 -16 q0 -47 14 -105q7 -32 19 -70t31 -84l28 -69l45.5 -115.5l55 -138l55 -138l45.5 -115.5l28 -69l63 -177q14 44 29.5 87.5l32.5 88.5l141.5 363.5l140.5 363.5q19 47 31 84.5t19 66.5q0 15 -14 28t-49 19q-2 0 -4 0.5t-5 0.5l27 90h308z" />
<glyph unicode="W" horiz-adv-x="1933" d="M1913 1411q-3 -17 -6.5 -34t-6.5 -34q-30 -12 -50 -34t-38 -60q-12 -33 -26.5 -78t-31.5 -103l-168.5 -541.5l-168.5 -541.5h-113l-145 468.5l-145 468.5l-24.5 84t-17.5 56l-21 -73l-20 -67l-144.5 -468.5l-145.5 -468.5h-117l-171.5 549.5l-172.5 550.5l-31 99t-23 73 q-14 32 -34 53t-53 33q-4 17 -7 34l-6 34h350l6 -33.5t5 -33.5h-12q-22 -11 -33 -32t-11 -47q0 -2 0.5 -5t0.5 -5q6 -32 16.5 -76t27.5 -100l91.5 -307.5l90.5 -307.5q14 -51 26.5 -102t23.5 -102q36 144 51 189l81.5 259l82.5 258l4 78l4 78q-1 24 -1 48t-1 47 q-2 25 -4.5 48.5t-5.5 45.5q-6 9 -16 16q-11 8 -25 13q-9 3 -30 3q4 17 7.5 34t6.5 34h381q4 -17 7 -33l6 -32h-18q-22 -11 -32 -30.5t-10 -45.5q0 -10 1 -15q14 -73 49 -182l63.5 -198l63.5 -198q68 -218 113 -417l35 128l38 138l86.5 298l86.5 298q33 110 45 181 q0 11 -7.5 21t-18.5 14q-17 7 -49 7q3 17 5.5 33t5.5 33h300z" />
<glyph unicode="X" horiz-adv-x="1422" d="M922 931l-59.5 -97l-59.5 -97l142.5 -205.5l141.5 -205.5l91.5 -127t75.5 -94q45 -45 105 -69l8 -20l8 -20h-411q-8 15 -15.5 30.5l-15.5 31.5q12 19 12 44v5q11 5 17.5 14t6.5 19q-7 20 -20 45l-24 36.5l-34 50.5l-159 234l-32 47.5l-33 50.5l-41.5 -59.5l-33.5 -47.5 l-97 -129l-97 -129q-19 -25 -33 -45.5l-24 -35.5l-11 -20.5t-9 -20.5q-1 -5 -1 -13q0 -17 10.5 -29.5t39.5 -17.5q-8 -15 -15 -30.5t-15 -30.5h-357l7.5 19.5t8.5 19.5q17 7 31 15t28 17l54 47.5t53 51.5q26 26 53.5 59.5l57.5 71.5q10 12 34.5 44l56.5 74l67.5 89l67.5 89 l56.5 74t34.5 44l-129 186l-129 185q-48 68 -90 121t-81 93q-62 58 -134 111h563l-1 -91q-29 -8 -52 -43.5t-1 -125.5q0 -5 2 -13q0 -18 24 -54l76 -113l68 -105l57 78.5l61 81.5l60 77l60 77q35 45 55 76q6 10 11 19.5t9 20.5q0 10 -6 18q-7 10 -19 15q-5 13 -33 24 q8 14 14.5 29t14.5 29h346q-4 -10 -7.5 -20t-8.5 -20q-18 -6 -33.5 -14t-28.5 -17q-45 -34 -82 -74l-124 -157.5z" />
<glyph unicode="Y" horiz-adv-x="1422" d="M1050 1392q5 5 11 9.5t11 9.5h327l-7.5 -21t-7.5 -20h-13l-31.5 -25l-37.5 -31q-42 -35 -76 -77q-22 -28 -46 -62l-51 -75l-36 -54l-59.5 -90l-71 -107.5l-71 -107l-59.5 -89.5l-36 -54v-351q0 -51 3.5 -89.5t10.5 -66.5q20 -34 60 -47q6 -6 11.5 -12.5t10.5 -13.5v-18 h-385v44h24q43 13 61 52q6 27 8.5 65t2.5 86v341l-189.5 286.5l-189.5 286.5q-56 84 -90 129q-13 18 -32.5 36.5t-45.5 38.5q-10 5 -29 5q-4 10 -7.5 20l-7.5 21h408q8 -16 15 -31.5l14 -31.5q4 -11 7.5 -22t6.5 -22q-23 0 -43 -11q-20 -12 -20 -33q11 -26 29.5 -58.5 t44.5 -72.5l48 -74.5l48 -74.5l83 -130l80 -130l78 126.5l85 133.5l54 82.5l53 81.5q26 40 44 73.5t29 61.5q3 14 5 26.5t2 23.5q0 21 -7.5 36.5t-25.5 26.5z" />
<glyph unicode="Z" horiz-adv-x="1251" d="M1177 1411l-25 -79l-25 -79l-378.5 -501.5l-379.5 -501.5l-46.5 -61.5l-47.5 -61.5h590q52 0 96 7t80 21q36 30 61 114q24 -1 47.5 -1.5t47.5 -1.5l-16 -133l-16 -133h-1132v108l714 951l88 115.5l85 109.5h-463q-94 0 -160 -12q-24 -12 -37 -34q-13 -24 -23 -83h-101 q4 64 7.5 127.5t6.5 128.5h1027z" />
<glyph unicode="[" horiz-adv-x="625" d="M572 -406h-419v1832h419v-114h-254v-1605h254v-113z" />
<glyph unicode="\" horiz-adv-x="569" d="M114 1456l228.5 -741.5l228.5 -740.5h-112l-229 740.5l-229 741.5h113z" />
<glyph unicode="]" horiz-adv-x="625" d="M57 1426h418v-1833h-418v114h253v1605h-253v114z" />
<glyph unicode="^" horiz-adv-x="961" d="M525 1437l390 -759h-137l-149 296l-149 296l-148 -296l-147 -296h-140l196 379.5l196 379.5h88z" />
<glyph unicode="_" d="M1102 -424h-1126v107h1126v-107z" />
<glyph unicode="`" horiz-adv-x="682" d="M366 1119l-131.5 156.5l-131.5 156.5h232l60.5 -156.5l60.5 -156.5h-90v0z" />
<glyph unicode="a" horiz-adv-x="1024" d="M705 131q-78 -65 -144 -96q-63 -34 -114 -43l-22 -4l-22 -4q-12 -2 -23.5 -2h-22.5q-15 0 -29 1t-28 3q-91 11 -149 67q-69 67 -76 170q-1 6 -1 12v11v12t1 12q3 49 23 91t56 77.5t84 64.5q35 21 80 36q26 10 61 19.5l79 20.5q72 14 132 29t108 32v42q0 89 -31 135 q-11 19 -26 34t-33 25q-20 13 -44 20t-53 10q-10 1 -20 1.5t-20 0.5h-15q-72 -4 -115 -38q-25 -22 -33 -52l-6 -23t-5 -24q-5 -25 -15 -47.5t-23 -42.5q-5 0 -10.5 -0.5t-10.5 -0.5q-15 1 -30 1t-30 2l-27 4t-25 6q-14 22 -14 58q0 3 0.5 6t0.5 6q12 70 57 124 q8 10 16.5 18.5t18.5 16.5q97 83 275 91q8 0 15.5 0.5t15.5 0.5t15.5 -0.5t15.5 -0.5q95 -5 159 -28q11 -5 21 -10l20 -10q48 -26 78 -67q19 -22 30 -53.5t16 -74.5q3 -21 3 -50q2 -25 2 -53.5v-61.5v-224q0 -75 1.5 -126.5t3.5 -80.5q4 -26 10.5 -38.5t14.5 -18.5q9 0 14 4 q9 5 40 36q6 -44 23 -91q-104 -75 -201 -75q-32 14 -51 47t-21 93zM683 242q15 88 15 206v91q-107 -42 -231 -69l-25.5 -7t-21.5 -6q-62 -24 -94 -49q-73 -49 -73 -134q0 -82 61 -128q46 -39 117 -39q72 0 136.5 35t115.5 100z" />
<glyph unicode="b" d="M314 850q125 164 289 164q13 0 25 -1t23 -4q71 -8 131.5 -40.5t108.5 -90.5q7 -9 13.5 -18.5t11.5 -20.5q88 -127 88 -319q0 -259 -149 -408q-137 -138 -317 -138q-95 0 -147 78v-66q-123 0 -249 58v869q0 67 -1 119t-3 90q-4 46 -12 80.5t-20 62.5q-13 27 -35 49 q-2 19 -3.5 37t-3.5 37l91.5 28l91.5 28h67v-594zM350 764q-43 -119 -43 -285q0 -82 6 -150.5t20 -124.5q93 -120 223 -120q104 0 187 101q82 101 82 299q0 192 -81 288q-79 97 -188 97q-67 0 -125 -36q-36 -21 -81 -69z" />
<glyph unicode="c" horiz-adv-x="966" d="M820 375q26 -5 51.5 -9t51.5 -9q-33 -182 -147 -283q-112 -100 -266 -100q-187 0 -311 136t-124 382q0 157 57 276q27 58 71 106q36 39 78 65q114 75 254 75q168 0 268 -92q85 -76 99 -186q-15 -21 -41.5 -35t-63.5 -16q-3 0 -6 -0.5t-6 -0.5q-37 0 -62 15q-9 27 -20 54 t-24 55q-14 43 -44 67q-46 32 -113 32q-117 0 -191 -86q-5 -6 -9 -12.5t-8 -14.5q-56 -80 -63 -208q-1 -11 -1.5 -23t-0.5 -24q0 -192 80 -302q71 -95 184 -107q8 -2 16.5 -2h16.5q19 0 39 3q87 11 150 75q53 57 85 169z" />
<glyph unicode="d" d="M767 118q-51 -66 -111.5 -100.5t-135.5 -39.5q-8 -1 -15.5 -1.5t-15.5 -0.5q-17 0 -33 2t-33 5q-68 9 -126 41t-108 89q-109 126 -118 322q-1 8 -1 16.5v16.5v22.5t1 22.5q10 154 86 286q7 16 15 30q48 75 120 122q101 64 223 64q78 0 140 -30t106 -82v118q0 56 -1 96 t-3 66q-3 35 -11 57.5t-20 39.5q-13 16 -35 25q-2 21 -3 41.5t-3 41.5l83 28l83 28h82v-1006q0 -68 1 -120t3 -89q4 -36 12 -61t19 -43q12 0 36 8q2 -23 3 -45.5t3 -45.5l-96 -28l-96 -28h-51v132zM727 196q42 117 42 283q0 47 -1.5 91.5t-5.5 87.5q-12 85 -53 144 q-36 54 -86.5 80.5t-105.5 26.5q-104 0 -179 -88q-5 -5 -8.5 -11t-7.5 -12q-69 -98 -69 -284q0 -204 87 -307q75 -90 173 -101q5 -1 11 -1h11q21 0 42 3q80 10 150 88z" />
<glyph unicode="e" horiz-adv-x="1024" d="M239 528q4 -191 99 -294q79 -86 186 -98q19 -3 38 -3q32 0 64 8q72 11 125 60t90 147q27 -6 54 -11t54 -11q-29 -135 -120 -232q-114 -120 -301 -120q-199 0 -326 135q-127 136 -127 375q0 251 129 391q131 140 331 140q183 0 300 -124q100 -106 112 -286q2 -17 3.5 -36 t1.5 -41h-713zM753 631q-6 87 -29 136q-6 15 -14 27.5t-18 23.5q-36 43 -83 65t-101 22q-103 0 -179 -74q-75 -73 -85 -200h509z" />
<glyph unicode="f" horiz-adv-x="625" d="M389 883v-603q0 -89 14 -134q20 -40 50 -57q11 -9 20.5 -18t20.5 -18v-53h-363v18q5 9 10.5 17.5t10.5 17.5q20 9 36 28q17 28 23 62q6 43 6 120v620h-168v106h168v58q0 47 6 91q2 36 8 66t14 55l7.5 17.5t8.5 16.5q35 68 101 111q40 25 87.5 38t105.5 13q92 0 181 -43 q23 -35 23 -73v-9q-3 -30 -18 -60q-16 -21 -31 -28q-30 3 -60 12q-20 8 -48 36q-20 14 -37 22t-32 11q-5 1 -11 1.5t-11 0.5q-20 0 -36 -6q-23 0 -39 -12q-24 -21 -36 -63q-4 -14 -5.5 -32.5t-2.5 -41.5q-3 -51 -3 -132v-49h222v-106h-222z" />
<glyph unicode="g" d="M933 1002v-1132q0 -72 6 -111q-11 -5 -20 -8.5t-18 -7.5q-3 -7 -6.5 -13l-7.5 -13q-26 -42 -68 -74q-52 -40 -116.5 -60.5t-138.5 -20.5q-115 0 -220 38q-29 11 -51 17q-15 5 -25 5q-5 0 -13 -2l-17 8.5t-17 9.5q-16 61 -26 127t-16 138q26 3 53 6.5t53 7.5 q11 -58 32 -103t54 -76q75 -73 193 -73q82 0 131 34q9 6 16 12.5t13 13.5q29 32 37 72v12v327q-36 -49 -88 -81q-33 -24 -65.5 -39.5t-65.5 -21.5q-44 -12 -87 -12q-131 0 -238 101q-30 28 -54 63q-93 129 -93 333q0 159 58 279q32 68 81 119q15 17 31.5 30.5t34.5 26.5 q113 80 254 80q157 0 251 -115l28 51l27 52h98zM728 221q42 120 42 292q0 39 -2 76t-5 72q-8 72 -31 119q-14 29 -36 49q-35 38 -79 58.5t-95 20.5q-114 0 -195 -97q-81 -98 -81 -299q0 -195 84 -295q84 -99 201 -99q59 0 106.5 24.5t90.5 78.5z" />
<glyph unicode="h" d="M301 1444q10 -15 23 -29v-569q96 108 186 143q60 25 126 25h14.5t13.5 -1q88 -4 152 -53q64 -45 93 -122q28 -72 28 -236v-331q0 -35 2 -64t5 -51q5 -26 17 -47t44 -35v-74h-315v46h11q32 14 44.5 37.5t17.5 56.5q1 18 1 44v59v303v51.5t-1 48.5q-1 48 -8 83.5t-20 59.5 q-18 39 -50.5 60t-77.5 25q-5 0 -10.5 0.5t-11.5 0.5q-8 0 -15.5 -0.5t-15.5 -1.5q-14 -2 -26.5 -5t-25.5 -7q-26 -9 -54.5 -26.5t-58.5 -44.5q-35 -47 -50 -108t-15 -150v-254q0 -38 1 -67.5t4 -49.5q2 -20 7 -39.5t12 -38.5q8 -11 20 -20t30 -16v-47h-317v47q31 0 48 10 q5 17 9 36t7 41q6 43 6 116v766q0 62 -1 107.5t-3 77.5q-4 32 -11.5 53.5t-20.5 35.5q-10 14 -34 22q-2 19 -3.5 37.5t-3.5 38.5l113.5 28z" />
<glyph unicode="i" horiz-adv-x="512" d="M306 1444q21 -26 36 -66.5t15 -87.5q-23 -21 -60 -36t-81 -15q-21 26 -36 66.5t-15 87.5q23 21 60 36t81 15zM326 1002q5 -8 10.5 -15l11.5 -15v-656q0 -60 6 -88q6 -29 18 -52q14 -22 45 -37v-139h-312v109q33 15 45 37q10 21 18 51q3 15 5 37t2 51v283q0 49 -1.5 84.5 t-3.5 57.5q-3 24 -10.5 37.5t-20.5 21.5q-16 16 -34 23q-2 38 -3.5 77t-3.5 77l114 28z" />
<glyph unicode="j" horiz-adv-x="512" d="M305 1444q21 -26 36 -67t15 -89q-23 -21 -60 -36t-81 -15q-21 26 -36 67t-15 89q23 21 60 36t81 15zM326 1002q5 -8 11 -15.5t11 -15.5v-928q0 -27 -0.5 -53.5t-1.5 -52.5q-9 -183 -74 -266q-82 -107 -238 -107q-41 0 -75 6t-62 20q-9 33 -9 67q0 11 1 21.5t3 21.5 q14 14 36.5 25t46.5 11q15 0 26 -7q10 -3 33 -25q28 -12 50 -12q18 0 32 9q12 0 23 9q15 14 25 49q10 41 11 125v73v605q0 61 -1 108t-3 82q-4 32 -11 53.5t-21 37.5t-34 23q-2 20 -3.5 40t-3.5 40l114 28z" />
<glyph unicode="k" horiz-adv-x="1024" d="M302 1444q6 -8 12 -15t11 -15v-844l112 107l111 107q59 56 86 86q15 18 25 34q0 23 -35 26l21 29.5l21 29.5h316l-21 -36q-31 -10 -58 -23t-51 -29q-29 -20 -58.5 -45.5l-61.5 -54.5l-99.5 -93.5l-99.5 -93.5l114.5 -158.5l114.5 -157.5q7 -11 24.5 -33l35.5 -46 l33.5 -44t20.5 -26q20 -24 38.5 -43.5t35.5 -34.5q11 -9 25.5 -16t34.5 -13l7.5 -21t8.5 -21h-334q-15 33 -32 67q20 1 26.5 6t6.5 15q-16 35 -52 86l-126 176l-126 176l-32 -106.5l-32 -106.5q0 -75 6 -118q7 -45 18 -81q12 -35 50 -66v-48h-323v47q35 0 53 9q5 17 9 36 t7 39q4 23 5.5 52t1.5 64v769q0 123 -3 185q-4 32 -11.5 53.5t-21.5 36.5q-9 13 -31 21q-2 19 -4.5 37.5t-4.5 38.5l113 28z" />
<glyph unicode="l" horiz-adv-x="512" d="M322 1444q6 -9 11.5 -18.5t11.5 -18.5v-1029q0 -62 6 -93q3 -17 8 -31.5t11 -27.5q14 -26 49 -43v-183h-315v128q33 19 43 43q6 12 10 26.5t8 31.5t5.5 40.5t1.5 53.5v636q0 53 -1 90t-3 60q-3 27 -11 43t-20 25q-13 19 -33 28l-4 91.5l-4 91.5l113 28z" />
<glyph unicode="m" horiz-adv-x="1649" d="M316 830q74 89 125 120q65 44 143 54q34 6 66 6q10 0 19.5 -0.5t19.5 -1.5q80 -10 135 -56.5t77 -127.5q87 111 169 153q74 37 155 37q90 0 155 -37.5t100 -120.5q30 -69 30 -191v-425q0 -66 6 -105q5 -28 18.5 -52.5t44.5 -41.5v-41h-316v42h10q29 0 46 11q5 17 9.5 35 t6.5 38q2 17 2 41v56v412v25q-2 73 -15 112q-5 16 -12.5 28.5t-17.5 23.5q-38 41 -99 49q-9 1 -17.5 1.5t-17.5 0.5q-53 0 -105 -26q-23 -11 -47 -29t-50 -44q-13 -15 -22 -35q-8 -29 -11 -61q-2 -26 -3 -51.5t-1 -52.5v-354q0 -42 1 -74.5t4 -55.5q4 -21 20 -43 q13 -7 49 -7v-42h-321v41q37 0 52 9q14 33 20 73q1 16 1.5 39.5t0.5 55.5v427q0 117 -38 171q-39 54 -111 60h-18h-16t-16 -2q-17 -2 -32.5 -6t-30.5 -10q-45 -19 -81 -46q-42 -28 -63 -77q-15 -93 -15 -220v-274q0 -68 6 -104q8 -39 19 -67q12 -18 50 -29v-41h-317v41 q32 11 44 29q13 28 19 68q4 20 5.5 45.5t1.5 58.5v359q0 62 -1.5 109t-3.5 81q-3 29 -10.5 46.5t-20.5 28.5q-16 0 -34 -7q-2 22 -3.5 43.5t-3.5 43.5l99 28l99 28h42v-172z" />
<glyph unicode="n" d="M314 830q125 168 298 182q7 1 14 1.5t14 0.5q5 0 10 -0.5t10 -0.5q80 -3 139 -44q61 -36 93 -98q27 -46 38 -120q4 -21 5 -52.5t1 -73.5v-371q0 -35 2 -62t5 -47q6 -39 18 -70q12 -20 45 -32v-43h-316v43h9q32 19 45 47t18 66q1 16 1.5 40t0.5 56v362v13t-1 12 q-1 31 -4 56t-8 45q-16 67 -59 101t-110 34q-116 0 -218 -102q-41 -90 -41 -242v-259q0 -35 1.5 -61.5t3.5 -43.5q4 -20 8.5 -37.5t10.5 -32.5q13 -19 50 -31v-66h-316v43h10q35 26 47 68q12 57 12 144v296q0 61 -1 104.5t-3 72.5q-3 31 -10.5 49.5t-21.5 31.5 q-13 25 -33 43l-4 47.5l-4 46.5l99 28l100 28h42v-172z" />
<glyph unicode="o" d="M539 1014q213 0 346 -151q123 -138 123 -353q0 -161 -61 -286q-30 -61 -73 -107.5t-98 -78.5q-110 -64 -243 -64q-215 0 -345 154q-120 141 -120 362q0 149 61 274q41 83 103 138q16 14 33 26t35 23q108 63 239 63zM523 907q-71 0 -133 -38q-38 -24 -69 -68 q-27 -40 -43.5 -95t-20.5 -126l-2 -32t-1 -32q0 -6 0.5 -11.5t0.5 -11.5q6 -177 83 -287q84 -123 217 -123q115 0 191 91q66 79 73 244q1 16 1.5 32t0.5 33v24q-8 193 -96 301q-80 99 -202 99z" />
<glyph unicode="p" d="M72 927q5 5 11 8.5t11 7.5l168 57h46v-176q53 81 112.5 125t137.5 55q33 6 64 6q13 0 25.5 -1t25.5 -3q63 -9 119 -40q25 -14 47 -32.5t42 -41.5q44 -48 73 -114q46 -106 50 -233q0 -8 0.5 -16t0.5 -16t-0.5 -15.5t-0.5 -15.5q-6 -146 -63 -263q-13 -26 -28 -49.5 t-33 -44.5q-23 -29 -49.5 -52.5t-57.5 -41.5q-82 -47 -178 -55q-7 -1 -13.5 -1h-13.5q-10 0 -19.5 0.5t-18.5 1.5q-15 1 -29.5 3.5t-28.5 6.5q-46 10 -85 34.5t-71 59.5v-254q0 -75 6 -117q6 -29 20 -49q13 -7 52 -7v-76h-330v50h12q26 14 47 43q9 4 15 18q2 22 3.5 53 t1.5 73v879q0 38 -1 68t-3 52q-8 42 -36 56q-11 31 -31 57zM352 751q-44 -122 -44 -298v-34t1 -34q2 -46 6.5 -80.5t11.5 -57.5q11 -38 32 -67t50 -53q62 -49 148 -49q110 0 184 89q83 103 83 301q0 188 -74 294q-8 11 -17 21.5l-18 20.5q-67 67 -154 67q-55 0 -102 -25 q-44 -23 -107 -95z" />
<glyph unicode="q" d="M933 1002v-1132q0 -72 6 -111q6 -43 19 -74q12 -35 50 -62v-45h-321v70h9q27 0 43 8q5 9 9 20.5t7 25.5q6 40 6 107v327q-36 -49 -88 -81q-33 -24 -65.5 -39.5t-65.5 -21.5q-44 -12 -87 -12q-131 0 -238 101q-30 28 -54 63q-93 129 -93 333q0 159 58 279q32 68 81 119 q15 17 31.5 30.5t34.5 26.5q113 80 254 80q157 0 251 -115l28 51l27 52h98zM728 221q42 120 42 292q0 39 -2 76t-5 72q-8 72 -31 119q-14 29 -36 49q-35 38 -79 58.5t-95 20.5q-114 0 -195 -97q-81 -98 -81 -299q0 -195 84 -295q84 -99 201 -99q59 0 106.5 24.5t90.5 78.5z " />
<glyph unicode="r" horiz-adv-x="682" d="M292 1002q5 -5 10.5 -10t10.5 -10v-163q26 45 49.5 78t46.5 53q46 41 97 53q29 8 57 8h10t10 -1q54 -7 101 -42q8 -24 8 -47q0 -6 -0.5 -12t-1.5 -13q-5 -32 -22.5 -57.5t-40.5 -38.5q-17 5 -35 12.5t-37 18.5q-40 23 -65 23q-6 0 -10 -3q-8 -1 -14.5 -3.5l-14.5 -5.5 q-35 -16 -64.5 -49t-49.5 -84q-15 -89 -15 -187v-266q0 -60 10 -100q6 -29 22.5 -54t47.5 -42v-60h-324v39q33 20 52 53q13 32 17 68q3 30 3 91v327q0 62 -1 106.5t-3 73.5q-6 50 -33 72q-8 11 -16.5 19.5t-18.5 15.5q-2 20 -3 40.5l-2 40.5l109.5 28z" />
<glyph unicode="s" horiz-adv-x="910" d="M663 996q57 -18 86 -49v-52q11 -42 19 -88t12 -98l-52 -6l-52 -6q-26 116 -84 164q-53 44 -135 48q-7 0 -13 0.5t-13 0.5q-6 0 -12.5 -0.5t-12.5 -0.5q-73 -3 -116 -37q-48 -39 -48 -89q0 -46 27 -80q24 -29 70 -52q19 -11 69 -28q13 -5 27 -9.5l30 -9.5l62 -23.5 l59 -22.5q71 -26 116 -54q64 -37 98.5 -92.5t34.5 -130.5q0 -82 -44 -152q-26 -42 -68 -74q-52 -40 -116.5 -60.5t-138.5 -20.5q-115 0 -220 38q-29 11 -51 17q-15 5 -25 5q-5 0 -13 -2l-17 8.5t-17 9.5q-16 61 -26 127t-16 138q26 3 53 6.5t53 7.5q11 -58 32 -103t54 -76 q75 -73 193 -73q82 0 131 34q9 6 16 12.5t13 13.5q29 32 37 72q1 7 1.5 13.5t0.5 13.5v8.5t-1 8.5q-6 51 -49 84q-33 25 -138 63l-60 22.5l-60 23.5q-72 26 -118 51q-35 19 -60 41.5t-42 46.5q-43 61 -43 144q0 57 20.5 105.5t58.5 87.5q16 16 37 31q34 25 81.5 40t104.5 19 q9 1 18 1h18h16q51 -3 105 -15l44.5 -10t30.5 -4q17 0 33 12z" />
<glyph unicode="t" horiz-adv-x="569" d="M338 1325v-336h198v-105h-198v-608q0 -81 17 -109q11 -19 30.5 -29.5t49.5 -10.5q9 0 21 5q18 5 37 14.5t37 24.5l16.5 -39.5l16.5 -39.5q-34 -44 -74.5 -69t-82.5 -33q-20 -4 -43 -4q-4 0 -7 0.5t-7 0.5q-26 2 -48.5 8.5t-42.5 17.5q-49 29 -70 77q-19 43 -21 143 q-1 16 -1 33v35v583h-138v86q44 11 89 37.5t84 62.5v33q6 34 14 75.5l18 92.5z" />
<glyph unicode="u" d="M929 989v-585q0 -61 1 -106.5t3 -75.5q4 -32 12 -52.5t19 -34.5q16 -13 35 -19q2 -19 3.5 -37t3.5 -37l-95 -28l-95 -28h-50v175q-105 -132 -208 -165q-39 -13 -82 -18q-11 -2 -21.5 -3t-21.5 -1q-40 0 -76.5 10.5t-69.5 29.5q-54 29 -83.5 70.5t-43.5 98.5 q-16 60 -16 183v369q0 30 -2 55t-5 45q-7 39 -21 74q-14 21 -50 34v46h251v-563q0 -45 1.5 -78t3.5 -55q11 -107 70 -147q46 -33 110 -33q37 0 75 12.5t80 41.5q52 33 85 88q15 91 15 215v278q0 65 -15 104q-14 41 -59 66v71h246z" />
<glyph unicode="v" horiz-adv-x="1024" d="M21 970q8 5 16 9.5t16 9.5h279l10 -38.5l10 -38.5h-14q-30 -13 -30 -51q0 -8 1 -12q11 -48 31 -100l66.5 -171l66.5 -171q19 -47 36 -94.5l34 -96.5l26 74.5l31 84.5l18 47l30 78.5l36.5 94.5l36.5 94.5l30 78.5l18 47q8 21 14 39t8 33q3 11 4.5 21t2.5 20q-5 6 -14 10 q-9 3 -35 3l6 24t5 24h242q-2 -12 -5 -24l-6 -24q-33 -19 -47 -40q-29 -46 -54 -109l-159.5 -403.5l-159.5 -402.5h-104l-160.5 399.5l-160.5 399.5q-11 29 -21.5 53.5t-21.5 44.5q-8 14 -17 26t-20 23q-13 19 -45 38z" />
<glyph unicode="w" horiz-adv-x="1479" d="M9 970l15.5 9.5l15.5 9.5h254q3 -14 5.5 -28.5t5.5 -28.5q-20 -10 -27 -23.5t-7 -30.5q0 -10 1 -15q6 -38 19 -76l61.5 -190.5l61.5 -189.5l60 -189q19 45 60 181l54 149l54 149q-2 37 -2.5 73t-2.5 73q-6 48 -21 80q-11 7 -41 8q3 14 5.5 29t5.5 29h310q3 -14 5.5 -28.5 t4.5 -28.5q-34 -1 -51 -13q-2 -8 -2 -15v-15v-16.5t2 -17.5l6 -29.5t8 -29.5l62 -190.5l62 -190.5l28 -88l28 -88l29 87.5l29 87.5l63 186.5l63 186.5q21 63 33 119q0 10 -9.5 17t-38.5 9q3 14 5.5 28.5t5.5 28.5h232l-12 -57q-56 -46 -87 -135l-142 -405.5l-142 -405.5 h-114l-92 286.5l-92 287.5q-2 5 -7 23.5l-11 39.5l-11 40t-6 24l-121 -351l-120 -350h-113l-137 400.5l-137 401.5q-13 38 -26 68.5t-26 56.5q-22 33 -56 57z" />
<glyph unicode="x" horiz-adv-x="1024" d="M35 970l11.5 9.5l11.5 9.5h305l23.5 -45l23.5 -45q-12 -14 -12 -34q0 -17 10 -45q0 -11 17 -37q3 -4 7 -10l10 -15l69 -111l39.5 56.5l38.5 53.5q36 49 36 63q0 11 -8 18t-28 7v145l245 -1l53.5 -9.5l53.5 -9.5q-46 -31 -85 -71q-30 -32 -64 -74.5l-73 -95.5l-67 -90 l-66 -90l109.5 -156.5l109.5 -157.5l62.5 -85.5t50.5 -62.5q32 -31 73 -51l6 -18t7 -18h-327l-24 54q15 8 23 29q1 3 1 11q0 14 -4 26q-9 20 -25.5 47.5t-42.5 65.5l-51 75l-34.5 52l-34.5 52l-150 -213q-53 -74 -72 -111q0 -12 11 -21.5t34 -10.5l-12.5 -28l-12.5 -28h-259 q8 20 14 37q13 6 24 14.5t21 18.5l60.5 75l73.5 97l96 133l97 133l-92.5 131.5l-91.5 131.5q-64 93 -113 146q-31 33 -78 53z" />
<glyph unicode="y" horiz-adv-x="1024" d="M22 970q6 5 12.5 9.5t12.5 9.5h286l10 -37.5l10 -37.5q0 -7 -0.5 -13.5t-0.5 -14.5q-18 -6 -27 -20.5t-9 -33.5q0 -2 0.5 -4t0.5 -4q5 -23 14.5 -50.5t22.5 -58.5l56 -134.5l56 -134.5l45 -111l43 -114q27 90 60 177l81 211l81 211q7 17 12 34.5t7 34.5q3 11 4.5 21.5 t2.5 19.5q-5 6 -13 9t-30 3q3 12 5.5 23.5t5.5 23.5h239q-3 -12 -5.5 -24t-5.5 -23q-25 -17 -39 -37q-15 -20 -33 -51q-8 -17 -17 -41l-21 -54l-156 -399l-156 -398l-30 -76.5l-27 -66.5q-10 -24 -20 -44.5t-21 -38.5q-46 -77 -102 -118q-75 -54 -158 -54q-56 0 -106 28 q-23 46 -26 95v3q0 27 12.5 45.5t35.5 26.5q23 -5 47 -9.5l50 -9.5q9 -2 17 -2h16q33 0 51 12q25 7 51 36q13 14 29 46t34 81q10 23 20 48.5l21 52.5l-157 369l-156 368q-19 46 -45 95q-9 16 -17 28.5l-15 22.5q-21 36 -58 70z" />
<glyph unicode="z" horiz-adv-x="966" d="M903 218l8 -19.5t9 -19.5q-2 -45 -3 -89.5t-3 -89.5h-874v91l321 396l321 397q-108 -3 -201 -3h-94q-46 0 -83.5 -1.5t-66.5 -5.5q-34 -6 -67 -23q-13 -24 -16 -62h-63q1 51 1.5 100t1.5 100h818v-78l-266.5 -331l-266.5 -331l-22 -27l-36.5 -44.5l-36.5 -44.5l-22 -27 q62 2 121 3.5t118 1.5h90q51 0 93.5 2t76.5 6q22 5 41.5 12.5t37.5 18.5q34 17 63 68z" />
<glyph unicode="{" horiz-adv-x="833" d="M738 -436q-15 1 -30 2.5t-30 3.5q-40 5 -72 12.5t-56 19.5q-58 27 -100 75q-52 61 -71 137q-5 23 -8.5 49t-4.5 56q0 7 -0.5 14t-0.5 15q0 23 1 48t3 53q5 55 8.5 103t3.5 82q0 13 -0.5 23.5t-1.5 20.5q0 6 -1 12t-3 12q-12 51 -50 89q-56 60 -155 68v102q100 9 155 67 q48 49 54 114q1 9 1.5 19.5t0.5 23.5q0 45 -6 110q-8 50 -9 97q-1 17 -1 33v31q0 77 11 124q11 62 33.5 105.5t56.5 75.5q39 37 93 61q43 19 119 28q15 2 30 3.5t30 2.5v-96q-14 -2 -26.5 -5l-24.5 -6q-42 -7 -71.5 -20.5t-47.5 -33.5q-44 -48 -44 -153q0 -10 1 -21.5 t4 -25.5q1 -36 6 -72q9 -92 9 -156v-17q-1 -24 -4.5 -44.5t-8.5 -38.5q-15 -62 -45 -109l-14 -21t-15 -19q-57 -63 -163 -107q128 -50 189 -145q59 -88 62 -213v-20q0 -17 -1 -34.5t-3 -37.5q-1 -20 -2.5 -38.5t-3.5 -35.5q-9 -92 -9 -135q0 -12 0.5 -21.5t2.5 -18.5 q9 -59 44 -92q34 -35 114 -48q24 -8 51 -12v-96z" />
<glyph unicode="|" horiz-adv-x="471" d="M294 1456v-1892h-120v1892h120z" />
<glyph unicode="}" horiz-adv-x="833" d="M112 1456q15 -1 30 -2.5t30 -3.5q82 -9 128 -31q65 -30 109.5 -87t60.5 -126q13 -47 14 -105v-29q0 -46 -3 -101q-5 -56 -8.5 -104t-3.5 -82q0 -21 1 -36.5t5 -30.5q12 -49 49 -89q56 -59 156 -68v-102q-50 -4 -89 -21.5t-67 -46.5q-47 -49 -53 -113q-2 -9 -2 -19.5 v-23.5q0 -46 6 -110q8 -50 9 -97q1 -17 1 -32.5v-30.5q0 -77 -11 -124q-12 -62 -34 -105t-57 -75q-20 -19 -43 -34t-49 -28q-23 -11 -52.5 -17.5t-66.5 -11.5q-15 -2 -30 -3.5t-30 -2.5v96q27 4 51 12q50 10 83.5 29t50.5 45q24 36 27 94v12q0 43 -9 105q-5 54 -7.5 98 t-2.5 80v20q0 26 3.5 49t8.5 42q8 31 18.5 59t26.5 54q62 99 194 150q-129 53 -191 147q-56 85 -61 212q0 20 1 43t3 49q2 19 3.5 38t3.5 36q9 94 9 139v12q0 13 -3 25q-5 29 -16 51.5t-29 39.5q-17 17 -45 29t-68 19l-24.5 6t-26.5 5v96z" />
<glyph unicode="~" horiz-adv-x="1152" d="M1014 731q48 20 84 49q-2 -119 -37 -208q-11 -11 -21 -18q-77 -68 -177 -74q-6 -1 -12.5 -1h-12.5h-12.5t-12.5 1q-21 1 -42 4.5t-41 8.5q-24 7 -69.5 24t-112.5 46q-17 7 -34.5 13.5t-35.5 14.5q-118 47 -179 47q-8 0 -14 -1t-12 -3q-41 -7 -73 -31.5t-55 -70.5 q-37 -13 -92 -54q2 60 11 111t26 95l9.5 9.5t9.5 8.5q73 70 172 76q6 0 12 0.5t12 0.5q7 0 13 -0.5t13 -0.5q11 -1 22 -2.5t22 -3.5q30 -6 64 -15q40 -12 92 -31.5t117 -47.5q67 -29 111 -42q57 -18 95 -18q8 0 14.5 1t13.5 3q43 8 77 35.5t55 73.5z" />
<glyph unicode="&#xa2;" d="M862 375l52.5 -8l52.5 -8q-41 -188 -160 -292q-6 -5 -12.5 -9.5l-13.5 -9.5q-98 -74 -230 -74q-33 0 -66 6.5t-67 18.5l-65 -196.5l-65 -196.5q-23 5 -45.5 8.5t-45.5 7.5l67.5 206.5l67.5 205.5q-99 67 -152 169q-62 117 -62 286q0 161 54 278q42 88 114 147 q12 11 24.5 20t26.5 17q109 66 231 66q28 0 81 -6l63 192.5l63 192.5q23 -5 45.5 -8.5t45.5 -7.5l-64 -197.5l-64 -197.5q107 -47 155 -116q42 -60 51 -133q-15 -22 -41.5 -36t-64.5 -16h-7q-38 0 -65 15q-8 24 -18.5 50l-21.5 54q-5 14 -12.5 27.5t-16.5 27.5l-225 -699 q43 -22 77 -30q9 -4 25 -4q20 0 43 3q31 5 60 15.5t55 28.5q53 37 80 90q21 38 50 113zM392 213l111.5 345l111.5 344q-32 8 -55 8q-76 0 -135 -40q-14 -8 -25.5 -19t-22.5 -24q-44 -51 -65.5 -125t-21.5 -167q0 -45 5 -85.5t14 -76.5q24 -91 83 -160z" />
<glyph unicode="&#xa3;" horiz-adv-x="1160" d="M723 662h-287q16 -31 18.5 -52.5t2.5 -36.5q0 -86 -34 -163q-20 -48 -56 -102.5t-88 -116.5q79 20 160.5 21t174.5 -21l118.5 -27.5t113.5 -13.5q149 0 191 48l48 -157q-28 -37 -137 -55q-42 -13 -95 -13q-46 0 -82 13q-51 7 -142 25.5t-227 49.5q-47 18 -86 10t-71 -24 t-59 -32.5t-50 -16.5q-31 -1 -50 9t-28.5 25.5t-12 33.5t-0.5 34t6.5 26.5t9.5 10.5q29 0 63.5 39.5t79.5 110.5q23 43 35.5 80t18.5 68t7 57t1 47q0 17 -3.5 47.5t-10.5 75.5h-198v150h157q-21 62 -31 103t-10 61q0 116 35.5 221.5t108.5 201.5q23 23 55.5 41t71.5 30 t83 18.5t90 6.5q198 0 300 -102q144 -138 144 -280q-80 -28 -178 -28q-10 9 -16.5 23.5t-15 37.5t-23 54.5t-40.5 75.5q-60 69 -171 69q-115 0 -191 -75q-75 -50 -75 -178q0 -108 61 -273l314 -7v-150z" />
<glyph unicode="&#xa4;" d="M798 1048l70.5 70l70.5 70l43.5 -43.5l43.5 -44.5l-71 -69l-71 -69q87 -122 87 -258q0 -140 -87 -260l71 -70.5l71 -70.5l-87 -87l-70.5 71l-70.5 71q-119 -88 -254 -88q-85 0 -160 28q-64 24 -106 60l-71 -71l-71 -71l-43 43.5l-43 43.5l71 70.5l71 70.5 q-87 112 -87 259q0 140 87 259l-71 69l-71 69l43 44.5l43 43.5l71 -70l71 -70q49 37 111 59q76 28 150 28q68 0 135.5 -22t123.5 -65zM538 1012q-129 0 -220 -91t-91 -220q0 -127 91 -218t219 -91q129 0 220 91t91 219q0 87 -46 161q-12 20 -26 37.5t-31 32.5q-23 20 -47 34 q-74 45 -160 45z" />
<glyph unicode="&#xa5;" d="M627 444h419v-106h-419v-81q0 -48 1.5 -86t3.5 -67q4 -22 17 -46q20 -11 43 -11h20v-47h-347v47h16q32 0 52 13q11 36 16 83q2 18 2 47v67v81h-419v106h419v120q-2 11 -3.5 21t-3.5 21h-412v110h359l-121.5 243l-120.5 242q-17 34 -33 59.5t-31 45.5t-33.5 35t-38.5 27 q-8 23 -13 43h320l27 -66q-21 -11 -29.5 -24.5t-8.5 -29.5q0 -13 4 -24l15.5 -34.5l19.5 -41.5l125 -262q25 -51 46 -99l40 -93l36 81l45 95l76.5 159l76.5 160q12 24 20.5 44.5l15.5 38.5q0 10 -11 21q-7 6 -32 8q-2 0 -5 0.5t-8 1.5l12 32.5l13 32.5h280q-4 -11 -7 -21.5 t-7 -21.5q-44 -24 -70 -59q-41 -52 -84 -137l-228 -456h364v-110h-390q-8 -2 -15 -4l-14 -4v-154z" />
<glyph unicode="&#xa6;" horiz-adv-x="471" d="M294 1456v-766h-120v766h120zM294 330v-766h-120v766h120z" />
<glyph unicode="&#xa7;" d="M341 885q-35 36 -59 68t-39 62.5t-21.5 60.5t-6.5 62q0 109 73 189q8 11 18 20.5t21 18.5q77 62 189 70h17h21t21 -1q124 -8 201 -76q67 -60 84 -144q3 -13 4 -25.5t1 -26.5q0 -22 -3 -44q-29 -8 -58.5 -13t-61.5 -7q-20 20 -36.5 48t-23.5 55q0 10 4 27q1 5 1.5 10.5 t0.5 10.5q-11 39 -39.5 62.5t-73.5 27.5q-5 0 -10.5 0.5t-10.5 0.5q-8 0 -15 -0.5t-15 -1.5q-26 -3 -49 -11t-43 -22t-35 -32q-39 -45 -39 -99q0 -58 31 -101q47 -64 190 -159l32.5 -22.5l33.5 -22.5q66 -45 113 -81t77 -65q29 -30 52 -58q69 -88 69 -193v-12t-1 -11 q-4 -91 -62 -165q-24 -34 -64 -65.5t-97 -60.5q38 -35 65 -67.5t43 -64.5q33 -63 33 -135q0 -16 -3 -29q-2 -26 -9.5 -51t-18.5 -49q-35 -71 -107 -116q-79 -53 -179 -61q-7 -1 -13 -1h-12q-9 0 -17.5 0.5t-17.5 1.5q-123 7 -205 80q-34 31 -56 68t-30 80q-3 13 -3 27 q0 25 7.5 45.5t18.5 34.5q5 0 9 0.5t9 0.5q32 0 61 -9t49 -23q3 -23 6.5 -44t7.5 -41q8 -40 22 -60q0 -15 13 -24q39 -33 98 -39q6 -1 12.5 -1.5t13.5 -0.5t13.5 0.5t14.5 1.5q54 6 97 35q22 16 37 32q30 34 38 77q1 6 1.5 12t0.5 13q0 5 -0.5 9t-0.5 9q-3 44 -32 82 q-25 35 -79.5 81t-139.5 103l-31.5 21.5l-31.5 21.5q-135 93 -195 159l-17 19t-16 19q-28 38 -45 80.5t-22 87.5q-1 8 -1.5 15.5t-0.5 15.5v10.5t1 11.5q4 80 55 154q58 84 166 134zM401 835q-78 -46 -114 -96.5t-36 -111.5q0 -68 41 -125q23 -30 66 -67.5t109 -82.5 q14 -9 26.5 -18l26.5 -19q86 -58 151 -109q75 43 112.5 95t37.5 109q0 50 -36 104q-11 19 -25 37q-53 64 -190 160q-110 74 -169 124z" />
<glyph unicode="&#xa9;" horiz-adv-x="1532" d="M768 1439q184 0 360 -95t273 -271q99 -176 99 -366q0 -191 -97 -364q-97 -174 -271 -272q-172 -95 -364 -95q-191 0 -365 95q-173 98 -270 272q-97 173 -97 364q0 190 98 366q99 177 274 271q176 95 360 95zM768 1346q-160 0 -314 -83q-152 -82 -239 -237 q-86 -154 -86 -319t84 -318q86 -152 237 -236q77 -42 155.5 -63.5t162.5 -21.5q164 0 317 85q153 84 237 236q84 153 84 318q0 168 -86 319q-86 155 -238 237q-154 83 -314 83zM928 1147q67 0 117 -24q59 -101 83 -234q-20 -4 -39.5 -7.5t-39.5 -7.5q-33 97 -101 146 t-163 49q-70 0 -125.5 -27t-95.5 -77q-33 -42 -52.5 -106.5t-19.5 -142.5q0 -183 81 -273q69 -77 176 -86q8 -1 16 -1.5t16 -0.5t16 0.5t16 1.5q66 6 122 36q82 46 129 139l40 -14l40 -14q-50 -113 -146 -176q-98 -62 -227 -62q-189 0 -309 121q-121 124 -121 316v4 q0 97 32 176t94 140q61 62 141.5 93t178.5 31h5q23 0 38 -3q18 -3 55 -16q6 -2 10.5 -3t7.5 -1q8 0 13.5 4.5t11.5 18.5z" />
<glyph unicode="&#xae;" horiz-adv-x="1532" d="M768 1439q184 0 360 -95t273 -271q99 -176 99 -366q0 -191 -97 -364q-97 -174 -271 -272q-172 -95 -364 -95q-191 0 -365 95q-173 98 -270 272q-97 173 -97 364q0 190 98 366q99 177 274 271q176 95 360 95zM768 1346q-160 0 -314 -83q-152 -82 -239 -237 q-86 -154 -86 -319t84 -318q86 -152 237 -236q77 -42 155.5 -63.5t162.5 -21.5q164 0 317 85q153 84 237 236q84 153 84 318q0 168 -86 319q-86 155 -238 237q-154 83 -314 83zM406 1104q6 5 11.5 9t11.5 9h343q100 -3 160 -30q33 -14 58 -37q21 -19 35 -39q36 -53 36 -116 q0 -42 -14 -77.5t-44 -66.5q-60 -63 -169 -81q20 -17 37 -34.5t32 -36.5q30 -37 62.5 -82l67.5 -98q9 -14 17.5 -23t16.5 -14t26 -7l25 -48l25 -48h-172l-43 65.5l-42 65.5q-84 132 -150 207q-26 25 -69 37h-77v-278q3 -29 14 -49q11 -7 45 -7v-41h-249v42q24 6 34 18.5 t15 29.5q3 33 3 97v490v41.5t-1 26.5q-4 25 -13 43.5t-32 31.5zM590 736q40 0 76 1.5t68 3.5q32 3 56 9q58 15 85 47q36 37 36 92q0 45 -23 80q-15 25 -44 42q-35 25 -110 31q-26 3 -52 3q-22 0 -45 -1.5t-47 -6.5v-301z" />
<glyph unicode="&#xb0;" horiz-adv-x="819" d="M405 1438q123 0 207 -85q86 -86 86 -207t-86 -207t-207 -86q-119 0 -207 86q-85 85 -85 207t85 207t207 85zM405 1342q-82 0 -139 -57t-57 -139q0 -81 57 -139q57 -57 139 -57q81 0 138 57q58 60 58 139q0 81 -58 139q-57 57 -138 57z" />
<glyph unicode="&#xb1;" horiz-adv-x="1175" d="M1099 189h-1023v125h449l-2 451h-449v125h449v448h125v-448h449v-125h-449v-451h451v-125z" />
<glyph unicode="&#xb4;" horiz-adv-x="682" d="M578 1432l-129 -156.5l-129 -156.5h-91l59 156.5l60 156.5h230z" />
<glyph unicode="&#xb6;" horiz-adv-x="1014" d="M880 1297v-1721h-121v1721h-205v-1721h-119v1043q-72 3 -128.5 14t-98.5 29q-61 26 -105 70q-46 44 -71 102q-20 40 -29 84.5t-9 93.5q0 153 81 244q60 77 151.5 116t228.5 39h564v-114h-139z" />
<glyph unicode="&#xb7;" horiz-adv-x="597" d="M376 815q38 0 73.5 -4t68.5 -12q16 -41 16 -91q0 -35 -16 -64t-39 -42h-26q-42 0 -77.5 16t-54.5 39v26q0 42 16 77.5t39 54.5z" />
<glyph unicode="&#xc1;" horiz-adv-x="1422" d="M998 351l-59 49l-59 49h-492l-43.5 -109.5l-43.5 -108.5q-12 -29 -19 -53t-11 -43q-3 -17 -3 -32q0 -18 4 -33q15 -10 64 -15q-3 -14 -6.5 -27.5t-6.5 -27.5h-317l15 57q26 14 42.5 28t27.5 30q24 41 49 94t52 119l223 549l223 549h122l228.5 -552l228.5 -552 q26 -63 50.5 -114t48.5 -90q31 -40 80 -61q5 -14 8.5 -28.5t7.5 -28.5h-378l-14 46l-14 46q24 15 34 35.5t10 44.5q0 19 -4 36q-14 60 -48 143zM913 565l-76.5 192.5l-76.5 192.5q-28 69 -50 130l-41 114q-17 -59 -36.5 -116.5t-42.5 -115.5l-79 -198.5l-80 -198.5h482z M934 1816l-129 -156.5l-129 -156.5h-91l59 156.5l60 156.5h230z" />
<glyph unicode="&#xc9;" horiz-adv-x="1308" d="M578 1287l-93 -18.5l-93 -18.5v-455h392q78 0 118 17q46 24 70 81h99v-322h-99q-7 47 -14 64q-40 17 -91 27t-124 10h-351v-431q0 -33 1 -57t3 -40q35 -9 75 -15t99 -6h238q50 0 91 2t75 6q23 5 45.5 12.5t44.5 19.5q51 30 105 93h61l-29.5 -128l-29.5 -128h-1069v61h24 q24 0 45 12q16 7 22 24q6 58 6 152v914q0 54 -3.5 95.5t-9.5 70.5q-17 20 -60 20l-12 21.5l-12 21.5v19h1052l4 -118l4 -117h-63q-34 54 -67 73q-33 20 -81 31q-86 4 -179 5.5t-194 1.5zM892 1816l-129 -156.5l-129 -156.5h-91l59 156.5l60 156.5h230z" />
<glyph unicode="&#xcd;" horiz-adv-x="625" d="M484 0h-363v43l12 24l12 25q42 36 61 97q12 52 12 151v780q0 45 -1.5 79.5t-5.5 61.5q-4 35 -20 70q-11 12 -22.5 21.5t-23.5 15.5h-24v43h387v-43l-12 -25l-12 -24q-42 -37 -61 -98q-12 -53 -12 -150v-780q0 -89 6 -141q6 -36 21 -71q23 -36 46 -61v-18zM540 1816 l-129 -156.5l-129 -156.5h-91l59 156.5l60 156.5h230z" />
<glyph unicode="&#xd3;" horiz-adv-x="1536" d="M775 1439q200 0 361 -105q54 -35 100 -80q70 -65 117 -152q97 -170 97 -394q0 -228 -100 -401q-49 -89 -119 -153q-49 -46 -102 -80q-164 -102 -363 -102q-209 0 -370 106q-53 34 -100 81q-69 65 -115 152q-96 172 -96 387q0 345 208 549q193 192 482 192zM766 1319 q-195 0 -324 -138q-142 -154 -142 -482q0 -267 116 -426q31 -41 64 -72q115 -111 285 -111q205 0 337 152q134 152 134 453q0 195 -55 333q-37 92 -97 158q-34 38 -77 66q-103 67 -241 67zM1001 1816l-129 -156.5l-129 -156.5h-91l59 156.5l60 156.5h230z" />
<glyph unicode="&#xda;" horiz-adv-x="1479" d="M1081 1392v19h304v-51l-12.5 -16.5l-12.5 -16.5q-20 -16 -35.5 -41t-26.5 -58q-10 -46 -10 -137v-503q0 -210 -46 -334q-5 -12 -11 -25q-42 -90 -132 -156l-24 -17.5t-26 -16.5q-118 -67 -309 -67q-212 0 -337 73q-122 73 -175 206q-44 114 -44 351v493q0 110 -17 180 q-18 53 -56 85h-25v51h390v-51h-26q-42 -33 -60 -92q-13 -48 -13 -140v-556q0 -68 6.5 -125.5t18.5 -105.5q26 -97 87 -149q41 -41 102.5 -65.5t146.5 -24.5q132 0 225 46q63 32 101 77q9 11 17 22.5t14 24.5q51 99 51 321v568q0 110 -14 177q-19 37 -58 54h7zM971 1816 l-129 -156.5l-129 -156.5h-91l59 156.5l60 156.5h230z" />
<glyph unicode="&#xe1;" horiz-adv-x="1024" d="M705 131q-78 -65 -144 -96q-63 -34 -114 -43l-22 -4l-22 -4q-12 -2 -23.5 -2h-22.5q-15 0 -29 1t-28 3q-91 11 -149 67q-69 67 -76 170q-1 6 -1 12v11v12t1 12q3 49 23 91t56 77.5t84 64.5q35 21 80 36q26 10 61 19.5l79 20.5q72 14 132 29t108 32v42q0 89 -31 135 q-11 19 -26 34t-33 25q-20 13 -44 20t-53 10q-10 1 -20 1.5t-20 0.5h-15q-72 -4 -115 -38q-25 -22 -33 -52l-6 -23t-5 -24q-5 -25 -15 -47.5t-23 -42.5q-5 0 -10.5 -0.5t-10.5 -0.5q-15 1 -30 1t-30 2l-27 4t-25 6q-14 22 -14 58q0 3 0.5 6t0.5 6q12 70 57 124 q8 10 16.5 18.5t18.5 16.5q97 83 275 91q8 0 15.5 0.5t15.5 0.5t15.5 -0.5t15.5 -0.5q95 -5 159 -28q11 -5 21 -10l20 -10q48 -26 78 -67q19 -22 30 -53.5t16 -74.5q3 -21 3 -50q2 -25 2 -53.5v-61.5v-224q0 -75 1.5 -126.5t3.5 -80.5q4 -26 10.5 -38.5t14.5 -18.5q9 0 14 4 q9 5 40 36q6 -44 23 -91q-104 -75 -201 -75q-32 14 -51 47t-21 93zM683 242q15 88 15 206v91q-107 -42 -231 -69l-25.5 -7t-21.5 -6q-62 -24 -94 -49q-73 -49 -73 -134q0 -82 61 -128q46 -39 117 -39q72 0 136.5 35t115.5 100zM757 1432l-129 -156.5l-129 -156.5h-91 l59 156.5l60 156.5h230z" />
<glyph unicode="&#xe6;" horiz-adv-x="1593" d="M851 526q0 -25 0.5 -45t1.5 -36q2 -60 11.5 -106t26.5 -78q8 -14 16 -26.5t19 -23.5q11 -12 23.5 -22.5t27.5 -20.5q67 -45 154 -45q111 0 188 72q51 48 90 150q28 -5 55 -11l55 -12q-47 -175 -176 -273q-101 -75 -243 -75q-138 0 -235 66q-47 32 -111 113 q-36 -35 -87 -71q-60 -45 -100 -61q-42 -19 -85.5 -30.5t-90.5 -14.5q-8 -1 -15 -1h-14q-10 0 -19.5 0.5t-19.5 1.5q-105 7 -173 74t-77 159q-1 7 -1.5 14t-0.5 15t0.5 14.5t1.5 14.5q5 69 43 127q41 61 125 104q18 9 39.5 17.5t47.5 16.5q66 24 144 43q117 30 204 57 q1 12 1 22.5v20.5q0 17 -1 32l-2 29q-7 78 -37 116q-23 30 -61 44t-91 14q-75 0 -125 -26q-50 -28 -63 -67q-8 -30 -14.5 -59t-13.5 -57q-22 -22 -60 -22h-5q-24 2 -46 6.5t-42 12.5q-7 21 -7 47q0 6 0.5 12.5t1.5 12.5q12 60 48 108q45 61 133 98.5t206 37.5q144 0 228 -43 q61 -31 91 -90q50 57 107 89q83 44 198 44q138 0 232 -71q12 -8 22.5 -17.5t21.5 -20.5q62 -62 91 -156q28 -80 30 -159q1 -13 1 -29v-36h-669zM1332 632q-4 71 -22.5 122.5t-49 85t-72 49.5t-92.5 16q-103 0 -172 -72q-67 -70 -73 -201h481zM638 179q16 26 26 58t13 72 q-1 11 -1 22.5v24.5v36t1 39q1 23 1 48v53q-89 -32 -252 -78q-59 -17 -97 -40q-17 -11 -29 -23q-50 -48 -50 -119q0 -75 50 -125q51 -49 134 -49h11t11 1q40 3 82 20q41 16 100 60z" />
<glyph unicode="&#xe9;" horiz-adv-x="1024" d="M239 528q4 -191 99 -294q79 -86 186 -98q19 -3 38 -3q32 0 64 8q72 11 125 60t90 147q27 -6 54 -11t54 -11q-29 -135 -120 -232q-114 -120 -301 -120q-199 0 -326 135q-127 136 -127 375q0 251 129 391q131 140 331 140q183 0 300 -124q100 -106 112 -286q2 -17 3.5 -36 t1.5 -41h-713zM753 631q-6 87 -29 136q-6 15 -14 27.5t-18 23.5q-36 43 -83 65t-101 22q-103 0 -179 -74q-75 -73 -85 -200h509zM764 1432l-129 -156.5l-129 -156.5h-91l59 156.5l60 156.5h230z" />
<glyph unicode="&#xed;" horiz-adv-x="569" d="M357 1002q5 -8 10.5 -14.5t10.5 -14.5v-663q0 -60 7 -87q6 -28 18 -51q13 -21 45 -36v-136h-312v106q33 15 45 36q5 11 9.5 23.5t8.5 27.5q3 15 5 36.5t2 50.5v280q0 48 -1.5 83t-3.5 58q-3 23 -10.5 36.5t-20.5 21.5q-15 14 -34 22q-2 42 -3.5 82.5t-3.5 82.5l114 28z M530 1432l-129 -156.5l-129 -156.5h-91l59 156.5l60 156.5h230z" />
<glyph unicode="&#xf3;" d="M539 1014q213 0 346 -151q123 -138 123 -353q0 -161 -61 -286q-30 -61 -73 -107.5t-98 -78.5q-110 -64 -243 -64q-215 0 -345 154q-120 141 -120 362q0 149 61 274q41 83 103 138q16 14 33 26t35 23q108 63 239 63zM523 907q-71 0 -133 -38q-38 -24 -69 -68 q-27 -40 -43.5 -95t-20.5 -126l-2 -32t-1 -32q0 -6 0.5 -11.5t0.5 -11.5q6 -177 83 -287q84 -123 217 -123q115 0 191 91q66 79 73 244q1 16 1.5 32t0.5 33v24q-8 193 -96 301q-80 99 -202 99zM779 1432l-129 -156.5l-129 -156.5h-91l59 156.5l60 156.5h230z" />
<glyph unicode="&#xfa;" d="M929 989v-585q0 -61 1 -106.5t3 -75.5q4 -32 12 -52.5t19 -34.5q16 -13 35 -19q2 -19 3.5 -37t3.5 -37l-95 -28l-95 -28h-50v175q-105 -132 -208 -165q-39 -13 -82 -18q-11 -2 -21.5 -3t-21.5 -1q-40 0 -76.5 10.5t-69.5 29.5q-54 29 -83.5 70.5t-43.5 98.5 q-16 60 -16 183v369q0 30 -2 55t-5 45q-7 39 -21 74q-14 21 -50 34v46h251v-563q0 -45 1.5 -78t3.5 -55q11 -107 70 -147q46 -33 110 -33q37 0 75 12.5t80 41.5q52 33 85 88q15 91 15 215v278q0 65 -15 104q-14 41 -59 66v71h246zM760 1432l-129 -156.5l-129 -156.5h-91 l59 156.5l60 156.5h230z" />
<glyph unicode="&#x104;" horiz-adv-x="1422" d="M1216 25q-14 -29 -22 -57.5t-10 -54.5q0 -3 -0.5 -6t-0.5 -6q0 -8 0.5 -14.5t1.5 -12.5q4 -62 45 -101q55 -53 132 -53q66 0 144 35q2 -20 5 -38t5 -38q-72 -38 -122 -53q-51 -15 -103 -15q-104 0 -164 57t-60 145q0 48 16 103t45 109h88zM998 351l-59 49l-59 49h-492 l-43.5 -109.5l-43.5 -108.5q-12 -29 -19 -53t-11 -43q-3 -17 -3 -32q0 -18 4 -33q15 -10 64 -15q-3 -14 -6.5 -27.5t-6.5 -27.5h-317l15 57q26 14 42.5 28t27.5 30q24 41 49 94t52 119l223 549l223 549h122l228.5 -552l228.5 -552q26 -63 50.5 -114t48.5 -90q31 -40 80 -61 q5 -14 8.5 -28.5t7.5 -28.5h-378l-14 46l-14 46q24 15 34 35.5t10 44.5q0 19 -4 36q-14 60 -48 143zM913 565l-76.5 192.5l-76.5 192.5q-28 69 -50 130l-41 114q-17 -59 -36.5 -116.5t-42.5 -115.5l-79 -198.5l-80 -198.5h482z" />
<glyph unicode="&#x105;" horiz-adv-x="1024" d="M850 32q-14 -29 -22 -57.5t-10 -54.5q0 -3 -0.5 -6t-0.5 -6q0 -8 0.5 -14.5t1.5 -12.5q4 -62 45 -101q55 -53 132 -53q66 0 144 35q2 -20 5 -38t5 -38q-72 -38 -122 -53q-51 -15 -103 -15q-104 0 -164 57t-60 145q0 48 16 103t45 109h88zM705 131q-78 -65 -144 -96 q-63 -34 -114 -43l-22 -4l-22 -4q-12 -2 -23.5 -2h-22.5q-15 0 -29 1t-28 3q-91 11 -149 67q-69 67 -76 170q-1 6 -1 12v11v12t1 12q3 49 23 91t56 77.5t84 64.5q35 21 80 36q26 10 61 19.5l79 20.5q72 14 132 29t108 32v42q0 89 -31 135q-11 19 -26 34t-33 25 q-20 13 -44 20t-53 10q-10 1 -20 1.5t-20 0.5h-15q-72 -4 -115 -38q-25 -22 -33 -52l-6 -23t-5 -24q-5 -25 -15 -47.5t-23 -42.5q-5 0 -10.5 -0.5t-10.5 -0.5q-15 1 -30 1t-30 2l-27 4t-25 6q-14 22 -14 58q0 3 0.5 6t0.5 6q12 70 57 124q8 10 16.5 18.5t18.5 16.5 q97 83 275 91q8 0 15.5 0.5t15.5 0.5t15.5 -0.5t15.5 -0.5q95 -5 159 -28q11 -5 21 -10l20 -10q48 -26 78 -67q19 -22 30 -53.5t16 -74.5q3 -21 3 -50q2 -25 2 -53.5v-61.5v-224q0 -75 1.5 -126.5t3.5 -80.5q4 -26 10.5 -38.5t14.5 -18.5q9 0 14 4q9 5 40 36q6 -44 23 -91 q-104 -75 -201 -75q-32 14 -51 47t-21 93zM683 242q15 88 15 206v91q-107 -42 -231 -69l-25.5 -7t-21.5 -6q-62 -24 -94 -49q-73 -49 -73 -134q0 -82 61 -128q46 -39 117 -39q72 0 136.5 35t115.5 100z" />
<glyph unicode="&#x10c;" horiz-adv-x="1422" d="M1072 1811l-103.5 -152.5l-103.5 -152.5h-188l-101.5 152.5l-101.5 152.5h118l97 -95.5l96 -95.5l85 95.5l85 95.5h117zM1181 1383l26.5 -15.5l25.5 -15.5q28 -84 49.5 -172.5t35.5 -184.5l-55.5 -11.5l-55.5 -11.5q-28 92 -68.5 158t-93.5 108t-118 62t-142 20 q-11 0 -22 -1t-22 -3q-99 -8 -179 -49q-40 -19 -70 -45q-49 -41 -85 -94.5t-59 -122.5q-46 -135 -46 -305q0 -163 43 -288l16 -40.5t19 -37.5q44 -83 116 -137q38 -29 75 -47q82 -40 172 -47q11 -1 23 -1.5t23 -0.5q27 0 54 3q117 11 203 70q53 38 100 100.5t88 151.5 l56 -17.5l56 -17.5q-74 -198 -209 -302q-153 -117 -375 -117q-232 0 -384 103q-48 32 -88 73.5t-73 93.5q-13 20 -24.5 39.5t-22.5 41.5q-82 170 -82 377q0 218 89 386q90 171 249 261q163 92 353 92q156 0 290 -68l38.5 -19.5l31.5 -15.5q14 0 23 9q13 13 19 38z" />
<glyph unicode="&#x10d;" horiz-adv-x="966" d="M824 1429l-103.5 -152.5l-103.5 -152.5h-188l-101.5 152.5l-101.5 152.5h118l97 -95.5l96 -95.5l85 95.5l85 95.5h117zM820 375q26 -5 51.5 -9t51.5 -9q-33 -182 -147 -283q-112 -100 -266 -100q-187 0 -311 136t-124 382q0 157 57 276q27 58 71 106q36 39 78 65 q114 75 254 75q168 0 268 -92q85 -76 99 -186q-15 -21 -41.5 -35t-63.5 -16q-3 0 -6 -0.5t-6 -0.5q-37 0 -62 15q-9 27 -20 54t-24 55q-14 43 -44 67q-46 32 -113 32q-117 0 -191 -86q-5 -6 -9 -12.5t-8 -14.5q-56 -80 -63 -208q-1 -11 -1.5 -23t-0.5 -24q0 -192 80 -302 q71 -95 184 -107q8 -2 16.5 -2h16.5q19 0 39 3q87 11 150 75q53 57 85 169z" />
<glyph unicode="&#x12e;" horiz-adv-x="625" d="M314 20q-14 -29 -22 -57.5t-10 -54.5q0 -3 -0.5 -6t-0.5 -6q0 -8 0.5 -14.5t1.5 -12.5q4 -62 45 -101q55 -53 132 -53q66 0 144 35q2 -20 5 -38t5 -38q-72 -38 -122 -53q-51 -15 -103 -15q-104 0 -164 57t-60 145q0 48 16 103t45 109h88zM484 0h-363v43l12 24l12 25 q42 36 61 97q12 52 12 151v780q0 45 -1.5 79.5t-5.5 61.5q-4 35 -20 70q-11 12 -22.5 21.5t-23.5 15.5h-24v43h387v-43l-12 -25l-12 -24q-42 -37 -61 -98q-12 -53 -12 -150v-780q0 -89 6 -141q6 -36 21 -71q23 -36 46 -61v-18z" />
<glyph unicode="&#x12f;" horiz-adv-x="512" d="M314 20q-14 -29 -22 -57.5t-10 -54.5q0 -3 -0.5 -6t-0.5 -6q0 -8 0.5 -14.5t1.5 -12.5q4 -62 45 -101q55 -53 132 -53q66 0 144 35q2 -20 5 -38t5 -38q-72 -38 -122 -53q-51 -15 -103 -15q-104 0 -164 57t-60 145q0 48 16 103t45 109h88zM306 1444q21 -26 36 -66.5 t15 -87.5q-23 -21 -60 -36t-81 -15q-21 26 -36 66.5t-15 87.5q23 21 60 36t81 15zM326 1002q5 -8 10.5 -15l11.5 -15v-656q0 -60 6 -88q6 -29 18 -52q14 -22 45 -37v-139h-312v109q33 15 45 37q10 21 18 51q3 15 5 37t2 51v283q0 49 -1.5 84.5t-3.5 57.5q-3 24 -10.5 37.5 t-20.5 21.5q-16 16 -34 23q-2 38 -3.5 77t-3.5 77l114 28z" />
<glyph unicode="&#x131;" horiz-adv-x="569" d="M357 1002q5 -8 10.5 -14.5t10.5 -14.5v-663q0 -60 7 -87q6 -28 18 -51q13 -21 45 -36v-136h-312v106q33 15 45 36q5 11 9.5 23.5t8.5 27.5q3 15 5 36.5t2 50.5v280q0 48 -1.5 83t-3.5 58q-3 23 -10.5 36.5t-20.5 21.5q-15 14 -34 22q-2 42 -3.5 82.5t-3.5 82.5l114 28z " />
<glyph unicode="&#x147;" horiz-adv-x="1479" d="M1038 1814l-103.5 -152.5l-103.5 -152.5h-188l-101.5 152.5l-101.5 152.5h118l97 -95.5l96 -95.5l85 95.5l85 95.5h117zM64 1392q8 5 16.5 9.5t16.5 9.5h251l399.5 -542.5l399.5 -541.5v833q0 54 -3 95.5t-11 71.5q-18 21 -58 21l-12 22l-12 22v19h329v-19l-12 -21.5 l-12 -21.5q-43 -22 -61 -69q-5 -30 -8 -69.5t-3 -89.5v-1132h-117l-416.5 561l-415.5 561v-817q0 -108 13 -166q19 -43 59 -65l24 -45v-18h-298q-8 5 -15.5 9t-15.5 9l11.5 21.5l11.5 21.5q44 23 62 70q11 61 11 159v859q-15 39 -26 71.5t-19 60.5q-15 32 -45 64 q-14 26 -44 47z" />
<glyph unicode="&#x148;" d="M835 1429l-103.5 -152.5l-103.5 -152.5h-188l-101.5 152.5l-101.5 152.5h118l97 -95.5l96 -95.5l85 95.5l85 95.5h117zM314 830q125 168 298 182q7 1 14 1.5t14 0.5q5 0 10 -0.5t10 -0.5q80 -3 139 -44q61 -36 93 -98q27 -46 38 -120q4 -21 5 -52.5t1 -73.5v-371 q0 -35 2 -62t5 -47q6 -39 18 -70q12 -20 45 -32v-43h-316v43h9q32 19 45 47t18 66q1 16 1.5 40t0.5 56v362v13t-1 12q-1 31 -4 56t-8 45q-16 67 -59 101t-110 34q-116 0 -218 -102q-41 -90 -41 -242v-259q0 -35 1.5 -61.5t3.5 -43.5q4 -20 8.5 -37.5t10.5 -32.5 q13 -19 50 -31v-66h-316v43h10q35 26 47 68q12 57 12 144v296q0 61 -1 104.5t-3 72.5q-3 31 -10.5 49.5t-21.5 31.5q-13 25 -33 43l-4 47.5l-4 46.5l99 28l100 28h42v-172z" />
<glyph unicode="&#x14a;" horiz-adv-x="1459" d="M392 1187q98 130 204 191l19.5 6t19.5 5q70 36 158 45q28 3 59 3h16t16 -1q130 -8 223 -69q61 -41 111 -105q23 -29 41.5 -62t35.5 -70q58 -136 62 -342q0 -11 0.5 -21t0.5 -20q0 -11 -0.5 -21t-0.5 -21q-3 -177 -41 -323q-36 -141 -106 -235q-17 -23 -36.5 -43.5 t-40.5 -37.5q-98 -83 -207 -91q-5 -1 -10.5 -1h-10.5q-29 0 -56 6q-51 7 -98 30q-62 39 -92 95q11 41 35.5 76t56.5 55q91 -27 141 -95q8 -29 17 -34q5 -1 11 -1.5t11 -0.5q26 0 50 10q66 14 104 101q32 64 51 179.5t19 287.5v13q0 312 -90 462q-80 137 -237 147h-20 q-21 0 -42 -2.5t-42 -8.5q-39 -8 -73 -22q-63 -24 -121 -75t-103 -124q-5 -17 -9 -35t-7 -36q-9 -55 -14 -124t-5 -152v-406q0 -44 1.5 -80t3.5 -64q5 -35 23.5 -66.5t44.5 -51.5q6 -10 12.5 -19.5t12.5 -20.5v-18h-389v18q6 11 12 20.5t12 20.5q24 0 42 9q18 30 24 65 q4 28 5.5 65t1.5 85v849q0 109 -16 167q-17 41 -57 60q-6 11 -12 20.5t-12 20.5v19h291v-232z" />
<glyph unicode="&#x14b;" horiz-adv-x="1076" d="M938 52q0 -30 -0.5 -59.5t-1.5 -58.5q-8 -165 -65 -253q-66 -102 -210 -114q-7 -1 -13.5 -1h-13.5q-20 0 -40 1.5t-40 5.5q-35 17 -54 47.5t-19 64.5q0 10 1 15q13 13 35 24.5t48 11.5q24 0 57 -30q27 -24 43 -24q58 0 79 47q22 45 22 197v688q0 125 -34 186.5t-112 70.5 q-8 1 -15 1.5t-15 0.5q-9 0 -18.5 -0.5t-18.5 -1.5q-102 -12 -188 -99q-40 -156 -40 -379q0 -52 11 -68q11 -17 53 -17h10v-18l-113 -145.5l-113 -144.5l-90 18q2 9 4.5 18t5.5 18q33 33 47 88q12 52 12 138v347q0 141 -6 216q-6 22 -30 22q-14 0 -33 -8l-4 45l-4 44l96 28 l96 28h49v-172q106 145 263 169q40 10 83 10q9 0 18 -0.5t18 -1.5q59 -6 107 -35q41 -24 68 -60t41 -83q24 -77 24 -204v-573z" />
<glyph unicode="&#x160;" horiz-adv-x="1252" d="M907 1811l-103.5 -152.5l-103.5 -152.5h-188l-101.5 152.5l-101.5 152.5h118l97 -95.5l96 -95.5l85 95.5l85 95.5h117zM926 1412q23 -8 43 -17t38 -21q33 -88 50.5 -185.5t19.5 -203.5q-28 -2 -56 -3.5t-56 -3.5q-14 110 -52 176q-49 84 -142 124q-32 14 -67 22t-74 11 q-10 1 -19 1h-18h-18t-17 -1q-110 -6 -173 -62q-74 -65 -74 -150q0 -14 5 -29q6 -37 23 -63q11 -21 34 -42q67 -61 281 -140q12 -2 23 -5t22 -5q80 -31 137.5 -56.5t93.5 -46.5q15 -8 29 -16.5t26 -16.5q79 -57 119 -133t40 -166q0 -8 -0.5 -15t-1.5 -14q-6 -88 -53 -167 q-30 -49 -80 -94q-47 -41 -108 -70q-107 -48 -242 -48q-69 0 -130 9q-67 9 -157 42q-115 45 -167 103q-12 0 -19.5 -7.5t-10.5 -30.5h-19v66q-37 140 -40 298l55.5 4l54.5 4q19 -127 65 -200q46 -71 141 -117q96 -45 212 -45h6q130 0 213 60q48 33 73 76t25 93v6 q0 60 -33.5 111t-108.5 91q-50 25 -237 99q-171 63 -249 111q-14 8 -26 16.5l-23 16.5q-146 111 -146 280q0 110 63 202q19 27 42 50q26 27 57 48t67 37q98 43 222 43q8 0 16.5 -0.5t16.5 -0.5q52 -2 101 -12.5t97 -27.5q22 -9 40 -14.5l32 -9.5q13 0 21 8t13 31z" />
<glyph unicode="&#x161;" horiz-adv-x="910" d="M750 1429l-103.5 -152.5l-103.5 -152.5h-188l-101.5 152.5l-101.5 152.5h118l97 -95.5l96 -95.5l85 95.5l85 95.5h117zM663 996q57 -18 86 -49v-52q11 -42 19 -88t12 -98l-52 -6l-52 -6q-26 116 -84 164q-53 44 -135 48q-7 0 -13 0.5t-13 0.5q-6 0 -12.5 -0.5t-12.5 -0.5 q-73 -3 -116 -37q-48 -39 -48 -89q0 -46 27 -80q24 -29 70 -52q19 -11 69 -28q13 -5 27 -9.5l30 -9.5l62 -23.5l59 -22.5q71 -26 116 -54q64 -37 98.5 -92.5t34.5 -130.5q0 -82 -44 -152q-26 -42 -68 -74q-52 -40 -116.5 -60.5t-138.5 -20.5q-115 0 -220 38q-29 11 -51 17 q-15 5 -25 5q-5 0 -13 -2l-17 8.5t-17 9.5q-16 61 -26 127t-16 138q26 3 53 6.5t53 7.5q11 -58 32 -103t54 -76q75 -73 193 -73q82 0 131 34q9 6 16 12.5t13 13.5q29 32 37 72q1 7 1.5 13.5t0.5 13.5v8.5t-1 8.5q-6 51 -49 84q-33 25 -138 63l-60 22.5l-60 23.5 q-72 26 -118 51q-35 19 -60 41.5t-42 46.5q-43 61 -43 144q0 57 20.5 105.5t58.5 87.5q16 16 37 31q34 25 81.5 40t104.5 19q9 1 18 1h18h16q51 -3 105 -15l44.5 -10t30.5 -4q17 0 33 12z" />
<glyph unicode="&#x172;" horiz-adv-x="1479" d="M800 -17q-14 -29 -22 -57.5t-10 -54.5q0 -3 -0.5 -6t-0.5 -6q0 -8 0.5 -14.5t1.5 -12.5q4 -62 45 -101q55 -53 132 -53q66 0 144 35q2 -20 5 -38t5 -38q-72 -38 -122 -53q-51 -15 -103 -15q-104 0 -164 57t-60 145q0 48 16 103t45 109h88zM1081 1392v19h304v-51 l-12.5 -16.5l-12.5 -16.5q-20 -16 -35.5 -41t-26.5 -58q-10 -46 -10 -137v-503q0 -210 -46 -334q-5 -12 -11 -25q-42 -90 -132 -156l-24 -17.5t-26 -16.5q-118 -67 -309 -67q-212 0 -337 73q-122 73 -175 206q-44 114 -44 351v493q0 110 -17 180q-18 53 -56 85h-25v51h390 v-51h-26q-42 -33 -60 -92q-13 -48 -13 -140v-556q0 -68 6.5 -125.5t18.5 -105.5q26 -97 87 -149q41 -41 102.5 -65.5t146.5 -24.5q132 0 225 46q63 32 101 77q9 11 17 22.5t14 24.5q51 99 51 321v568q0 110 -14 177q-19 37 -58 54h7z" />
<glyph unicode="&#x173;" d="M894 41q-14 -29 -22 -57.5t-10 -54.5q0 -3 -0.5 -6t-0.5 -6q0 -8 0.5 -14.5t1.5 -12.5q4 -62 45 -101q55 -53 132 -53q66 0 144 35q2 -20 5 -38t5 -38q-72 -38 -122 -53q-51 -15 -103 -15q-104 0 -164 57t-60 145q0 48 16 103t45 109h88zM929 989v-585q0 -61 1 -106.5 t3 -75.5q4 -32 12 -52.5t19 -34.5q16 -13 35 -19q2 -19 3.5 -37t3.5 -37l-95 -28l-95 -28h-50v175q-105 -132 -208 -165q-39 -13 -82 -18q-11 -2 -21.5 -3t-21.5 -1q-40 0 -76.5 10.5t-69.5 29.5q-54 29 -83.5 70.5t-43.5 98.5q-16 60 -16 183v369q0 30 -2 55t-5 45 q-7 39 -21 74q-14 21 -50 34v46h251v-563q0 -45 1.5 -78t3.5 -55q11 -107 70 -147q46 -33 110 -33q37 0 75 12.5t80 41.5q52 33 85 88q15 91 15 215v278q0 65 -15 104q-14 41 -59 66v71h246z" />
<glyph unicode="&#x17d;" horiz-adv-x="1251" d="M936 1811l-103.5 -152.5l-103.5 -152.5h-188l-101.5 152.5l-101.5 152.5h118l97 -95.5l96 -95.5l85 95.5l85 95.5h117zM1177 1411l-25 -79l-25 -79l-378.5 -501.5l-379.5 -501.5l-46.5 -61.5l-47.5 -61.5h590q52 0 96 7t80 21q36 30 61 114q24 -1 47.5 -1.5t47.5 -1.5 l-16 -133l-16 -133h-1132v108l714 951l88 115.5l85 109.5h-463q-94 0 -160 -12q-24 -12 -37 -34q-13 -24 -23 -83h-101q4 64 7.5 127.5t6.5 128.5h1027z" />
<glyph unicode="&#x17e;" horiz-adv-x="966" d="M804 1429l-103.5 -152.5l-103.5 -152.5h-188l-101.5 152.5l-101.5 152.5h118l97 -95.5l96 -95.5l85 95.5l85 95.5h117zM903 218l8 -19.5t9 -19.5q-2 -45 -3 -89.5t-3 -89.5h-874v91l321 396l321 397q-108 -3 -201 -3h-94q-46 0 -83.5 -1.5t-66.5 -5.5q-34 -6 -67 -23 q-13 -24 -16 -62h-63q1 51 1.5 100t1.5 100h818v-78l-266.5 -331l-266.5 -331l-22 -27l-36.5 -44.5l-36.5 -44.5l-22 -27q62 2 121 3.5t118 1.5h90q51 0 93.5 2t76.5 6q22 5 41.5 12.5t37.5 18.5q34 17 63 68z" />
<glyph unicode="&#x1dd;" horiz-adv-x="1024" d="M787 460q-5 190 -99 294q-79 86 -186 98q-20 3 -38 3q-32 0 -64 -8q-72 -11 -125 -60t-90 -147q-27 6 -54 11t-54 11q29 135 120 232q114 120 301 120q198 0 326 -135q127 -136 127 -375q0 -252 -129 -391q-131 -140 -331 -140q-183 0 -300 124q-100 106 -112 286 q-2 17 -3.5 36t-1.5 41h713zM273 357q6 -87 29 -136q6 -15 14 -27.5t18 -23.5q36 -43 83 -65t101 -22q103 0 179 74q75 73 85 200h-509z" />
<glyph unicode="&#x1e6;" horiz-adv-x="1536" d="M1081 1807l-103.5 -152.5l-103.5 -152.5h-188l-101.5 152.5l-101.5 152.5h118l97 -95.5l96 -95.5l85 95.5l85 95.5h117zM1175 1413l29.5 -9.5t28.5 -9.5q51 -81 82.5 -176t51.5 -211l-105 -24q-36 116 -89 186q-23 30 -50 52q-57 49 -132 74.5t-165 25.5q-138 0 -236 -49 t-162 -137q-22 -29 -39 -60t-31 -64q-53 -135 -53 -292q0 -194 71 -341q71 -146 197 -216q124 -69 262 -69q117 0 230 46q78 32 124 68v332q-43 51 -94 67q-31 15 -68 24q-29 4 -64.5 6t-78.5 2v105q144 0 286.5 0.5t286.5 0.5v-65h-12q-40 0 -54 -26q-5 -20 -7.5 -49.5 t-2.5 -68.5v-389q-139 -95 -283 -139q-123 -35 -258 -35q-233 0 -405 95q-117 62 -198 169q-14 18 -26 36.5t-23 37.5q-98 172 -98 381q0 195 88 371q51 101 122.5 175t164.5 123q151 79 351 79q9 0 18 -0.5t17 -1.5q22 -1 43 -2.5t41 -4.5q40 -6 84 -18.5t94 -31.5 q26 -10 37 -10q10 0 16.5 8.5t8.5 34.5z" />
<glyph unicode="&#x1e7;" d="M825 1437l-103.5 -152.5l-103.5 -152.5h-188l-101.5 152.5l-101.5 152.5h118l97 -95.5l96 -95.5l85 95.5l85 95.5h117zM933 1002v-1132q0 -72 6 -111q-11 -5 -20 -8.5t-18 -7.5q-3 -7 -6.5 -13l-7.5 -13q-26 -42 -68 -74q-52 -40 -116.5 -60.5t-138.5 -20.5 q-115 0 -220 38q-29 11 -51 17q-15 5 -25 5q-5 0 -13 -2l-17 8.5t-17 9.5q-16 61 -26 127t-16 138q26 3 53 6.5t53 7.5q11 -58 32 -103t54 -76q75 -73 193 -73q82 0 131 34q9 6 16 12.5t13 13.5q29 32 37 72v12v327q-36 -49 -88 -81q-33 -24 -65.5 -39.5t-65.5 -21.5 q-44 -12 -87 -12q-131 0 -238 101q-30 28 -54 63q-93 129 -93 333q0 159 58 279q32 68 81 119q15 17 31.5 30.5t34.5 26.5q113 80 254 80q157 0 251 -115l28 51l27 52h98zM728 221q42 120 42 292q0 39 -2 76t-5 72q-8 72 -31 119q-14 29 -36 49q-35 38 -79 58.5t-95 20.5 q-114 0 -195 -97q-81 -98 -81 -299q0 -195 84 -295q84 -99 201 -99q59 0 106.5 24.5t90.5 78.5z" />
<glyph unicode="&#x1f0;" horiz-adv-x="512" d="M326 1002q5 -8 11 -15.5t11 -15.5v-928q0 -27 -0.5 -53.5t-1.5 -52.5q-9 -183 -74 -266q-82 -107 -238 -107q-41 0 -75 6t-62 20q-9 33 -9 67q0 11 1 21.5t3 21.5q14 14 36.5 25t46.5 11q15 0 26 -7q10 -3 33 -25q28 -12 50 -12q18 0 32 9q12 0 23 9q15 14 25 49 q10 41 11 125v73v605q0 61 -1 108t-3 82q-4 32 -11 53.5t-21 37.5t-34 23q-2 20 -3.5 40t-3.5 40l114 28zM564 1437l-103.5 -152.5l-103.5 -152.5h-188l-101.5 152.5l-101.5 152.5h118l97 -95.5l96 -95.5l85 95.5l85 95.5h117z" />
<glyph unicode="&#x21e;" horiz-adv-x="1479" d="M1043 1762l-103.5 -152.5l-103.5 -152.5h-188l-101.5 152.5l-101.5 152.5h118l97 -95.5l96 -95.5l85 95.5l85 95.5h117zM387 795h698v333q0 87 -6 138q-6 34 -21 68q-23 12 -46 12l-12 23l-12 23v19h387v-42h-24q-23 -23 -45 -59q-16 -32 -22 -72q-6 -51 -6 -137v-792 q0 -44 1.5 -78.5t5.5 -60.5q4 -34 20 -69q22 -35 46 -59h24v-42h-387v18l12 23.5l12 22.5q42 34 61 94q12 49 12 146v368h-696v-368q0 -43 1.5 -77t5.5 -60q4 -35 21 -68q22 -23 45 -35l12.5 -22.5t12.5 -23.5v-18h-388v42l24 24q43 35 61 95q12 51 12 148v792q0 88 -6 139 q-3 19 -8 35.5t-13 33.5q-11 18 -22.5 33t-23.5 27h-24v42h388v-65q-6 -12 -12.5 -23.5l-12.5 -22.5q-25 -25 -45 -58q-16 -31 -32 -71l3 -83z" />
<glyph unicode="&#x21f;" d="M588 1815l-103.5 -152.5l-103.5 -152.5h-188l-101.5 152.5l-101.5 152.5h118l97 -95.5l96 -95.5l85 95.5l85 95.5h117zM301 1444q10 -15 23 -29v-569q96 108 186 143q60 25 126 25h14.5t13.5 -1q88 -4 152 -53q64 -45 93 -122q28 -72 28 -236v-331q0 -35 2 -64t5 -51 q5 -26 17 -47t44 -35v-74h-315v46h11q32 14 44.5 37.5t17.5 56.5q1 18 1 44v59v303v51.5t-1 48.5q-1 48 -8 83.5t-20 59.5q-18 39 -50.5 60t-77.5 25q-5 0 -10.5 0.5t-11.5 0.5q-8 0 -15.5 -0.5t-15.5 -1.5q-14 -2 -26.5 -5t-25.5 -7q-26 -9 -54.5 -26.5t-58.5 -44.5 q-35 -47 -50 -108t-15 -150v-254q0 -38 1 -67.5t4 -49.5q2 -20 7 -39.5t12 -38.5q8 -11 20 -20t30 -16v-47h-317v47q31 0 48 10q5 17 9 36t7 41q6 43 6 116v766q0 62 -1 107.5t-3 77.5q-4 32 -11.5 53.5t-20.5 35.5q-10 14 -34 22q-2 19 -3.5 37.5t-3.5 38.5l113.5 28z" />
<glyph unicode="&#x2bc;" horiz-adv-x="380" d="M147 875l-25.5 142.5l-24.5 142.5q-12 91 -12 144q0 48 13 77.5t36 44.5q48 0 88 -14.5t66 -38.5v-31q0 -32 -3 -77.5t-10 -105.5q-2 -8 -3 -16.5t-3 -17.5l-22.5 -125l-22.5 -125h-77z" />
<glyph unicode="&#x2013;" horiz-adv-x="1024" d="M74 412v166h877v-166h-877z" />
<glyph unicode="&#x2014;" horiz-adv-x="2048" d="M74 412v166h1901v-166h-1901z" />
<glyph unicode="&#x2018;" horiz-adv-x="682" d="M366 1119l-131.5 156.5l-131.5 156.5h232l60.5 -156.5l60.5 -156.5h-90v0z" />
<glyph unicode="&#x2019;" horiz-adv-x="380" d="M147 875l-25.5 142.5l-24.5 142.5q-12 91 -12 144q0 48 13 77.5t36 44.5q48 0 88 -14.5t66 -38.5v-31q0 -32 -3 -77.5t-10 -105.5q-2 -8 -3 -16.5t-3 -17.5l-22.5 -125l-22.5 -125h-77z" />
<glyph unicode="&#x201c;" horiz-adv-x="781" d="M525 875l-51 285q-5 52 -8.5 102t-3.5 104q13 32 39.5 46t62.5 14q34 0 61 -14.5t40 -38.5v-60q0 -45 -4.5 -88l-9.5 -92l-48 -258h-78zM177 875q-2 10 -7.5 44l-12.5 80l-15 97l-14.5 95t-10.5 75.5t-4 38.5q0 48 13 77t36 44q48 0 88 -14.5t66 -39.5v-30 q0 -10 -4 -44.5t-10 -81.5t-13.5 -100.5l-14.5 -102t-13 -86t-8 -52.5h-76z" />
<glyph unicode="&#x201d;" horiz-adv-x="781" d="M525 875l-51 285q-5 52 -8.5 102t-3.5 104q13 32 39.5 46t62.5 14q34 0 61 -14.5t40 -38.5v-60q0 -45 -4.5 -88l-9.5 -92l-48 -258h-78zM177 875q-2 10 -7.5 44l-12.5 80l-15 97l-14.5 95t-10.5 75.5t-4 38.5q0 48 13 77t36 44q48 0 88 -14.5t66 -39.5v-30 q0 -10 -4 -44.5t-10 -81.5t-13.5 -100.5l-14.5 -102t-13 -86t-8 -52.5h-76z" />
<glyph unicode="&#x2026;" horiz-adv-x="1620" d="M1403 199q22 -7 40 -33q16 -35 16 -74q0 -24 -4.5 -47t-12.5 -43q-20 -7 -43 -11.5t-47 -4.5q-25 0 -47.5 4.5t-42.5 11.5q-8 20 -12.5 43t-4.5 47q0 48 16 91q34 8 69.5 12t72.5 4zM863 199q22 -7 40 -33q16 -35 16 -74q0 -24 -4.5 -47t-12.5 -43q-20 -7 -43 -11.5 t-47 -4.5q-25 0 -47.5 4.5t-42.5 11.5q-8 20 -12.5 43t-4.5 47q0 48 16 91q34 8 69.5 12t72.5 4zM323 199q22 -7 40 -33q16 -35 16 -74q0 -24 -4.5 -47t-12.5 -43q-20 -7 -43 -11.5t-47 -4.5q-25 0 -47.5 4.5t-42.5 11.5q-8 20 -12.5 43t-4.5 47q0 48 16 91q34 8 69.5 12 t72.5 4z" />
</font>
</defs>
</svg>
