<?xml version="1.0" standalone="no"?>
<!DOCTYPE svg PUBLIC "-//W3C//DTD SVG 1.1//EN" "http://www.w3.org/Graphics/SVG/1.1/DTD/svg11.dtd" >
<svg xmlns="http://www.w3.org/2000/svg">
<metadata>
This is a custom SVG webfont generated by Font Squirrel.
Designer    : Mark Williamson
Foundry     : Mark Williamson Lakota Language Consortium
Foundry URL : httpwwwlakhotaorg
</metadata>
<defs>
<font id="webfonthXrUWDYy" horiz-adv-x="1081" >
<font-face units-per-em="2048" ascent="1638" descent="-410" />
<missing-glyph horiz-adv-x="540" />
<glyph unicode=" "  horiz-adv-x="540" />
<glyph unicode="&#x09;" horiz-adv-x="540" />
<glyph unicode="&#xa0;" horiz-adv-x="540" />
<glyph unicode="!" horiz-adv-x="625" d="M369 232q20 -6 33.5 -20t21.5 -31.5t11 -38t3 -40.5q0 -40 -9 -63.5t-25.5 -35t-41 -14.5t-56.5 -3q-41 0 -64.5 9.5t-35 26.5t-14.5 41t-3 54q0 44 13 67.5t35 34.5t49.5 12.5t56.5 1.5h21zM440 1141l-24.5 -278.5l-24.5 -276.5l-11 -117l-11 -118h-109l-6.5 76.5 l-10 122.5l-12 152.5l-13 166.5t-12 163.5t-10.5 144.5t-7.5 110t-2.5 59q32 38 81.5 59t105.5 21q30 -17 49.5 -53t19.5 -92v-25v-55t-2 -59v-1z" />
<glyph unicode="&#x22;" horiz-adv-x="781" d="M166 851q-2 11 -7.5 45.5l-13 81t-15 98.5l-14 97l-11 77t-4.5 39q0 53 16 85.5t45 51.5q54 0 99.5 -17t75.5 -46v-38q0 -12 -5 -52.5t-12.5 -94.5l-15.5 -112.5l-15 -106.5q-2 -16 -4.5 -32.5t-4.5 -31.5l-3.5 -26.5t-2.5 -17.5h-108zM505 851l-53 294q-5 51 -8 100.5 t-3 106.5q15 40 45.5 57t72.5 17q38 0 70 -18t48 -48v-63q0 -40 -3 -76.5t-8 -77.5l-3 -24l-49 -268h-109z" />
<glyph unicode="#" d="M431 858l-16 -77l-15.5 -74l-15.5 -74.5l-16 -78.5h277l12 56l11 55l11 49.5l9.5 46.5l9.5 46.5l11 50.5h-278zM96 -25l26 122.5l25 122.5q9 42 18 89t19 94h-161v151h191l12 56.5t11 56.5l19 94.5l19 96.5h-252v151h284l43 215l44 215h154l-42.5 -215l-44.5 -215h276 l29.5 140l29.5 140l15 75.5t16 74.5h155l-23 -111.5t-23 -110.5l-20.5 -102.5l-21.5 -105.5h162v-151h-192l-13.5 -62.5t-12.5 -62.5q-4 -18 -8.5 -40.5t-10 -46.5t-10 -47.5l-8.5 -44.5h255v-151h-286q-11 -48 -20 -95.5l-18 -95.5l-24 -119l-25 -118h-154l25.5 122 l24.5 121l9.5 48t8.5 44t8.5 44.5t10.5 48.5h-277l-19.5 -92.5t-18.5 -91.5l-25.5 -122l-25.5 -122h-154z" />
<glyph unicode="$" d="M468 1297q-42 -8 -73 -26t-54 -45q-40 -49 -40 -119q0 -66 34 -118q37 -60 133 -107v415zM589 120q52 9 86 33q16 10 28.5 21.5t23.5 23.5q56 65 56 157q0 74 -40 126q-36 50 -154 112v-473zM119 122q-17 60 -25.5 129t-11.5 145q14 3 33.5 6l40 6t40 5.5t33.5 4.5 q18 -161 85 -222q32 -32 69 -51.5t85 -25.5v526q-51 21 -100 47.5t-94 55.5q-45 30 -79 66.5t-54 78.5l1 -1q-44 77 -44 177q0 68 22.5 127.5t64.5 110.5q12 14 26 27t30 26q43 32 99.5 53.5t127.5 30.5v88h121v-87q55 -5 101 -18q31 -9 76 -27t100 -47q32 -64 50 -140.5 t25 -167.5q-13 -1 -33 -3.5t-40.5 -5.5t-40 -5.5t-33.5 -4.5q-17 143 -70 202q-46 52 -135 70v-465q63 -29 107 -53t72 -44h-1q103 -57 153 -130v1q67 -91 67 -229q0 -8 -0.5 -18.5t-1.5 -19.5q-9 -135 -111 -238h1q-54 -57 -123 -88.5t-163 -38.5v-153h-121v152 q-51 5 -97 14.5t-83 23.5q-83 30 -164 100z" />
<glyph unicode="%" horiz-adv-x="1763" d="M1351 591q-39 0 -65 -32q-10 -9 -21 -26v1q-34 -63 -34 -210q0 -148 41 -206l-1 1q3 -4 7.5 -8l11.5 -10q26 -28 60 -28q44 0 80 47q19 29 30 83.5t11 130.5q0 69 -9.5 119.5t-26.5 81.5q-6 12 -20 26v-1q-27 31 -64 31zM409 1312q-46 0 -83 -49v1q-37 -54 -37 -216 q0 -60 6.5 -104t18.5 -76q5 -15 11 -26q14 -23 31 -36q11 -7 24.5 -11.5t27.5 -4.5q48 0 81 48q-2 -2 0 2l4 7q36 62 36 205q0 79 -11 133t-31 83q-29 44 -78 44zM1406 1439l-111 -186.5l-114.5 -192l-114.5 -192l-111 -185.5l-220 -367l-221 -370h-160l312.5 523.5 l313.5 523.5l134 222.5l134 223.5h158zM1348 717q44 0 86 -13.5t80 -40.5v1q15 -9 27.5 -20t25.5 -25v1q48 -51 72 -124t24 -165q0 -182 -91 -284q-47 -50 -102 -75.5t-120 -25.5q-91 0 -166 54l1 -1q-13 8 -26.5 19.5t-24.5 25.5q-45 51 -70 125t-25 168q0 113 42 203 q8 17 18 33t19 29q44 56 102.5 85.5t127.5 29.5zM408 1439q142 0 229 -111q84 -108 84 -277q0 -183 -90 -283q-90 -102 -223 -102q-93 0 -166 52q-14 10 -24.5 19.5t-21.5 20.5q-18 20 -34 44.5t-28 53.5q-37 89 -37 201q0 56 10.5 107t32.5 97l17 30.5t20 31.5 q44 59 103 87.5t128 28.5z" />
<glyph unicode="&#x26;" horiz-adv-x="1479" d="M608 972l17.5 -29.5t19.5 -29.5q111 61 153 128q31 51 31 107q0 65 -39 104q-40 40 -98 40q-68 0 -108 -46q-40 -43 -40 -100q0 -38 15 -82q6 -16 15 -33l21 -38l6.5 -10.5zM702 193q29 17 56 38.5t53 49.5l-89.5 118.5l-69.5 96.5l-62 87.5l-65 97.5q-113 -69 -161 -137 q-50 -70 -50 -148q0 -90 64 -170q59 -78 172 -78q28 0 54 5.5t52 15.5v-1l23 11t23 14zM1022 779q2 1 3 2t3 2l10.5 5.5t11.5 5.5q52 -3 105 -5.5t104 -5.5q9 0 21 -1t24.5 -1.5t24 -1.5t19.5 -1l-3.5 -22l-3.5 -22q-1 -5 -1.5 -12.5t-5.5 -26.5q-24 -3 -41 -7t-25 -9 q-11 -14 -28.5 -43.5t-39.5 -72.5q-31 -63 -64 -120.5t-71 -108.5q22 -25 43 -45t39 -33q24 -19 48.5 -33.5t49.5 -22.5q15 -4 28.5 -6t27.5 -2q48 0 77 30l31 -22l-11 -20.5l-11 -20.5l-10.5 -23t-11.5 -23q-29 -60 -73.5 -87.5t-102.5 -27.5q-22 0 -39 3q-29 7 -57 18.5 t-56.5 30t-58.5 44t-63 61.5q-142 -139 -309 -162l2 1q-29 -8 -59 -10.5t-60 -2.5q-19 0 -39 1t-39 4q-66 11 -124 37.5t-102 71.5q-84 84 -97 191v-2q-2 11 -3 25t-1 30q0 17 1.5 34.5t4.5 34.5q5 35 18.5 70t32.5 69h-1q76 138 302 258q-30 48 -51.5 87t-33.5 71 q-13 34 -19 69t-6 67q0 135 90 228q17 17 35.5 31.5t39.5 25.5h-1q87 55 201 55q9 0 17 -0.5t14 -1.5q119 -9 197 -84v1q89 -84 89 -206q0 -55 -19.5 -105t-54.5 -93q-35 -40 -87.5 -80.5t-124.5 -78.5l58.5 -87l54.5 -79.5l55 -77l60 -80.5q41 57 65 112.5t29 101.5 q0 14 -13 28q-7 26 -20 39z" />
<glyph unicode="'" horiz-adv-x="380" d="M132 851q-3 19 -8 44t-8 44q-10 51 -18.5 103l-17.5 103q-12 89 -12 143q0 53 16.5 86t45.5 52q54 0 99 -16.5t76 -45.5v-39q0 -34 -3 -78.5t-10 -103.5q-5 -10 -3.5 -11t0.5 -4q-1 -5 -1.5 -8.5t-1.5 -8.5l-10 -61.5t-11 -61.5l-13 -68t-12 -69h-108z" />
<glyph unicode="(" horiz-adv-x="682" d="M622 -403q3 0 0 -1v1zM622 -403q-5 -2 -15.5 -4.5t-17.5 -4.5q-8 -2 -20.5 -5.5t-21.5 -5.5q-57 40 -103.5 82.5t-84.5 90.5q-45 58 -84 122t-72 138v-1q-11 20 -19.5 41.5l-16.5 41.5q-1 1 -1 2q0 2 -1 3q-73 200 -73 420q0 246 90 462l-1 -1q12 30 26.5 61t33.5 66 q58 106 134.5 193t171.5 158q18 -5 29 -7.5t15 -3.5t12 -4l17 -6.5t17 -6t12 -4.5q-69 -77 -117 -140.5t-76 -112.5h1q-34 -63 -60 -131.5t-43 -148.5q-20 -91 -29.5 -180.5t-9.5 -182.5q0 -85 7 -166.5t22 -159.5q24 -136 69 -244q35 -88 86.5 -169t129.5 -161z" />
<glyph unicode=")" horiz-adv-x="682" d="M85 1434q8 3 15.5 5.5t15.5 5.5t21 6.5l21 5.5q117 -85 191 -176q60 -76 107 -160t82 -176q77 -203 77 -427q0 -263 -106 -500q-2 -2 -4.5 -8l-4.5 -11l-16 -32.5l-17 -33.5q-60 -113 -138 -202t-172 -155q-8 2 -19.5 6t-19.5 6q-4 1 1.5 -1.5l5.5 -2.5q0 -1 -13 3.5 l-55 19.5q62 62 108 123t81 126v-1q18 34 34.5 74t31.5 83t27 86t21 83q32 160 32 321q0 95 -9 186.5t-28 180.5q-2 11 -3.5 21.5t-3.5 20.5v-1q-19 81 -50 158q-9 22 -18.5 43t-20.5 41q-26 51 -71 113.5t-111 137.5z" />
<glyph unicode="*" horiz-adv-x="910" d="M345 1209q25 -22 49 -40q-2 16 -4.5 29.5t-6.5 27.5q-20 77 -22 123v4q0 43 16 68.5t39 33.5h79q20 -11 35 -36t15 -65q-1 -21 -5.5 -50.5t-12.5 -63.5q-5 -18 -8.5 -34.5t-6.5 -36.5q21 16 40 32q29 26 55.5 43.5t50.5 28.5q38 17 77 24q26 -15 46 -42.5t24 -57.5v-15 q0 -14 -3.5 -28t-9.5 -30q-34 -17 -76 -30t-94 -24q-14 -3 -20 -4t-9.5 -1.5t-8.5 -2t-17 -4.5q8 -2 16 -5.5t17 -6.5q39 -15 69 -33t53 -41q35 -35 53 -83q-11 -26 -33 -47t-50 -28q-30 -10 -74 -10q-20 20 -46 51t-49 62l-18.5 24.5t-20.5 25.5q1 -4 1.5 -8t1.5 -8 q1 -11 1 -24v-20q0 -55 -10 -88l1 1q-6 -35 -27 -60t-43 -34q-8 -4 -15 -5t-15 -1q-9 0 -16 1t-14 5q-14 10 -20 23.5t-9 29.5q0 31 11 66q4 10 6 17t4 13q1 2 1.5 3.5l1.5 4.5q-1 3 -1 8v10q-21 -7 -40 -17q-21 -19 -38 -31t-31 -16q-8 -4 -17 -6.5t-17 -2.5q-27 3 -46 22 t-22 42q13 29 35.5 58t51.5 49q15 14 39 26t52 23l12 4t4 1q2 0 4 1.5t10 5.5q-14 4 -29.5 7.5t-30.5 6.5q-49 11 -88 22t-70 23q-18 36 -18 67q0 8 0.5 13t1.5 12q4 27 22 51t42 36q17 -3 36 -8.5t36 -14.5h-1q49 -22 104 -66z" />
<glyph unicode="+" horiz-adv-x="1175" d="M506 184v438h-437v160h437v436h161v-436h437v-160h-437v-438h-161z" />
<glyph unicode="," horiz-adv-x="540" d="M150 -295l-7.5 17.5l-9 21.5l-8.5 21l-7 17q48 19 79.5 41t47.5 51q37 53 38 106q0 3 -2 7l-3 11q-5 -1 -10.5 -3t-12.5 -4q-14 -2 -27.5 -3.5t-30.5 -1.5q-31 14 -49 43.5t-18 71.5q0 59 21 114q25 11 51 15.5t52 4.5q69 0 130 -33q16 -45 22.5 -91.5t6.5 -95.5 q0 -113 -57 -193.5t-181 -126.5z" />
<glyph unicode="-" horiz-adv-x="682" d="M62 601h559v-200h-559v200z" />
<glyph unicode="." horiz-adv-x="540" d="M327 232q15 -5 27.5 -15.5t23.5 -25.5q10 -20 14 -40.5t4 -41.5q0 -55 -21 -103q-25 -8 -51 -14t-52 -6t-52 6t-51 14q-21 48 -21 103q0 49 21 104q42 11 80 15.5t73 4.5z" />
<glyph unicode="/" horiz-adv-x="569" d="M590 1455l-170 -551l-170 -549l-58.5 -190.5l-58.5 -189.5h-151l103.5 331l101.5 330l126 408.5l127 410.5h150z" />
<glyph unicode="0" d="M297 685q0 -152 18 -264.5t54 -183.5q32 -58 74 -88.5t93 -30.5q50 0 99 34h-1q44 31 72 83q10 19 23 54q24 72 36.5 183t12.5 257q0 252 -50 393q-6 17 -12 29.5t-13 23.5l1 -1q-17 28 -35.5 48.5t-38.5 35.5l1 -1q-40 27 -93 27q-68 0 -115 -47q-23 -21 -40 -47 q-20 -31 -34 -74t-25 -99q-14 -77 -20.5 -159t-6.5 -173zM72 697q0 121 15.5 222.5t45.5 181.5q68 180 198 266q95 61 208 61q102 0 182.5 -44t141.5 -131q69 -97 104 -226q36 -129 36 -320q0 -123 -15.5 -224t-44.5 -180q-33 -89 -81 -155t-110 -106q-100 -65 -218 -65 q-101 0 -186.5 50.5t-149.5 142.5l-9.5 15l-11.5 18q-105 189 -105 494z" />
<glyph unicode="1" d="M227 1051l-2 25l-2 24l-2.5 31.5t-3.5 31.5q78 36 144 73.5t123 76.5h-1q35 28 63 56.5t48 58.5h103v-1124q0 -51 1 -86.5t3 -64.5v1l6 -27t9 -25q18 -3 64 -3v-99h-374v135q25 1 41 2t24 3q5 11 8.5 23t5.5 24q2 17 3.5 43.5t1.5 64.5v712q-2 -2 -5 -4t-5 -4 q-30 62 -66 63q-8 8 -16.5 11t-19.5 3q-4 0 -8.5 -0.5t-10.5 -1.5l-50.5 -18t-54.5 -22z" />
<glyph unicode="2" d="M972 235q5 -17 7 -26t4 -16q2 -11 5.5 -26.5t5.5 -26.5l-28 -34l-28 -35l-27.5 -35.5l-28.5 -35.5h-836v27q0 20 2.5 40t8.5 38q33 48 68.5 91.5t73.5 84.5l235 238l76 71t63 65q35 42 62.5 82t46.5 75q54 96 54 186q0 8 -0.5 17t-1.5 17q-8 82 -66 139q-58 60 -143 66 q-7 1 -14 1h-13q-14 0 -28.5 -1.5t-29.5 -3.5q-24 -5 -44.5 -13.5t-38.5 -19.5q-99 -54 -132 -215l-146 13q27 234 160 339l-1 -1q113 92 283 92q193 0 309 -115v1q120 -114 120 -277q0 -81 -28 -158q-8 -18 -18 -38t-21 -40q-12 -21 -25 -41t-27 -38v1q-78 -114 -237 -264 v1q-151 -145 -214 -211q-14 -13 -26.5 -27l-22.5 -25h332q38 0 68 0.5t53 2.5q45 4 84.5 15t75.5 32z" />
<glyph unicode="3" d="M213 1043q-12 3 -24.5 5.5t-25.5 5.5q-14 2 -36 7.5l-35 8.5q43 166 133 248v-1q113 111 283 111q54 0 104.5 -12t93.5 -34q28 -14 54.5 -35t46.5 -44q42 -50 62 -104.5t20 -109.5v-12q0 -3 -0.5 -7t-0.5 -7q-7 -74 -48 -140.5t-116 -121.5q114 -46 174 -136t60 -217v-14 q0 -5 -1 -10v2q0 -2 -0.5 -3.5t-0.5 -2.5q-8 -168 -127 -293q-61 -63 -145 -100t-182 -46q-7 -1 -17 -1h-17q-35 0 -68.5 3.5t-68.5 13.5l2 -1q-77 12 -131 46q-34 19 -49 36h1q-71 71 -79 174q11 21 34.5 37t52.5 17q20 2 45.5 3t53.5 1q22 -61 67 -103q23 -22 43.5 -36.5 t39.5 -23.5q20 -11 43 -14.5t49 -3.5q104 0 176 75q5 5 8.5 10t7.5 10q47 57 54 126q0 8 0.5 17t0.5 14q0 13 -1 26.5t-3 28.5q-5 34 -13 59q-19 55 -57 95q-55 52 -149 69q-23 8 -44.5 10.5t-43.5 2.5h-6q-6 -2 -14.5 -2.5t-16.5 -2.5q-2 0 -8.5 -1l-13.5 -2t-13 -2t-9 -1 q1 12 3 30l4 37l4 37t3 29q25 2 44.5 5.5t35.5 8.5q32 6 58 16h-1q62 23 107 65q64 60 64 158q0 89 -56 145q-6 5 -11.5 8.5t-9.5 6.5q-24 18 -50 27.5t-55 12.5q-8 1 -14.5 1.5t-12.5 0.5q-7 0 -12.5 -0.5t-12.5 -1.5h-3q-66 -11 -120.5 -59t-85.5 -133z" />
<glyph unicode="4" d="M611 533v568l-96 -136.5l-96 -136.5l-52 -75l-50 -71.5l-50.5 -72l-53.5 -76.5h398zM1002 533v-189h-185v-344h-206v344h-588v169l105 150l105 150v-1l214.5 306.5l216.5 306.5h153v-892h185z" />
<glyph unicode="5" d="M950 1402l-47 -205h-482l-17.5 -60.5l-16.5 -56l-16 -56.5t-18 -62q62 14 121 14q55 0 105 -10q124 -26 220 -102q17 -15 33 -31t33 -36l-1 1q89 -107 102 -249q1 -13 1.5 -26.5t0.5 -26.5v-17t-1 -17q-6 -84 -34 -157q-32 -78 -87 -145q-44 -53 -101 -92t-123 -59 q-44 -14 -89.5 -20.5t-90.5 -6.5q-25 0 -47 2t-42 6h1q-83 15 -141 51q-20 14 -35.5 28t-27.5 28q-29 35 -46.5 77.5t-21.5 90.5q17 20 44.5 35t61.5 17q5 0 9 0.5t9 0.5h34q5 0 15.5 -0.5t15.5 -0.5q11 -41 31.5 -72t46.5 -54q66 -54 151 -54q112 0 193 85h-1q82 86 82 218 q0 129 -76 217q-66 76 -173 102l4 -1q-2 0 -4.5 0.5t-5.5 0.5h-11q-38 0 -73 -16t-62 -42q-54 16 -117.5 25.5t-141.5 15.5l26.5 82l27 86.5l27 85.5l25.5 81l51 162.5l51 162.5h628z" />
<glyph unicode="6" d="M453 742q-20 -8 -45.5 -23.5t-54.5 -36.5q-37 -91 -45 -180q-1 -7 -1 -13v-10v-12q0 -5 1 -12q2 -34 8.5 -70t17.5 -70q4 -11 8 -23.5t9 -21.5q17 -34 40.5 -64t49.5 -51q26 -19 57.5 -30t63.5 -11q87 0 156 78q28 35 46 85t21 109q1 14 1 27v28q-2 67 -18.5 122.5 t-49.5 100.5q-65 95 -177 95q-23 0 -45 -4t-43 -13zM875 1377q37 -26 63 -66t43 -94l-31.5 -8.5l-31.5 -8.5q-11 -2 -25.5 -6.5t-25.5 -7.5q-41 23 -74 35.5t-62 14.5q-28 5 -51 5q-55 0 -114 -26q-18 0 -32 -3q-34 -22 -59 -48q-65 -59 -108 -157q-18 -39 -30.5 -88.5 t-20.5 -110.5q64 54 138.5 81.5t150.5 27.5q165 0 280 -124h-1q118 -124 118 -320q0 -132 -59 -250q-25 -48 -59 -89q-127 -157 -334 -157q-159 0 -270 94q-20 17 -37.5 35.5t-34.5 38.5q-58 72 -90 173.5t-40 222.5q-1 13 -1.5 29.5t-0.5 30.5q0 15 0.5 30.5t1.5 31.5 q8 170 53.5 302.5t126.5 232.5q17 21 35.5 39l37.5 35q112 97 248 121q22 5 43 6.5t42 1.5q29 3 59 3q82 0 148 -25z" />
<glyph unicode="7" d="M84 1239l34.5 39l35.5 39l37.5 43l38.5 42h766v-111q-57 -100 -111 -209.5l-109 -231.5q-53 -121 -99 -242t-85 -248q-26 -85 -48.5 -177.5t-41.5 -196.5h-185q17 97 41 196t54 202q29 102 66 202.5t81 199.5l95.5 213t99.5 201h-288q-61 0 -114.5 -3t-100.5 -10l3 1 q-76 -24 -157 -87q-1 6 -2 17t-2.5 22.5l-3 22t-2.5 15.5l-4 22.5l-4 22.5z" />
<glyph unicode="8" d="M406 937q34 -31 71.5 -54.5t79.5 -38.5q42 19 75.5 42t57.5 48q7 8 13 16.5t12 20.5q12 21 18 43.5t8 47.5v13q0 8 -0.5 16t-1.5 17v6q-6 62 -43 107q-57 68 -157 68q-92 0 -150 -55q-46 -43 -54 -108q-3 -15 -3 -24q0 -5 0.5 -10.5t1.5 -11.5q9 -83 73 -144zM702 530 q-74 78 -202 132q-81 -23 -131 -82h1q-71 -89 -71 -203q0 -64 24 -120q10 -22 23 -42t31 -37q8 -9 18.5 -16.5l22.5 -15.5q29 -16 61.5 -24.5t67.5 -8.5q109 0 174 64q28 26 43 58t19 67q1 8 1.5 17t0.5 16v7v13t-2 14q-4 30 -15 57q-9 28 -25 54t-41 50zM143 555 q29 54 78.5 100.5t120.5 84.5q-61 41 -103.5 82.5t-65.5 81.5q-17 35 -29.5 79t-12.5 84q0 151 112 256v-1q109 106 294 106q181 0 293 -103q48 -44 74.5 -95t33.5 -110q1 -8 1 -17v-16q0 -45 -10 -85.5t-34 -78.5v1q-24 -40 -67 -78.5t-106 -74.5q150 -90 207 -196 q44 -74 52 -158q0 -2 0.5 -3.5t0.5 -3.5q1 -8 1 -17v-17q0 -11 -0.5 -22t-1.5 -20q-13 -140 -120 -242q-124 -115 -323 -115q-207 0 -329 125q-7 6 -13 13.5l-13 16.5l1 -2q-39 48 -60 100t-26 108q-1 5 -1 12v14q0 10 0.5 19.5t1.5 17.5v5q3 40 14.5 77t29.5 72z" />
<glyph unicode="9" d="M636 663q24 9 46.5 23t42.5 31q19 46 29.5 90.5t14.5 84.5q1 8 1 18v21v18q-3 78 -29 150q-10 29 -22 53t-28 46q-34 42 -76 64.5t-90 22.5q-7 0 -22 -3q-81 -9 -141 -77q-62 -71 -69 -201q-1 -11 -1.5 -20.5t-0.5 -20.5q0 -2 0.5 -4.5t0.5 -4.5v-7q6 -125 66 -208 q6 -8 14 -17t19 -19q63 -61 144 -61q49 0 101 21zM202 24q-72 50 -105 159q11 4 30 9.5t30 9.5q10 4 27.5 9l28.5 8q68 -94 166 -94q26 0 57 6l16.5 10.5t16.5 12.5q57 14 102 49t81 88q21 30 39.5 70t33.5 83q8 32 15.5 68.5t11.5 74.5q-18 -17 -38.5 -30.5t-42.5 -25.5 q-97 -49 -196 -49q-166 0 -282 123q-117 125 -117 326q0 199 118 341q128 156 331 156q67 0 129.5 -21t117.5 -59q20 -14 37 -28.5t33 -30.5q29 -32 54.5 -72t45.5 -86q24 -56 38 -127t17 -150q1 -11 1 -26v-26v-28q0 -13 -1 -27q-5 -111 -26.5 -209t-57.5 -178 q-29 -63 -69 -117t-89.5 -97t-107 -73.5t-122.5 -46.5l4 1q-2 -1 -3 -2t-3 -2l-15.5 -8.5t-24.5 -11.5q-28 -6 -55 -8.5t-54 -2.5q-86 0 -168 29z" />
<glyph unicode=":" horiz-adv-x="569" d="M352 1008q25 -28 42.5 -74t17.5 -101q-31 -27 -79 -46t-103 -19q-27 30 -46.5 78.5t-19.5 102.5q31 27 77 46.5t97 19.5zM237 233q77 0 154 -19q11 -25 15.5 -51.5t4.5 -53.5q0 -58 -30 -109q-53 -14 -94 -14q-59 0 -110 30q-14 53 -14 93q0 41 19.5 74.5t45.5 48.5z" />
<glyph unicode=";" horiz-adv-x="569" d="M347 1008q25 -28 42 -73.5t17 -100.5q-30 -27 -78 -46t-103 -19q-27 30 -46.5 78.5t-19.5 102.5q31 27 77 46t97 19zM166 -295l-7.5 17.5l-9 21.5l-8.5 21l-7 17q48 19 79.5 41t47.5 51q37 53 38 106q0 3 -2 7l-3 11q-5 -1 -10.5 -3t-12.5 -4q-14 -2 -27.5 -3.5 t-30.5 -1.5q-31 14 -49 43.5t-18 71.5q0 59 21 114q25 11 51 15.5t52 4.5q69 0 130 -33q16 -45 22.5 -91.5t6.5 -95.5q0 -113 -57 -193.5t-181 -126.5z" />
<glyph unicode="&#x3c;" horiz-adv-x="1175" d="M68 769l256 108.5l254 108.5l128.5 55.5l134 57l134 57l129.5 55.5v-171l-202.5 -85.5l-195.5 -82.5l-195 -83l-202 -86l186 -79l184 -79l212 -90.5l213 -90.5v-173l-129.5 56l-134 58l-134 57.5l-128.5 55.5l-254 110l-256 110v131z" />
<glyph unicode="=" horiz-adv-x="1175" d="M69 969h1036v-161h-1036v161zM69 594h1036v-160h-1036v160z" />
<glyph unicode="&#x3e;" horiz-adv-x="1175" d="M1104 636l-256 -109.5l-254 -109.5l-128.5 -55.5l-134 -57.5l-134 -57.5l-129.5 -55.5v171l148 62.5l146 61.5l129.5 55l121.5 51.5l121.5 51.5l129.5 55l-117 50l-338 144l-341 145v173l129.5 -55.5l134 -57.5l134 -57.5l128.5 -55.5l254 -109l256 -109v-131z" />
<glyph unicode="?" horiz-adv-x="1024" d="M567 227q25 -28 42 -74t17 -101q-31 -27 -78.5 -46t-101.5 -19q-29 19 -48 55t-19 78q0 49 21 95q38 10 75.5 14t76.5 4zM425 331v19t0.5 21.5l1 20t0.5 15.5q2 48 9 90t19 77q9 27 24.5 57.5t35.5 63.5l43 63t61 77q29 35 49.5 66t31.5 52v-1q17 36 19 85v13v14 q0 8 -1 16q-6 76 -52 134q-6 9 -13 16t-14 13q-4 2 -6 4q-60 54 -144 54q-77 0 -130 -36h1q-19 -14 -32 -30.5t-21 -36.5q-3 -13 -3 -25q0 -11 1 -21t3 -20q0 -4 0.5 -7.5t0.5 -7.5v-13q0 -43 -6 -87q-25 -17 -60 -28.5t-73 -11.5q-2 0 -3.5 0.5t-3.5 0.5h-15q-28 28 -43 65 l1 -1q-6 15 -8 31.5t-2 34.5v15t1 15q19 119 112 201q114 100 299 100q197 0 312 -102l17.5 -18t19.5 -23v1q73 -89 80 -199q0 -3 0.5 -6.5t0.5 -6.5v-25q0 -2 -0.5 -5.5t-0.5 -6.5q-2 -30 -7.5 -59t-16.5 -56l-10.5 -22.5l-13.5 -27.5l1 1q-17 -33 -46.5 -69.5t-69.5 -78.5 h1l-23 -23.5t-24 -23.5v1q-36 -36 -61 -63.5t-40 -50.5q-13 -17 -21.5 -34t-13.5 -33q-2 -2 -2 -4q0 -1 -1 -2v-1q0 -1 -1 -4t-2 -4q-8 -26 -12.5 -67t-6.5 -96h-142z" />
<glyph unicode="@" horiz-adv-x="1982" d="M1039 901q-65 0 -130 -57q-19 -16 -36.5 -34.5t-33.5 -41.5q-26 -36 -48.5 -78t-42.5 -93l-15 -42q-2 -4 -2.5 -8.5t-2.5 -8.5v1q-11 -33 -17 -63t-10 -57q-2 -14 -3 -27t-1 -25q0 -14 1.5 -26t3.5 -25q8 -53 36 -84q17 -20 35 -30.5t38 -14.5q5 -1 9 -1h7q23 0 44 7 q20 3 37 11q37 17 75 46.5t76 77.5q50 62 83 143l7 19.5t8 24.5l2 4q10 30 15.5 63t9.5 62q2 19 3.5 38t1.5 34q0 29 -4 52q-3 25 -13 46t-25 37q-23 24 -50 37t-58 13zM1290 1007q21 2 45.5 3.5l50 3l50 3t44.5 2.5l-29 -115.5l-29 -115.5l-26.5 -103l-26.5 -103 l-30 -118.5l-24 -100.5l1 1q-3 -14 -6 -24.5t-5 -21.5q-2 -10 -4 -18.5l-4 -16.5q-10 -46 -10 -65q0 -21 14.5 -35.5t36.5 -14.5q59 0 142 62q102 70 166 212q56 116 63 240q1 11 1.5 21t0.5 21t-0.5 21t-1.5 21q0 5 -0.5 9.5t-0.5 10.5q-6 63 -24.5 126.5t-49.5 117.5 q-41 67 -99 121.5t-131 91.5q-152 79 -334 79q-222 0 -408 -111q-184 -108 -291 -316q-105 -205 -105 -437q0 -229 97 -399q100 -171 281 -256q92 -45 192 -66t210 -21q22 0 49 3q110 6 207.5 33t178.5 73q90 54 163.5 131.5t123.5 174.5h157q-31 -79 -76 -148.5 t-103 -129.5q-76 -77 -175 -138h1q-24 -15 -50.5 -28.5t-53.5 -25.5q-90 -39 -198.5 -62t-224.5 -23q-12 0 -24.5 0.5t-24.5 1.5h-4q-85 2 -163.5 16.5t-153.5 40.5h1q-5 2 -9.5 3.5t-9.5 3.5l-48.5 19.5t-44.5 20.5q-121 61 -210.5 150.5t-146.5 202.5q-98 199 -98 428 q0 112 23.5 220.5t65.5 207.5q10 25 22.5 50t26.5 47q32 56 72.5 108.5t87 98.5t98.5 84.5t106 66.5q104 54 219.5 82t240.5 28q112 0 214 -24t192 -69q89 -47 162 -117t122 -159h-1q42 -74 63.5 -151.5t26.5 -161.5q1 -14 1.5 -27.5t0.5 -27.5q0 -6 -0.5 -10.5t-0.5 -9.5 v-19q-7 -156 -75 -299q-26 -56 -59 -103.5t-71 -88.5q-20 -22 -41 -42t-46 -36l1 1q-133 -99 -288 -99q-78 0 -122.5 31.5t-55.5 89.5h1q-3 13 -4 26t-1 30q0 2 -1 2v1t0.5 1.5t0.5 2.5q-50 -53 -100.5 -93.5t-94.5 -57.5v1q-66 -31 -128 -31q-12 0 -21.5 0.5t-19.5 2.5 q-40 6 -81 30v-1q-17 9 -35.5 25t-35.5 35q-17 20 -30.5 41t-22.5 46v1q-16 37 -22 86q-5 23 -6 46.5t-1 46.5v19t1 21q5 66 26 133.5t56 137.5q39 73 87 132.5t104 103.5q81 59 155 72q63 27 127 27q32 0 65 -9l-1 1q45 -11 80.5 -35t59.5 -63q1 3 2 6.5t2 6.5 q5 16 8.5 31.5t7.5 31.5z" />
<glyph unicode="A" horiz-adv-x="1422" d="M879 589q-15 40 -31.5 80l-32.5 80l-37.5 93.5l-37.5 93.5v1l-22 56l-16.5 42.5t-14 38.5l-15.5 45q-14 -45 -29 -87.5t-31 -82.5l-21.5 -53l-20.5 -54l-26 -65.5l-24 -60.5l-24.5 -61l-27.5 -66h411zM1018 218q-12 52 -44 131l-26.5 22.5l-26.5 21.5t-26 22t-26 22h-459 l-39.5 -100l-39.5 -100q-12 -27 -19 -50t-10 -40q-2 -8 -2.5 -15.5t-0.5 -11.5v-11q0 -4 1 -9q16 -5 70 -10l-10 -47q-2 -7 -5 -21t-5 -22h-350l23 89q28 14 44 27t25 27l-1 -2q21 36 46 88t51 117l108.5 266.5l107.5 266.5l111 273l111 274h145l114.5 -275l113.5 -273 l111.5 -268l111.5 -270h-1q25 -60 48.5 -109t46.5 -87l-1 2q31 -37 78 -57q4 -11 9.5 -30t7.5 -30l3.5 -14.5l3.5 -14.5h-406q-3 12 -8.5 29.5t-9.5 28.5t-9.5 30l-8.5 30q26 16 36 33t10 36t-3 31z" />
<glyph unicode="B" horiz-adv-x="1366" d="M410 813q41 -3 84 -4t91 -1h48t46 1q48 2 86.5 7t61.5 15q66 24 99.5 75t33.5 120q0 66 -35 121q-25 40 -69 60q-32 20 -80 31t-114 15q-43 3 -89 3q-85 0 -163 -9v-434zM410 168q69 -5 135 -7.5t135 -2.5q102 0 156 19q53 14 85 39q41 32 65 78t24 104q0 75 -39 133 q-33 54 -99 81q-32 14 -77.5 23.5t-102.5 12.5q-26 2 -52 3t-54 1h-53h-44q-20 0 -39 -0.5t-40 -2.5v-481zM1193 1033q0 -90 -46 -167.5t-137 -127.5q47 -16 84 -37.5t66 -50.5q99 -97 99 -243q0 -106 -56 -198l1 1q-5 -8 -8.5 -15l-6.5 -13q-21 -29 -44 -52.5t-52 -42.5 q-11 -8 -26.5 -16l-30.5 -16q-59 -26 -146.5 -40.5t-198.5 -14.5h-603v94h40q17 8 27 21t18 30q11 55 11 141v839q0 97 -13 145q-8 14 -22 28t-31 23q-2 5 -6.5 12t-7.5 11l-16 24v44h572q141 0 237 -26l33.5 -9.5t30.5 -11.5l-1 1q50 -20 92 -53t71 -72q70 -91 70 -208z " />
<glyph unicode="C" horiz-adv-x="1422" d="M1179 1381q2 -2 4 -2q3 0 5 -2h-1l24.5 -15l24.5 -15q29 -86 51 -178.5t37 -196.5q-13 -3 -35.5 -7.5l-36.5 -7.5l-36 -7.5l-36 -7.5q-28 90 -66.5 155t-88.5 106.5t-110.5 61t-131.5 19.5q-18 0 -38 -4q-97 -8 -170 -45q-38 -18 -64 -41q-45 -38 -78.5 -87.5 t-55.5 -115.5q-23 -64 -33.5 -137t-10.5 -154q0 -75 10.5 -145t30.5 -128q2 -3 2.5 -6.5t2.5 -6.5q6 -16 12.5 -30.5t14.5 -28.5q40 -77 108 -128q17 -14 34.5 -24.5t35.5 -19.5q38 -19 78 -29.5t81 -14.5q11 -1 22.5 -1.5t21.5 -0.5q24 0 51 3q109 10 188 65l-1 -1 q101 72 184 253q14 -5 35.5 -10.5t35.5 -10.5q7 -2 17 -5.5l20.5 -7t20.5 -6.5t16 -5q-79 -214 -217 -322q-153 -117 -376 -117q-110 0 -210 29t-174 74q-99 67 -163 168l-23.5 39t-23.5 42q-81 170 -81 375q0 215 88 385q92 171 250 261q165 93 353 93q78 0 151 -17.5 t140 -50.5l35.5 -18.5t28.5 -13.5q1 0 2 1l2 2q10 8 14 28z" />
<glyph unicode="D" horiz-adv-x="1479" d="M416 168q63 -5 122.5 -8t113.5 -3q143 0 236 46q65 29 113 77q68 72 103.5 177.5t35.5 251.5q0 197 -67 319q-32 58 -79 105q-41 42 -98 70q-47 25 -109 36.5t-141 11.5q-54 0 -112 -3t-118 -9v-1071zM94 0v42q2 5 6 10.5t6 9.5h-1q5 8 10.5 21t10.5 21q42 0 54 16 q5 31 7 69.5t2 88.5v854q0 100 -12 164q-8 7 -19.5 9t-31.5 2l-6.5 12.5l-6.5 12.5l-9 18t-10 18v44h534q90 0 159 -6t123 -17q84 -17 152 -52q16 -8 36 -20.5t35 -23.5q105 -78 168 -200q86 -163 86 -380q0 -155 -40.5 -277.5t-115.5 -213.5h1q-29 -36 -61.5 -66t-70.5 -53 q-161 -103 -434 -103h-572z" />
<glyph unicode="E" horiz-adv-x="1308" d="M494 1235q-22 -4 -37 -7.5l-38 -8.5v-407h362q36 0 62.5 4t44.5 12l-1 -1q40 20 64 81h129v-353h-133l-7 43t-5 26q-35 14 -82 22t-112 8h-322v-400v-45q0 -18 2 -34q31 -8 65 -12t87 -4h231q47 0 87.5 1.5t72.5 5.5q20 5 40 12t40 18v-1q45 26 103 93h92 q-4 -15 -8 -34.5l-8.5 -39.5l-9 -39.5l-8.5 -35.5q-8 -32 -16 -69.5t-16 -69.5h-1075v98h43q20 0 36 10q3 1 5.5 5.5t4.5 7.5q3 29 4 62.5t1 78.5v889q0 48 -3 85.5t-8 66.5q-13 9 -53 9l-8 16t-7 15l-15 26v43h1062q1 -29 2 -66.5t2 -65.5q1 -29 2 -68t3 -68h-92 q-19 29 -35 47.5t-30 26.5q-27 17 -73 27h3q-85 4 -172 5.5t-187 1.5z" />
<glyph unicode="F" horiz-adv-x="1195" d="M920 1242q-88 5 -180.5 7.5t-194.5 2.5q-19 -3 -36.5 -6.5t-35.5 -7.5q-9 -1 -16 -2.5t-13 -2.5l-12.5 -2t-16.5 -3v-417h296q65 0 110 17l-3 -2q26 14 50 76h107v-347h-112q-1 25 -3.5 40t-4.5 23q-27 14 -60.5 22t-83.5 8h-296v-365q0 -38 1.5 -68.5t5.5 -53.5 q5 -26 17 -42v1q7 -11 18 -20t23 -17l15 -19l6.5 -8.5l9.5 -12.5v-43h-417v86h37q17 11 28.5 28.5t18.5 38.5l-1 -2q12 59 12 156v797q0 77 -6 120q-3 19 -7.5 36.5t-12.5 37.5q-14 17 -31 28h-38v86h1010q1 -15 1.5 -32t1.5 -35t1.5 -35.5t0.5 -31.5t0.5 -31.5t1.5 -35.5 t1.5 -35.5t0.5 -32.5h-78q-31 54 -56 72q-14 11 -29 17t-33 10h3z" />
<glyph unicode="G" horiz-adv-x="1536" d="M1196 1404q8 -2 16.5 -5t21.5 -8q53 -84 85 -182.5t54 -223.5l-138 -32q-19 60 -43 110t-45 82q-11 14 -22.5 25.5l-23.5 22.5q-53 45 -122.5 68.5t-153.5 23.5q-131 0 -221.5 -45.5t-150.5 -127.5q-21 -28 -37 -57t-29 -60l1 1q-25 -65 -38 -133.5t-13 -143.5 q0 -91 17.5 -173t49.5 -150q33 -67 80 -118.5t104 -83.5q57 -30 119.5 -47.5t125.5 -17.5q108 0 217 44q68 28 108 58v306q-16 15 -38.5 31.5t-41.5 22.5q-30 15 -63 23l2 -1q-29 4 -66.5 6t-88.5 2v141q70 0 149.5 0.5t148.5 0.5h298v-102h-31q-27 0 -35 -15 q-8 -37 -8 -106v-389q-72 -49 -144.5 -85t-144.5 -58q-62 -18 -125.5 -26.5t-131.5 -8.5q-230 0 -404 94h1q-58 30 -108 73t-91 97q-13 17 -25.5 36t-23.5 38q-98 175 -98 381q0 197 88 369q51 101 123 175.5t165 123.5q73 37 163 58t187 21q9 0 18.5 -0.5t17.5 -1.5 q21 -1 43 -2.5t40 -4.5q80 -13 178 -50q24 -8 28 -8q2 0 3.5 9t3.5 39z" />
<glyph unicode="H" horiz-adv-x="1479" d="M416 812h640v305q0 83 -6 132q-3 14 -6.5 27t-8.5 27q-8 3 -20 4.5t-23 1.5l-17 34q-3 5 -6.5 13t-6.5 13v43h415v-80h-35q-8 -9 -16.5 -21l-17.5 -26q-6 -13 -11.5 -30t-7.5 -33q-6 -49 -6 -131v-771q0 -42 1.5 -74t5.5 -58q2 -16 6 -31t10 -29q10 -14 18 -26.5 t18 -21.5h35v-80h-415v42l13.5 25.5l13.5 25.5q40 34 56 86v-1q5 22 8 55.5t3 81.5v339h-638v-339q0 -39 1.5 -71.5t5.5 -58.5q2 -15 5.5 -29.5t11.5 -29.5q16 -15 42 -30q2 -5 6.5 -11.5t6.5 -11.5l-1 1l8.5 -15.5l8.5 -16.5v-42h-416v68l31 31q36 30 53 83v-1 q5 23 7.5 57.5t2.5 81.5v771q0 84 -6 133q-4 32 -18 60l-18 26.5t-17 21.5h-35v80h416v-88l-8.5 -16.5l-8.5 -15.5l1 1q-2 -5 -5.5 -10t-5.5 -10q-14 -13 -24.5 -27t-19.5 -28l1 1q-8 -15 -14.5 -29.5t-14.5 -34.5l3 -76z" />
<glyph unicode="I" horiz-adv-x="625" d="M499 0h-392v66l13 27l13 28q41 35 57 88v-2q5 23 8 58.5t3 84.5v759q0 42 -1.5 75t-5.5 59q-2 15 -5 30t-10 30q-10 10 -18 16.5t-16 11.5h-38v81h415v-67l-13 -27l-13 -27q-42 -38 -57 -90v2q-5 -23 -8 -58t-3 -84v-758q0 -85 6 -136q3 -17 7 -32.5t11 -30.5l-1 3 q24 -37 48 -63v-44z" />
<glyph unicode="J" horiz-adv-x="910" d="M450 1393v19h384v-90h-34q-17 -23 -29.5 -48.5t-20.5 -57.5l1 1q-5 -32 -8 -74t-3 -94v-494q0 -51 -2 -96t-6 -87q-3 -31 -7.5 -59.5t-12.5 -56.5q-17 -61 -47 -108q-62 -92 -176 -138l1 1q-17 -8 -31.5 -12t-28.5 -7q-46 -10 -94 -10q-20 0 -39.5 1.5t-39.5 5.5 q-44 9 -80 27t-65 50q-23 23 -37 52t-20 58q-8 37 -8 73q0 41 9 83q71 25 152 32l21 -47.5t21 -43.5q8 -17 18 -34l22 -36l-1 1l15.5 -20.5l15.5 -20.5q30 -33 69 -33q26 0 47.5 17.5t32.5 62.5q12 23 20.5 47t13.5 50q5 38 7.5 81.5t2.5 95.5v607q0 47 -1.5 86t-5.5 70 q-4 26 -19 48q-10 19 -26 43.5t-39 54.5h28z" />
<glyph unicode="K" horiz-adv-x="1422" d="M785 899q-10 -16 -20.5 -31l-21.5 -30l-10 -13.5l-7.5 -10.5l-7.5 -10.5t-9 -13.5l98.5 -114l98.5 -113l103.5 -118.5l103.5 -118.5l87 -92t77 -73q65 -53 134 -89l3.5 -10t3.5 -9q2 -7 8.5 -20t17.5 -33h-484q-5 8 -11 22t-10 22q1 -3 -1 1l-5.5 11t-7.5 16t-8 17 q34 16 34 36q0 13 -7.5 30t-15.5 31q-10 15 -25 34l-32 39l-90.5 106l-86.5 101l-86.5 100.5l-90.5 104.5l-24 -65l-24 -66q-14 -42 -28.5 -80.5t-28.5 -80.5v-45q0 -72 6 -113q3 -17 7 -33t10 -30q19 -33 44 -59q5 -12 13 -28.5t13 -28.5v-42h-414v70q3 4 8 9.5t7 9.5 q3 3 6.5 7t10.5 11q16 11 29.5 28t22.5 38q5 27 7.5 65t2.5 83v796q0 37 -1.5 66t-5.5 52q-2 16 -5 32t-10 32q-9 9 -17.5 16l-16.5 13h-38v84h414v-46l-9 -10q-4 -4 -7.5 -8.5t-10.5 -14.5q-11 -7 -22 -16t-21 -19q-6 -16 -10 -33t-7 -37q-6 -42 -6 -116v-345q5 5 10.5 9.5 t10.5 9.5l57.5 57l66.5 65q112 104 192 185t131 139q17 22 26 41q-3 3 -17 5t-44 2q30 45 30 46l15 26l40 60h418l-7.5 -11.5t-12 -17.5t-12 -17.5l-7.5 -11.5l-11.5 -15.5t-11.5 -16.5l-40.5 -21t-37.5 -22q-35 -23 -78.5 -55.5t-98.5 -84.5l-73.5 -69.5l-93.5 -91.5z" />
<glyph unicode="L" horiz-adv-x="1195" d="M1123 296q2 -4 4.5 -8t4.5 -9t3.5 -8t6.5 -16l-30.5 -127l-31.5 -128h-990v74l8.5 10.5t7.5 8.5q3 4 7.5 9t7.5 9q18 14 32.5 35t21.5 43q5 23 7.5 55.5t2.5 70.5v781q0 100 -13 161q-8 19 -19 37t-25 31h-38v87h432v-117q-32 0 -51 -1t-28 -4q-8 -17 -14.5 -37.5 t-9.5 -36.5q-5 -32 -6 -71t-1 -90v-775q0 -29 0.5 -54t4.5 -45q14 -4 29 -7t32 -5q21 -2 54.5 -3.5t78.5 -1.5h106q117 0 192 12l-2 -1q43 11 85 40q47 24 100 84z" />
<glyph unicode="M" horiz-adv-x="1763" d="M788 0l-428 1079v-794q0 -49 3.5 -92t9.5 -76q7 -6 18.5 -8t32.5 -2q2 -3 5 -11.5t5 -11.5q5 -10 10 -21.5l10 -22.5v-40h-359v41q3 8 7 15.5t6 14.5q3 7 8.5 18.5t8.5 18.5q44 0 54 15q9 63 9 163v839q0 45 -2 84t-7 75q-6 8 -24 14t-60 6v108h362l99 -249.5l98 -248.5 l96 -241.5l96 -243.5q11 -32 21 -58t18 -49l19.5 54l23.5 62l63.5 160l63.5 159l130.5 326.5l130.5 328.5h346v-43q-3 -6 -6.5 -14t-6.5 -14q-2 -7 -7.5 -19t-8.5 -18q-41 0 -55 -14q-4 -34 -6.5 -75t-2.5 -90v-839q0 -50 3.5 -91.5t8.5 -74.5q13 -12 52 -12q3 -7 8.5 -18.5 t7.5 -18.5l6.5 -14.5t6.5 -15.5v-41h-409v42l30 64q39 0 53 14q5 32 7.5 72.5t2.5 90.5v787l-215 -536l-214 -534h-129z" />
<glyph unicode="N" horiz-adv-x="1479" d="M71 1390q9 6 19 11q5 2 10 5.5t9 5.5h259l190.5 -258.5l183.5 -249.5l183.5 -249.5l190.5 -257.5v751q0 50 -2 87.5t-9 64.5q-10 11 -52 11l-8 16.5t-8 15.5t-7 13t-7 13v43h359v-43l-15 -26q-3 -5 -7 -12.5l-7 -13.5q-40 -21 -55 -58q-5 -29 -7.5 -66t-2.5 -83v-1121 h-143l-255 343.5l-254 342.5l-70 94.5l-65 88l-65 88.5l-71 96v-737q0 -51 3 -89.5t8 -64.5q8 -19 21.5 -32.5t32.5 -24.5l28 -52v-42h-316q-3 2 -7 5q-8 6 -10 7l-15.5 8t-16.5 8l10.5 20.5t10.5 19.5t7 12.5t7 12.5q37 19 54 59q5 30 8 67t3 83v831q-15 38 -24.5 67.5 l-17.5 56.5q-7 13 -18 29.5t-25 30.5q-11 23 -37 41v32z" />
<glyph unicode="O" horiz-adv-x="1536" d="M766 1283q-90 0 -165.5 -32.5t-135.5 -95.5q-66 -74 -99.5 -187.5t-33.5 -268.5q0 -125 29 -226.5t80 -175.5q15 -20 30.5 -37l29.5 -31q108 -103 264 -103q191 0 313 142q126 141 126 428q0 184 -53 317v-1q-18 44 -40.5 81.5t-49.5 67.5v-1q-34 35 -71 61 q-46 27 -105 44.5t-119 17.5zM775 1439q98 0 190.5 -27.5t171.5 -77.5q26 -17 51.5 -37.5t48.5 -43.5v1q70 -64 118 -154l-1 1q97 -169 97 -393q0 -228 -100 -400q-52 -91 -119 -153q-23 -23 -49.5 -43t-52.5 -37q-163 -102 -364 -102q-103 0 -197.5 27.5t-173.5 78.5 q-25 17 -51 37.5t-49 44.5v-1q-35 32 -63 70.5t-53 82.5l1 -1q-96 173 -96 387q0 343 208 547q194 193 483 193z" />
<glyph unicode="P" horiz-adv-x="1252" d="M412 747q53 -4 104 -6t95 -2q18 0 37 1.5t39 3.5q42 5 79 17.5t65 29.5q15 11 27 21t21 23q51 60 51 155v9q0 5 -1 10q0 2 -0.5 4.5t-0.5 4.5q-5 82 -50 135q-13 15 -26.5 28t-30.5 21q-24 17 -60.5 27t-83.5 15q-31 2 -64.5 3.5t-65.5 1.5q-31 0 -64 -1.5t-71 -6.5v-494 zM412 426v-29q0 -53 2.5 -92.5t10.5 -67.5v2q16 -43 53 -74l8 -19l-1 1l11 -24l11 -24v-99h-416v73q-1 -1 6.5 8t10.5 12l13 18q20 14 34 34t22 44q5 29 6.5 68.5t1.5 86.5v783q0 49 -2.5 88t-9.5 71q-14 26 -43 39h-39v87h530q73 0 128.5 -5t96.5 -13l38.5 -9.5t39.5 -11.5 l38.5 -18t37.5 -20h-1q31 -19 55.5 -42t45.5 -51q12 -16 17.5 -25.5t12.5 -20.5l3 -6q44 -88 44 -187q0 -178 -118 -299q-105 -105 -302 -115h1q-8 -1 -17 -1h-18q-16 0 -89 1t-220 4z" />
<glyph unicode="Q" horiz-adv-x="1536" d="M899 209q11 -11 34 47q7 18 11.5 34.5t4.5 25.5q0 15 -7 18q-8 5 -15.5 6.5t-15.5 1.5q-9 0 -22 -5h1q-21 -8 -19 -54q1 -47 28 -74zM284 175q-23 23 -39.5 44t-30.5 41q-57 81 -90 178t-41 208v-1q-3 35 -3 74v19v12q0 7 1 12q5 84 24 159t53 146q47 94 118 168h-1 q25 26 54.5 50.5t58.5 42.5q84 54 179.5 82.5t200.5 28.5q89 0 173 -22t157 -64q42 -25 82.5 -55.5t73.5 -65.5h-1q72 -76 115 -167q67 -137 76 -307q1 -10 1 -21v-19q0 -38 -3 -73v1q-6 -91 -28.5 -170t-64.5 -151q-93 -158 -243 -243q32 -43 64.5 -75t66.5 -55 q46 -29 104.5 -52t121.5 -34q-4 -11 -11 -32t-11 -31l-10.5 -28t-11.5 -28q-160 34 -245 76q-43 22 -71 38.5t-40 28.5l-7 7v-1l-20.5 19t-23.5 21l-29 25t-38 31l-48 43l-50 46q-52 52 -75 118q-18 59 -21 62q3 130 75 181h-1q33 23 71 23q46 0 98 -36q67 -46 67 -106 q0 -12 -2.5 -24t-9.5 -26q-13 -30 -15 -50q33 39 62.5 91.5t52.5 113t36.5 128.5t13.5 138q0 199 -64 342q-26 54 -66 104t-87 79q-94 62 -220 62q-186 0 -302 -128q-134 -146 -134 -446q0 -294 153 -470z" />
<glyph unicode="R" horiz-adv-x="1422" d="M418 776q12 0 25 -0.5t24 -0.5h60q48 0 92.5 3t89.5 8q98 11 152 41q57 32 85 82t28 112q0 90 -49 143q-18 23 -47 42q-56 38 -139 46q-37 2 -75.5 3.5t-76.5 1.5q-39 0 -80.5 -1.5t-88.5 -6.5v-473zM1293 241l27.5 -46.5l27.5 -46.5l20 -34.5l23 -40l23.5 -40 l19.5 -33.5h-339l-190 280q-46 71 -84 123t-71.5 91.5t-64.5 70.5t-64 58q-15 2 -30.5 1.5t-33.5 -0.5h-89q-17 0 -25 0.5t-25 0.5v-331q0 -48 2.5 -86t9.5 -64q16 -32 50 -52q10 -11 16 -25q3 -5 8 -12t8 -13v-42h-415v42q3 6 7.5 13l7.5 12l7.5 12l7.5 12q18 9 32.5 24.5 t22.5 35.5q9 53 9 144v862q0 48 -2 84t-9 62q-12 12 -40 12h-43v97h496q47 0 89.5 -1t81.5 -3q89 -4 151 -17q36 -9 68 -20.5t59 -28.5l-3 1q70 -34 113 -100l-1 1q69 -91 69 -217q0 -66 -22 -125.5t-61 -107.5q-44 -51 -105 -86t-153 -55q26 -25 50.5 -52l47.5 -54 l75.5 -92.5t72.5 -98.5l-1 1q23 -31 41.5 -51.5t34.5 -30.5q28 -18 79 -24z" />
<glyph unicode="S" horiz-adv-x="1252" d="M925 1412q23 -9 44.5 -19t43.5 -24q34 -90 51.5 -192.5t19.5 -217.5q-6 0 -15.5 -0.5t-20 -1.5t-20.5 -1.5t-17 -0.5l-36 -2.5t-36 -3.5q-8 60 -20.5 106.5t-29.5 76.5q-46 77 -130 113q-29 14 -61 21t-70 9q-10 1 -18 1h-16h-16t-16 -1q-101 -4 -158 -55 q-65 -57 -65 -131q0 -10 5 -27q4 -29 19 -52q5 -9 12.5 -18.5t18.5 -18.5h-1q60 -55 264 -131q7 -2 13.5 -3t12.5 -3q2 -1 4 -1.5t15 -2.5q154 -60 230 -103v1q12 -8 26 -16t29 -18q81 -59 121.5 -136t40.5 -171v-17q0 -7 -1 -13q-6 -89 -55 -170q-16 -26 -36.5 -49.5 t-45.5 -47.5q-47 -41 -110 -71q-108 -48 -243 -48q-34 0 -67 2.5t-62 6.5q-67 7 -157 41q-51 20 -91.5 45t-67.5 51q-4 -6 -8 -33h-56v82q-37 140 -38 310q13 1 35 2.5l36 2.5t36 2t36 3q11 -69 27 -120t36 -85q21 -32 54 -59.5t75 -47.5h-1q90 -42 199 -42h5q119 0 197 55 q42 29 64.5 66.5t22.5 82.5v5q0 52 -32 98t-96 81q-24 12 -86 38l-143 58l-71 28.5t-68.5 29t-60 28t-45.5 24.5q-30 18 -49 33q-150 114 -150 288q0 115 65 208l20.5 26t22.5 25q26 26 58.5 48t67.5 38q48 20 106 32t118 12h17q4 0 8 -0.5t8 -0.5q53 -2 102 -12.5t98 -27.5 q23 -9 37.5 -14t24.5 -8q4 1 7.5 5t6.5 17z" />
<glyph unicode="T" horiz-adv-x="1251" d="M1200 1412q2 -30 3 -70t2 -70q0 -15 0.5 -32.5t1.5 -36t1.5 -37t0.5 -33.5h-81q-21 47 -43 63q-34 26 -77.5 38.5t-105.5 12.5h-161v-987q0 -47 3 -79t8 -53q13 -27 45 -39h36v-89h-412v89h38q31 12 45 42q5 24 7.5 56t2.5 73v987h-148q-37 0 -67.5 -2t-54.5 -5l3 1 q-37 -8 -67 -33.5t-48 -74.5h-82q1 15 1.5 33.5t1.5 37t1.5 36t0.5 32.5q1 30 2 70t2 70h1141z" />
<glyph unicode="U" horiz-adv-x="1479" d="M1103 1314q-14 28 -53 45l3 16l-1 -1v38h335v-76l-7.5 -9.5t-7.5 -10.5q-3 -5 -7 -9t-7 -9q-17 -14 -31.5 -38.5t-25.5 -51.5q-9 -45 -9 -127v-490q0 -105 -11 -187t-34 -144q-2 -4 -2.5 -7t-5.5 -12l1 3l-2 -4l-2 -4q-46 -93 -135 -161l-23 -16t-28 -18 q-60 -35 -137.5 -51.5t-172.5 -16.5q-106 0 -190.5 18t-147.5 56q-62 38 -107 89.5t-72 120.5q-43 113 -43 348v480q0 54 -4 96t-12 74v-1q-7 20 -18.5 38.5t-24.5 30.5h-37v89h418v-89h-37q-17 -14 -28 -33t-19 -43v1q-12 -43 -12 -131v-541q0 -66 6.5 -120.5t17.5 -99.5 q23 -88 79 -135q38 -38 94.5 -60.5t134.5 -22.5q125 0 210 43q58 28 92 70q8 10 15 20t13 22q47 90 47 303v553q0 101 -12 165z" />
<glyph unicode="V" horiz-adv-x="1422" d="M1407 1412q-3 -16 -6 -30t-6 -22q-2 -7 -5 -16.5t-5 -17.5q-45 -27 -67 -57l1 1q-19 -29 -37.5 -63.5t-34.5 -77.5l-130.5 -323.5l-129.5 -322.5l-48 -122l-50.5 -127l-51 -127l-48.5 -122h-141l-230.5 557.5l-229.5 556.5l-30 71.5t-24 53.5l1 -1q-18 30 -42.5 55 t-64.5 47q-4 15 -7 29.5t-6 24.5q-1 3 -4 16t-3 17h410q4 -12 9 -30t9 -30q2 -6 4 -15t5 -19.5l5.5 -20t3.5 -15.5q-26 -3 -42 -5.5t-22 -4.5q1 -18 4.5 -40t8.5 -46q7 -30 18.5 -66t29.5 -80h-1l19 -45.5l30 -74l37 -92.5l41 -102l40 -102l36.5 -92.5l29 -74t18.5 -45.5 q9 -22 14 -35.5l9 -25l8.5 -24l11.5 -32.5l20.5 58l21.5 58l82.5 211.5l81.5 210.5l55 142l55 143q37 95 49 144l-1 -4q0 17 -45 26h-1h-5t-10.5 0.5t-10.5 0.5h-5l38 127h338z" />
<glyph unicode="W" horiz-adv-x="1933" d="M1911 1412q-1 -4 -2 -12t-2.5 -16.5l-3 -16.5t-2.5 -12q-2 -8 -4.5 -21.5t-4.5 -22.5q-31 -12 -50 -31.5t-35 -53.5l1 2q-12 -32 -26 -75l-31 -100l-81.5 -264l-81.5 -263l-84.5 -269.5l-84.5 -271.5h-139l-72.5 235.5l-72.5 234.5l-141 456l-11.5 40.5l-10.5 34.5 q-6 -20 -11 -39t-10 -36l-102 -329.5l-102 -329.5l-41.5 -133l-41.5 -134h-143l-97 315l-120.5 383.5l-120.5 385.5l-16.5 53l-14.5 47q-7 20 -11.5 36t-9.5 30q-12 26 -31.5 45t-52.5 31q-2 9 -4.5 22.5t-5.5 28t-5 28t-4 22.5h381q1 -4 2.5 -15t2.5 -15q2 -13 5 -37t5 -37 h-28q-15 -8 -21.5 -23t-6.5 -35q0 -1 0.5 -2t0.5 -3v-1q6 -33 16 -75.5t26 -93.5l34 -118l35 -116l54 -181.5l54 -182.5l10.5 -37.5t6 -23l5.5 -23l9 -37.5q9 38 17 65t13 41v-1q2 8 5 16t5 16l73.5 236.5l75.5 233.5q1 19 1.5 36.5t1.5 36.5l2 38l2 38q0 11 -0.5 22.5 t-0.5 23.5v22t-1 22v-1q-2 25 -4 45l-4 41q-2 3 -9 8q-11 7 -19 10q-3 1 -14.5 1.5t-32.5 0.5q1 2 3.5 15.5t2.5 18.5v-1q2 7 4 16.5l4 19.5l4 19.5t3 16.5h404q2 -9 4.5 -23t5.5 -29l6 -29t4 -22h-37q-13 -8 -19.5 -22t-6.5 -32q0 -10 1 -13q7 -35 18.5 -78t28.5 -95 l31.5 -96l30.5 -96l30.5 -96.5l30.5 -96.5l29.5 -93.5l23 -77.5l20.5 -75t21 -87q2 7 3.5 14.5t3.5 13.5l21 77.5l22 80.5l43 145.5l42 144.5l41.5 144.5l42.5 145.5l25.5 93.5t16.5 78.5q-2 10 -10 14q-7 3 -24 4t-43 1l2.5 12.5t3 16t2.5 16t2 11.5q2 8 4 24t4 24h332z " />
<glyph unicode="X" horiz-adv-x="1422" d="M932 914q-15 -23 -29 -47l-28 -47l-26.5 -40.5t-25.5 -42.5l79 -114.5l80 -115.5l54 -80l55 -80l87.5 -119t74.5 -94q20 -20 46 -36t55 -28q2 -5 6 -13.5t6 -13.5q1 -3 1.5 -2.5t1.5 -2.5t3.5 -12l8.5 -30h-437q-5 8 -11 22t-11 23q-3 7 -8 16t-10 20q14 23 14 42v16 q10 5 16.5 10t7.5 8q-4 8 -8.5 18t-9.5 20q-1 2 -2 2l-1 2q-18 29 -51 78l-156 228l-12.5 19l-10.5 15.5l-10.5 16l-14.5 21.5q-5 -8 -10 -15l-10 -14q-11 -15 -19.5 -28.5t-16.5 -24.5l-47 -62.5l-47 -62.5l-47.5 -63l-47.5 -63q-36 -48 -54 -78q-2 -2 -2.5 -4.5t-2.5 -4.5 l1 1l-9 -16.5t-5 -10.5v-6q0 -10 12 -17.5t47 -13.5l-27 -53l-10 -20.5t-11 -20.5h-385l12 36l1 3q-1 0 0 2t4 9t12 23q20 8 33 16l27 16l-2 -2l52 46.5t51 49.5q25 25 51.5 56.5t55.5 69.5q8 9 23.5 28.5l36 46.5l45 59.5l49.5 65.5l48 64.5l42.5 56l33.5 43.5l21 27 l-41 60l-42 60l-79 114.5l-80 114.5v-1l-88 118t-77 89q-29 28 -73.5 63l-102.5 78h627l-1 -123q-35 -9 -54 -39q-8 -12 -8 -39q0 -14 2.5 -32t7.5 -39l2 -9q0 -16 21 -46q8 -14 16 -25l30.5 -45.5l26.5 -39l25 -37l26 -40.5l47.5 64.5l50.5 66.5l29.5 38l29.5 37 q14 20 29 38.5l29 36.5q17 20 29.5 38l23.5 35v-1q5 8 8.5 16t7.5 16q0 3 -2 3q-2 2 -6 5t-12 6q-4 13 -45 28q5 8 13 24l12 24t10.5 20l10.5 19h371q0 -1 -1.5 -6.5l-3 -11l-3 -10.5t-1.5 -7q-7 -20 -18 -40q-20 -7 -35.5 -14.5t-25.5 -14.5l-40 -33.5t-37 -36.5l1 2 l-121 -154l-129 -168h1z" />
<glyph unicode="Y" horiz-adv-x="1422" d="M1027 1387q9 9 13 12t14 13h353q-1 -6 -5 -17l-8.5 -23.5l-8.5 -23l-6 -15.5h-18q-2 -2 -3 -2q-13 -11 -27.5 -22t-32.5 -26q-20 -16 -37.5 -34.5t-34.5 -38.5l1 1q-39 -51 -93 -132l-35 -52.5l-57.5 -86l-68.5 -103l-68.5 -103.5l-57 -86.5l-34.5 -52.5v-335 q0 -49 3 -84t9 -60q7 -14 19.5 -22t31.5 -15q11 -11 17.5 -19l12.5 -16v-44h-413v82h42q13 5 24 14.5t17 20.5q5 26 7.5 62t2.5 81v326l-90 137.5l-91 136.5l-91.5 138.5l-92.5 139.5q-27 42 -48.5 72.5t-38.5 52.5q-11 16 -29.5 33.5t-41.5 34.5q-10 2 -31 2l-6 15.5 l-8.5 23t-8 23.5l-5.5 17h435l19 -39t17 -38l2 -7q2 -4 4 -12.5t4.5 -17.5t5 -17t3.5 -12q-41 0 -58 -9l1 1q-8 -6 -9 -13q10 -23 27.5 -53t41.5 -67q11 -18 23 -35.5l24 -35.5q11 -19 23 -37t23 -37v1l18.5 -28t17.5 -28l53 -85l53 -86l68.5 110.5l73.5 116.5l25 37l24 36 l27.5 43l27.5 43q48 75 69 129l-1 -4q3 14 5 25t2 19q0 29 -23 45z" />
<glyph unicode="Z" horiz-adv-x="1251" d="M1188 1412l-16 -51.5l-16 -51.5l-12.5 -39.5l-12.5 -40.5l-369 -489l-371 -489l-17.5 -23.5l-15 -20l-15.5 -20.5l-19 -25h534q48 0 88.5 6t74.5 20q29 27 53 113h31q20 0 31 -1q12 -1 33.5 -1.5t33.5 -1.5l-4.5 -35.5t-4.5 -39.5t-4.5 -39.5l-4.5 -35.5q-4 -32 -8.5 -73 t-8.5 -74h-1139v131l699 930l73 96.5l71 91.5h-411q-43 0 -80 -2.5t-69 -8.5q-17 -8 -26 -24q-5 -9 -10 -32.5l-12 -57.5h-135q2 31 3.5 68t4 75t4.5 75.5t3 69.5h1044z" />
<glyph unicode="[" horiz-adv-x="625" d="M586 -395h-447v1821h447v-150h-247v-1522h247v-149z" />
<glyph unicode="\" horiz-adv-x="569" d="M133 1455l168 -545l168 -543l60.5 -196.5l60.5 -195.5h-150l-101 325l-100 325l-62.5 203.5l-65.5 210.5l-65.5 211l-63.5 205h151z" />
<glyph unicode="]" horiz-adv-x="625" d="M43 1426h446v-1822h-446v150h246v1522h-246v150z" />
<glyph unicode="^" horiz-adv-x="961" d="M535 1437l400 -777h-178l-74.5 149.5l-75.5 148.5l-33 66.5l-30 60.5l-30.5 60.5l-33.5 66.5l-99 -197.5l-98 -197.5l-38.5 -78l-38.5 -79h-181l50 97.5l52.5 102l52.5 101.5l50 96l98 189.5l98 190.5h109z" />
<glyph unicode="_" d="M1106 -412h-1134v143h1134v-143z" />
<glyph unicode="`" horiz-adv-x="682" d="M355 1089l-67 79.5l-67 79.5l-155 184h281q14 -38 32 -82t32 -82q8 -19 16.5 -42.5l17.5 -47.5l18 -47l16 -42h-124z" />
<glyph unicode="a" horiz-adv-x="1024" d="M434 143q64 0 121.5 30.5t104.5 89.5q7 42 10.5 89.5t3.5 102.5v60q-46 -17 -97.5 -32t-103.5 -26l1 1l-25 -7t-20 -5h1q-27 -11 -48 -21.5t-35 -21.5q-67 -45 -67 -117q0 -69 52 -109q43 -34 102 -34zM767 -9q-32 15 -53.5 42.5t-29.5 75.5q-31 -24 -60 -42t-55 -31h1 q-32 -17 -61.5 -28t-56.5 -16l2 1q-10 -2 -14 -3t-9 -2t-10.5 -2l-11.5 -2q-8 -2 -19 -2h-20h-8q-17 0 -31 1t-28 3h1q-95 12 -156 71q-72 69 -80 177q-1 5 -1 12v13v13t1 12q2 26 8 49.5t16 45.5q21 44 57.5 80t86.5 66q35 23 82 37h-1q27 11 61 20l78 20q65 13 119.5 26 t98.5 28v27q0 80 -27 122q-20 32 -51 50q-33 21 -86 26q-9 1 -19 1.5t-18 0.5h-15q-31 -2 -55.5 -9.5t-43.5 -22.5q-21 -18 -27 -41q-2 -11 -4.5 -22t-4.5 -22q-5 -26 -17.5 -51.5t-28.5 -51.5h-20q-3 0 -5.5 -0.5t-5.5 -0.5q-5 0 -10 0.5t-10 0.5h-21t-20 1q-2 1 -6 1 q-3 0 -6 1h2l-23.5 4t-27.5 7q-20 34 -20 73q0 2 0.5 3t0.5 3v9q7 36 21.5 68.5t38.5 61.5q17 20 36 36q50 41 121 65.5t159 27.5q5 0 8.5 0.5t7.5 0.5h30q4 0 8 -0.5t8 -0.5q48 -2 88 -9.5t72 -18.5h-5h4q14 -6 24.5 -11t19.5 -10l-1 1q25 -13 45.5 -31.5t37.5 -39.5 q37 -46 48 -135v1q3 -19 3 -49q2 -18 2 -42v-47v-243q0 -73 1.5 -121.5t3.5 -77.5v1q2 -15 4.5 -23.5t5.5 -13.5q12 9 62 59q5 -41 13 -75.5t18 -61.5q-117 -86 -222 -86z" />
<glyph unicode="b" d="M443 813q-15 -8 -32.5 -23.5t-39.5 -37.5q-20 -56 -29 -122.5t-9 -144.5t4.5 -141.5t18.5 -116.5q42 -54 91.5 -80t107.5 -26q92 0 168 91q75 92 75 278q0 179 -74 268q-72 87 -169 87q-61 0 -112 -32zM339 900q115 125 262 125q14 0 25 -0.5t25 -3.5q72 -10 135 -43 t111 -92q6 -8 12 -17.5t14 -25.5q88 -128 88 -318q0 -259 -151 -410q-137 -140 -322 -140q-73 0 -124 43v-32q-140 0 -281 65v857q0 65 -1 114.5t-3 87.5q-7 85 -29 132v-1q-12 25 -35 48q-1 10 -2 22t-2 21q-1 8 -2 17t-5 34q23 8 53 17t53 15l46.5 14.5l45.5 14.5h87v-544 z" />
<glyph unicode="c" horiz-adv-x="966" d="M814 404q14 -2 26 -4.5t25 -4.5q12 -2 34 -6.5t35 -7.5q-36 -202 -153 -304q-115 -102 -271 -102q-97 0 -175.5 34t-141.5 105q-126 136 -126 384q0 79 14.5 148t42.5 129v-1q29 62 72 109q36 39 81 66h-1q115 76 258 76q85 0 153 -24.5t120 -69.5q90 -81 105 -200 q-20 -27 -51 -45t-71 -20h-7q-2 0 -3 -0.5t-3 -0.5q-40 0 -77 22q-11 35 -22 62.5t-22 51.5q-12 35 -36 54l1 -1q-41 28 -100 28q-104 0 -171 -76q-8 -10 -13 -22q-52 -75 -60 -195q-1 -11 -1.5 -22.5t-0.5 -22.5q0 -89 19.5 -160t54.5 -122q64 -85 169 -97q7 -2 11 -2h9h7 q17 0 36 3q76 10 134 67h-1q49 54 79 156z" />
<glyph unicode="d" d="M573 144q73 11 131 75q39 111 39 266q0 89 -6 173v-1q-5 40 -17.5 73t-30.5 59q-32 48 -77 71.5t-94 23.5q-92 0 -160 -78q-4 -4 -5.5 -6.5l-4.5 -7.5q-1 -1 -1.5 -3t-1.5 -3q-65 -94 -65 -267q0 -188 80 -286q69 -81 157 -91q5 -1 9 -1h9q17 0 38 3zM741 82 q-91 -96 -219 -103h-3q-6 -1 -13.5 -1.5t-15.5 -0.5q-18 0 -34 2l-33 4q-33 5 -66 15.5t-62 26.5t-58 40t-53 52q-54 63 -84.5 145t-35.5 180v-1q-1 8 -1 16v18v22t1 22q5 75 27.5 148.5t58.5 138.5l9 18t6 13q25 38 55 69t68 55q100 65 228 65q72 0 123.5 -18.5t96.5 -61.5 v67q0 54 -1 91.5t-3 63.5q-3 32 -9.5 52t-17.5 34l1 -2q-10 13 -38 23l-3 54q-1 11 -2 27.5t-3 26.5q20 8 48 17l48 15l41.5 14.5l42.5 14.5h102v-998q0 -67 1 -117t3 -86q2 -25 7.5 -46t13.5 -36l17 5t24 8q1 -5 2 -14.5t1.5 -19.5t1.5 -19t1 -15l4 -60l-54.5 -16 t-54.5 -15l-48.5 -14.5l-49.5 -14.5h-70v96z" />
<glyph unicode="e" horiz-adv-x="1024" d="M726 653q-4 35 -10.5 60.5t-14.5 45.5q-10 21 -28 44q-32 38 -74.5 57.5t-90.5 19.5q-92 0 -160 -66q-31 -30 -50 -69.5t-25 -91.5h453zM267 514q9 -166 90 -254v1q74 -80 170 -90q18 -3 34 -3q26 0 58 8q66 11 114.5 58.5t85.5 146.5q14 -3 35 -7t35 -7q13 -3 35.5 -7.5 l36.5 -7.5q-34 -157 -126 -255q-117 -122 -307 -122q-204 0 -332 137q-129 137 -129 378q0 254 131 394q132 142 336 142q93 0 170 -32.5t137 -93.5q49 -54 78 -127.5t36 -163.5v2q2 -17 3.5 -40.5t1.5 -56.5h-693z" />
<glyph unicode="f" horiz-adv-x="625" d="M409 859v-567q0 -42 3.5 -73.5t9.5 -51.5q8 -14 17.5 -25.5t18.5 -16.5q6 -5 14 -11t13 -11t13 -11.5t13 -11.5v-80h-392v43q3 5 7 11t7 11q3 6 6 10.5t5 9.5q11 5 19.5 10.5t14.5 13.5q5 11 11 26t8 26q6 44 6 114v584h-164v142h164v37q0 23 1.5 47t3.5 44 q2 36 8.5 66.5t15.5 57.5q1 2 0 2l1 2q3 7 7.5 16.5t7.5 14.5q37 69 104 114q42 26 90.5 39t108.5 13q47 0 94.5 -11t95.5 -34q28 -45 28 -87v-11q-3 -31 -21 -66q-22 -28 -42 -38q-36 5 -72 15q-10 4 -23.5 14.5t-27.5 24.5q-30 20 -56 26q-5 1 -10.5 1.5t-8.5 0.5 q-14 0 -31 -6q-19 0 -30 -8l1 1q-20 -15 -29 -51q-5 -23 -7 -68q-3 -49 -3 -128v-28h216v-142h-216z" />
<glyph unicode="g" d="M530 154q53 0 94.5 21t78.5 68q20 57 30 126t10 150q0 35 -2 71.5l-4 70.5q-8 65 -29 109q-6 13 -15 25t-20 21q-30 32 -68 49.5t-83 17.5q-102 0 -176 -87q-74 -91 -74 -278q0 -181 77 -275q77 -89 181 -89zM941 1014v-1121q0 -35 2 -64t6 -55q-15 -8 -25.5 -12.5 t-16.5 -6.5q-3 -1 -1 0.5t-1 -0.5q-2 -5 -4 -8.5t-4 -6.5l-3 -6q-12 -21 -31.5 -40.5t-40.5 -36.5q-53 -39 -119.5 -61t-140.5 -22q-114 0 -220 38q-35 13 -48 16q-6 2 -10.5 3t-9.5 1q-1 0 -13 -3q-28 12 -49 26q-17 66 -28 138t-18 150q13 1 31.5 3.5l38.5 5l39 5t32 4.5 q12 -63 31.5 -109t49.5 -74q66 -65 174 -65q74 0 117 29q13 8 24 23q12 12 20 27.5t12 31.5v275q-12 -11 -26.5 -22.5t-28.5 -19.5q-34 -24 -68 -40.5t-67 -22.5l1 1q-43 -13 -90 -13q-134 0 -245 105q-14 14 -28 29.5t-26 34.5v-1q-95 129 -95 335q0 158 59 281v-1 q15 33 36.5 63.5t44.5 56.5q16 18 33 32t35 27q114 81 258 81q147 0 242 -98l22.5 44t20.5 43h128z" />
<glyph unicode="h" d="M323 1435l10 -13.5t16 -17.5v-513q42 44 78.5 69t76.5 40l-1 -1q32 14 64.5 20t65.5 6h16t14 -1q45 -2 84 -15.5t73 -39.5h-1q69 -47 98 -127q15 -36 22 -95.5t7 -141.5v-322q0 -32 2 -60t4 -49q5 -21 16.5 -38.5t43.5 -31.5v-104h-346v84h28q20 11 29.5 30t13.5 43 q1 17 1 43v56v295v50t-1 47q-2 90 -25 131q-29 63 -109 71h-8q-2 0 -5 0.5t-6 0.5q-7 0 -13 -0.5t-13 -1.5h-4q-13 -2 -24.5 -5t-20.5 -5q-23 -8 -48.5 -23.5t-51.5 -39.5q-32 -43 -46 -99.5t-14 -139.5v-247q0 -36 1 -63.5t4 -47.5q2 -18 7 -35.5l10 -33.5q12 -16 50 -31 v-79h-347v85q40 0 51 4q3 14 6 29.5t5 34.5q6 42 6 110v745q0 61 -1 104t-3 75q-4 28 -9.5 46t-16.5 30q-6 8 -36 18q-4 22 -4.5 32t-1.5 19t-2 26.5t-2 25.5q28 8 63.5 16.5t63.5 14.5l55 14l55 14z" />
<glyph unicode="i" horiz-adv-x="512" d="M320 1436q22 -28 38 -72t16 -98q-28 -25 -71.5 -43t-95.5 -18q-24 31 -41.5 77t-17.5 101q28 25 68.5 43t88.5 18zM341 1004q2 -4 4.5 -7.5t6.5 -8.5q4 -4 7 -8.5t6 -7.5v-645q0 -53 6 -82q6 -28 15 -46l-1 1q9 -15 47 -33v-167h-342v138q39 19 45 32q12 23 17 46l-1 -1 q3 14 5 35t2 47v275q0 45 -1.5 80t-3.5 56q-2 17 -7.5 27t-13.5 16q-9 9 -19.5 15t-22.5 11q-1 20 -1.5 44t-1.5 43t-2 45.5t-3 44.5q28 8 63 16.5t63 14.5l55.5 14l55.5 14z" />
<glyph unicode="j" horiz-adv-x="512" d="M316 1436q22 -28 37.5 -72.5t15.5 -99.5q-28 -25 -71 -43t-95 -18q-24 31 -42 77.5t-18 102.5q28 25 69 43t88 18zM336 1006l5.5 -7.5l5.5 -7.5q6 -7 14 -22v-908q0 -26 -0.5 -52t-1.5 -52q-4 -90 -24 -158.5t-52 -110.5q-43 -54 -104.5 -83t-142.5 -29q-43 0 -80 7 t-69 24q-12 42 -12 79q0 13 1 24.5t4 25.5q18 19 45 32.5t54 13.5q19 0 34 -9q8 -3 16 -9t19 -17q22 -8 37 -8q12 0 25 9q12 0 16 4q11 11 18 39v-1q8 34 10 117v659q0 60 -1 104.5t-3 79.5q-4 28 -9.5 46t-16.5 31q-10 11 -37 21q-1 11 -2 26t-2 25t-3 27.5t-4 26.5 q28 8 64.5 17t64.5 15l55.5 14l55.5 14z" />
<glyph unicode="k" horiz-adv-x="1024" d="M325 1434q-3 5 -2.5 4.5t2.5 -3t4.5 -6t3.5 -5.5q5 -5 9 -10t9 -13v-781l57 54l57 54l34.5 34.5l35.5 34.5l49 47l33 34q5 5 9 11l8 12q-5 2 -17.5 3.5t-32.5 3.5q3 3 9 11t13 16.5t12.5 16.5t8.5 12q5 8 13 18.5t13 18.5h351l-41 -71q-63 -19 -108 -51v1 q-26 -18 -54.5 -42.5l-60.5 -53.5h1l-96 -90l-43 -40l-43 -40l67 -93l68 -92l78 -108q7 -10 23.5 -31.5l34.5 -44.5l33 -42.5t20 -25.5h-1q19 -23 36.5 -41.5t33.5 -32.5q11 -8 25.5 -14.5t35.5 -12.5l12 -33t18 -43h-366l-26 54q-2 3 -5.5 9.5t-7 14l-6.5 14t-5 9.5 q26 3 32.5 3.5t8.5 0.5q-8 15 -19 33.5t-26 38.5l-61.5 85.5l-60.5 85.5l-27 38.5l-23 32l-23 31.5l-27 37l-10 -32l-10 -33l-15 -50.5l-15 -50.5q0 -70 6 -109q3 -22 7 -41t9 -35v1q5 -14 17.5 -30t32.5 -32v-75h-353v85q20 0 34 1t21 3q4 14 7 28.5t5 32.5q4 23 5 50t1 60 v748v104q0 45 -2 75q-4 28 -10.5 46.5t-19.5 32.5q-3 6 -31 15q-1 5 -2 16t-2 15q-2 14 -4 36t-4 36q28 8 63 16.5t63 14.5l55 14l55 14z" />
<glyph unicode="l" horiz-adv-x="512" d="M348 1417q3 -4 7 -11l7 -12v-1007q0 -54 6 -86q3 -16 7 -29t9 -24q11 -20 50 -38v-210h-345v155q36 22 43 40q5 9 8.5 22l7.5 29q7 32 7 88v618q0 50 -1 85.5t-3 58.5q-2 21 -8.5 34t-14.5 20q-6 9 -16 16t-23 13q-1 23 -2 50.5t-2 50.5t-2 52.5t-3 51.5q28 8 62.5 16.5 t62.5 14.5l62 15.5l62 15.5z" />
<glyph unicode="m" horiz-adv-x="1649" d="M349 878q27 29 49.5 49.5t42.5 32.5q32 20 70.5 35t76.5 21q16 3 33 4t34 1h19q11 0 21 -1q75 -9 129 -49.5t82 -109.5q76 89 149 126q37 20 77 29t82 9q93 0 160.5 -40t105.5 -125q14 -36 22.5 -85t8.5 -109v-413q0 -61 6 -99q5 -24 18 -45.5t43 -38.5v-70h-346v80h29 q19 0 29 5q4 13 7 28t5 31q2 13 2 29v38v451q-1 34 -4 59.5t-10 43.5q-8 23 -25 43v-1q-33 36 -87 42q-8 1 -15.5 1.5t-13.5 0.5q-45 0 -93 -23q-43 -20 -89 -66q-5 -6 -9.5 -14t-7.5 -14q-3 -12 -5.5 -26t-4.5 -29q-2 -24 -3 -49t-1 -50v-345q0 -39 1 -69.5t4 -53.5v1 q2 -8 4.5 -15t7.5 -15q11 -3 55 -3v-80h-351v79q24 0 36 0.5t18 2.5q5 12 9.5 28t6.5 30q1 16 1.5 39.5t0.5 52.5v415q0 55 -8.5 93.5t-24.5 62.5v-1q-35 46 -95 50h-22h-9t-11 -2q-17 -2 -31 -5.5t-28 -8.5l1 1q-38 -17 -75 -43q-18 -13 -31.5 -28t-21.5 -35 q-15 -90 -15 -211v-266q0 -63 6 -98v1q4 -20 7.5 -34t8.5 -27q6 -5 19.5 -11t31.5 -11v-74h-347v73q17 6 29 12.5t16 12.5q6 13 9.5 26.5t6.5 33.5q4 20 5.5 43.5t1.5 53.5v349q0 61 -1.5 106t-3.5 78q-2 20 -7 33t-12 21q-13 -3 -42 -15q0 6 -1 15.5t-1.5 19.5t-1.5 19.5 t-1 15.5l-2.5 28.5t-3.5 27.5q25 8 57 17t56 15l50 14.5l50 14.5h61v-136z" />
<glyph unicode="n" d="M340 881q57 63 126.5 98.5t141.5 43.5q6 1 14 1.5t15 0.5h10q2 0 5.5 -0.5t5.5 -0.5q83 -3 145 -46l-1 1q64 -39 98 -103l-1 1q14 -26 24.5 -56t15.5 -68v1q4 -20 5 -52t1 -75v-360q0 -32 2 -58t4 -46q3 -17 7.5 -33t9.5 -31q12 -13 45 -24v-75h-347v81h24q23 15 32.5 38 t13.5 53q1 16 1.5 40t0.5 53v352v11t-1 11q-1 31 -3 54.5t-7 40.5q-14 58 -51 87.5t-95 29.5q-103 0 -197 -91q-17 -42 -26.5 -98.5t-9.5 -125.5v-252q0 -33 1.5 -57.5t3.5 -41.5v1q8 -39 18 -65q5 -5 18 -11t31 -12v-98h-346v81h23q12 9 20.5 23t12.5 28l-1 -1 q12 56 12 137v287q0 60 -1 101t-3 70q-3 26 -9 42t-18 27q-12 23 -35 44q-1 11 -2.5 26t-2.5 26l-2.5 31.5t-3.5 30.5l106.5 30.5l107.5 30.5h62v-133z" />
<glyph unicode="o" d="M523 882q-64 0 -119 -34h1q-17 -11 -32.5 -26t-30.5 -35l1 1q-25 -37 -40 -88t-19 -117q0 -5 -0.5 -10t-0.5 -10q-1 -10 -1.5 -20.5t-0.5 -21.5q0 -2 0.5 -4.5t0.5 -5.5v-11q6 -167 78 -269q77 -111 195 -111q49 0 93 22t78 59q28 36 45 93.5t21 132.5q1 16 1.5 30.5 t0.5 31.5v23q-8 183 -89 281q-71 89 -182 89zM539 1025q107 0 195 -39t156 -114q61 -70 93 -159.5t32 -196.5q0 -161 -62 -287q-30 -62 -74 -109t-100 -80q-109 -65 -246 -65q-106 0 -195 40.5t-155 115.5q-60 72 -91 163.5t-31 201.5q0 74 16 143.5t46 131.5q20 39 47.5 77 t57.5 64q32 26 69 49q109 64 242 64z" />
<glyph unicode="p" d="M471 825q-40 -21 -97 -84q-40 -118 -40 -281v-33q0 -15 1 -32q2 -42 5.5 -75.5t10.5 -53.5q11 -34 29.5 -60t44.5 -48v1q54 -44 131 -44q99 0 165 80l-1 -1q38 48 57.5 117.5t19.5 163.5q0 89 -17.5 157.5t-50.5 117.5v-1q-6 8 -14.5 18t-19.5 21h1q-58 59 -136 59 q-24 0 -46.5 -5t-42.5 -17zM71 935q11 11 19 15q1 1 2 1t3 2l171 59h68v-131q48 60 100 92.5t120 42.5h-1q17 3 33 4t34 1q13 0 27 -0.5t25 -2.5q64 -9 123 -42q50 -29 91 -76q20 -23 40 -54t34 -62q22 -53 35.5 -112t15.5 -121q0 -4 0.5 -8.5t0.5 -8.5v-30q0 -4 -0.5 -7.5 t-0.5 -8.5q-3 -72 -20 -139t-44 -125q-24 -50 -61 -95q-48 -59 -110 -96q-42 -23 -87.5 -37.5t-93.5 -18.5q-5 -1 -13 -1h-15q-11 0 -21 0.5t-18 1.5q-14 1 -29.5 3t-29.5 7l1 -1q-75 17 -129 65v-201q0 -71 6 -111v1q2 -11 5.5 -20t7.5 -17q7 -2 21 -2h36v-113h-360v88h27 q9 6 18.5 15t19.5 23q8 5 6 5q-1 0 1 2q2 21 3.5 49.5t1.5 67.5v856q0 35 -1 64t-3 50q-4 14 -11.5 25.5t-19.5 16.5q-6 19 -13.5 33t-16.5 26z" />
<glyph unicode="q" d="M531 154q53 0 94.5 21t78.5 68q20 57 30 126t10 150q0 35 -2 71.5t-5 70.5q-6 64 -28 109q-7 13 -15.5 25t-19.5 21q-30 32 -68 49.5t-84 17.5q-101 0 -175 -87q-74 -91 -74 -278q0 -181 77 -275q77 -89 181 -89zM942 1014v-1121q0 -68 6 -105q4 -38 17 -68 q11 -30 50 -58v-73h-351v107h28q10 0 16 0.5t12 2.5q3 6 5.5 14.5t4.5 19.5v-1q6 40 6 102v265q-12 -11 -26.5 -22.5t-28.5 -19.5q-34 -24 -68 -40.5t-67 -22.5l1 1q-23 -7 -45.5 -10t-44.5 -3q-134 0 -245 105q-14 14 -28 29.5t-26 34.5v-1q-95 129 -95 335q0 158 59 281 v-1q15 33 36.5 63.5t44.5 56.5q16 18 33 32l34 27q116 81 259 81q147 0 242 -98l22.5 44t20.5 43h128z" />
<glyph unicode="r" horiz-adv-x="682" d="M306 1010q3 -2 5.5 -5t5.5 -5q7 -5 17 -18v-98q17 24 31.5 42t30.5 32q24 20 50 34.5t52 21.5q16 5 31 6.5t29 1.5h12t10 -1q28 -3 56 -15.5t56 -32.5q11 -35 11 -58q0 -8 -0.5 -13t-1.5 -13q-6 -37 -27.5 -66.5t-50.5 -46.5q-20 7 -41 15.5t-41 19.5q-17 9 -30.5 14.5 t-23.5 5.5l-2 -2q-15 -3 -20 -5h1q-2 -1 -4.5 -1.5t-6.5 -2.5q-29 -14 -55 -43.5t-43 -74.5q-7 -41 -10.5 -85.5t-3.5 -89.5v-258q0 -56 10 -93q5 -26 21 -48t47 -39v-89h-354v68q36 22 52 49q5 13 9 28.5t6 31.5q3 30 3 87v318q0 61 -1 102.5t-3 70.5q-5 40 -27 59 q-17 23 -38 37q-1 10 -2 24l-2 28l-2 27.5t-1 23.5q27 8 61.5 16.5t61.5 14.5l53.5 14l52.5 14z" />
<glyph unicode="s" horiz-adv-x="910" d="M663 1007q62 -20 98 -59v-57q10 -41 18 -90t13 -109q-13 -2 -35 -4t-34 -4l-68 -8q-14 63 -33.5 104t-45.5 62q-43 37 -119 42q-3 0 -6.5 0.5t-6.5 0.5h-24q-3 0 -6.5 -0.5t-6.5 -0.5q-63 -3 -101 -32h1q-40 -32 -40 -71q0 -37 23 -66l-1 1q19 -24 62 -46l26.5 -11.5 t36.5 -14.5q5 -3 15.5 -6l20.5 -6h-1q5 -2 11 -3.5t11 -2.5l60 -23l58 -22q35 -14 64.5 -27t52.5 -28h-1q67 -38 103 -96t36 -137q0 -86 -46 -159v1q-13 -22 -31.5 -41.5t-39.5 -36.5q-53 -38 -119.5 -60t-139.5 -22q-59 0 -113.5 9t-107.5 29q-17 5 -29.5 9.5t-18.5 6.5 t-10 3t-9 1q1 0 -3.5 -0.5t-10.5 -2.5q-13 6 -25.5 12.5t-22.5 12.5q-18 67 -28.5 138.5t-17.5 149.5q13 2 31.5 4t38.5 5t38.5 5.5t31.5 4.5q12 -63 32 -108.5t50 -73.5q65 -66 174 -66q73 0 116 30q8 6 14 11t11 10q12 14 20 28t11 32q1 6 1.5 12.5t0.5 11.5v7q0 3 -1 8 q-4 40 -40 68q-14 11 -46 25.5t-83 32.5l-58.5 22t-58.5 23q-72 26 -118 50h1q-37 20 -62.5 43.5t-43.5 48.5q-46 64 -46 152q0 59 21.5 109.5t61.5 91.5q17 17 38 32q35 25 84.5 41.5t106.5 19.5q8 1 18 1h19h16q27 -2 53.5 -5t52.5 -9q6 -2 11 -3t8 -2q36 -9 49 -9 q10 0 21 8z" />
<glyph unicode="t" horiz-adv-x="569" d="M356 1341v-340h193v-141h-193v-572q0 -73 14 -96q8 -14 23 -22t38 -8q2 0 6 1t9 3q16 5 36.5 16.5t47.5 34.5q2 -5 6 -13.5l8 -17.5t8 -17t6 -13l11.5 -28t8.5 -22q-38 -51 -82.5 -79t-88.5 -37v1q-13 -3 -24 -4t-22 -1h-7q-2 0 -4 0.5t-4 0.5q-54 4 -97 29 q-52 29 -76 83q-9 23 -15 60.5t-7 85.5q-1 14 -1 33v34v548h-134v118q45 11 88.5 34.5t79.5 56.5v26q4 23 9 49l11 55q2 14 6 33.5t7 36.5z" />
<glyph unicode="u" d="M938 1001v-589q0 -59 1 -103t3 -73q4 -26 10 -43t15 -30q7 -5 16 -9t21 -7q3 -17 4 -28l2 -21q1 -8 2 -25t2 -26l-54 -16.5t-54 -15.5l-48 -14.5l-49 -14.5h-69v137q-87 -97 -177 -126h1q-20 -7 -39.5 -11.5t-42.5 -6.5q-11 -2 -22.5 -3t-23.5 -1q-42 0 -79.5 11 t-72.5 31v-1q-55 29 -86.5 74t-45.5 103q-9 31 -13 77t-4 106v358q0 27 -2 51t-5 44q-3 18 -7.5 34t-10.5 32q-7 6 -20 14t-31 14v78h283v-567q0 -44 1.5 -75t3.5 -53q11 -95 61 -129q40 -28 95 -28q33 0 67 11t73 38q23 16 41.5 33.5t33.5 41.5q8 45 11 95.5t3 108.5v270 q0 59 -14 95q-10 32 -58 60v99h278z" />
<glyph unicode="v" horiz-adv-x="1024" d="M24 980l8.5 5t7.5 4t10.5 6t10.5 6h291q3 -10 7 -26.5t6 -25.5q2 -10 8 -30.5t8 -31.5h-34q-14 -10 -14 -30v-5q0 -2 2 -7q5 -18 12.5 -42.5t15.5 -47.5l33 -83.5t32 -82.5l32.5 -83l32.5 -84q13 -32 25 -65.5t23 -67.5l17.5 48.5l20.5 53.5q4 9 12.5 30.5l19.5 50.5 l24.5 63.5l26.5 69.5l27 69.5l24 63.5l19 50.5t12 30.5q7 19 12 35t7 27q2 10 4 17.5t3 15.5q-5 0 -18.5 0.5t-33.5 0.5q2 6 4.5 18t5.5 25t5.5 25t3.5 18h276q-1 -6 -3.5 -17l-5 -22.5l-5 -22.5t-4.5 -17q-17 -10 -28.5 -19.5t-17.5 -17.5v1q-13 -20 -25 -46l-26 -58v1 l-157.5 -399l-157.5 -398h-128l-81 202l-80 200l-77.5 194l-78.5 194q-11 29 -21.5 52.5l-18.5 40.5q-16 26 -33 44q-11 15 -41 34v33z" />
<glyph unicode="w" horiz-adv-x="1479" d="M18 980q5 3 9 5l8 4l19 12h268q2 -7 5 -21t4 -22q2 -7 4 -21t4 -22q-22 -10 -29 -20t-7 -21q0 -9 1 -12q3 -17 7 -35t11 -35l35.5 -112l36.5 -111q11 -37 23.5 -73.5t23.5 -74.5l12 -36.5t9 -28t9 -28t12 -37.5q8 23 17.5 53.5t20.5 69.5l26.5 73t26.5 72l25.5 70.5 l25.5 69.5q-1 18 -1 35t-1 34q-1 16 -1 34q0 19 -2 36q-2 18 -5.5 34.5t-9.5 30.5q-4 2 -17 2t-33 2q2 7 5.5 25t5.5 25q2 8 4.5 22.5t4.5 21.5h333q2 -7 4 -19.5l4.5 -27l4.5 -27t3 -19.5q-20 -2 -35 -2.5t-20 -3.5q-1 -3 -0.5 -6t0.5 -6v-12v-10t2 -13l-1 2q1 -2 1.5 -7 t1.5 -7l4 -20t7 -22l60 -186l31 -92.5l30 -93.5l13.5 -43l13.5 -43q3 -10 4 -12l1 -2l0.5 -1.5t3.5 -12.5q2 8 4.5 14.5t4.5 14.5l15 43l14 42l30.5 91t30.5 90l61 181q9 26 17.5 55t13.5 56q-2 2 -12.5 3.5t-37.5 3.5q2 7 5 24.5t4 24.5q2 8 4.5 22t4.5 21h266l-18 -85 q-26 -22 -48 -56.5t-36 -71.5l-70 -197.5l-68 -196.5l-72 -203.5l-72 -204.5h-139l-43 136.5l-43 135.5l-48 150l-49 150v-1q-2 5 -7 23l-11 40l-34.5 -101l-34.5 -100l-75 -216l-74 -217h-138l-83.5 243l-81.5 243l-52.5 153.5l-53.5 154.5q-11 34 -24 64t-25 55 q-10 14 -22 27t-26 22v32z" />
<glyph unicode="x" horiz-adv-x="1024" d="M34 977q5 5 8 7l6 4t8 6.5t8 6.5h315l29 -54q6 -11 14 -27.5l14 -28.5q-15 -16 -15 -30q0 -11 9 -40q0 -7 14 -29l-1 1q2 -3 5 -7l7 -9l5 -9l16.5 -25.5l12 -19.5l11 -18l12.5 -21l23 32.5l22 30.5l14 21q32 43 32 49q0 2 -7.5 3.5t-27.5 1.5v180l260 -1l53 -9l20 -3.5 t29 -5.5l28.5 -5.5t19.5 -4.5l-69.5 -50.5t-48.5 -42.5h1q-31 -32 -63 -72.5l-69 -90.5l-61.5 -82l-60.5 -82l103 -147l103 -147v1q32 -47 60 -83t49 -60q26 -26 72 -48q2 -4 5.5 -14l7.5 -20.5l7.5 -20t5.5 -14.5h-360l-36 82q25 13 29 25v4q0 11 -3 18l1 -1q-9 20 -24 46 t-40 61l-51 74q-8 14 -15.5 25l-16.5 24l-6 9t-3 5.5t-3 5t-6 8.5l-65.5 -92l-65.5 -93q-23 -31 -39 -56t-26 -43q9 -9 53 -10q-1 -3 -4.5 -10.5l-7.5 -15.5t-7 -16t-5 -11q-2 -7 -7.5 -19t-8.5 -20h-294q2 5 5.5 15l7.5 21t8 20.5t5 13.5q15 7 26 14.5t19 15.5l58.5 73 t70.5 94l89 123l91 124l-76 107.5l-74 107.5l-10.5 14.5t-10.5 15.5q-29 42 -56 76.5t-53 62.5h1q-30 30 -70 48z" />
<glyph unicode="y" horiz-adv-x="1024" d="M22 977q9 8 10.5 8.5t4.5 2.5l16 13h299q6 -17 9 -29t5 -23q2 -9 5.5 -20t5.5 -20v-13q0 -4 -0.5 -13.5t-0.5 -14.5q-17 -6 -26 -16.5t-9 -22.5q0 -1 0.5 -2t0.5 -2q5 -23 14 -49.5t20 -52.5l27.5 -65.5l27.5 -65.5l27.5 -65l27.5 -67l-1 1l19 -45.5l15.5 -35.5t15 -36.5 l17.5 -47.5q19 59 41 117l39.5 104l39.5 102l39.5 102.5l39.5 102.5q6 17 10.5 32t6.5 28q2 7 3.5 15t2.5 15q-5 1 -15.5 1.5t-30.5 0.5l12 48q2 6 4.5 18.5t4.5 18.5h272q-1 -3 -2.5 -9.5t-3.5 -13.5t-3.5 -13.5t-2.5 -9.5l1 1q-2 -6 -4 -16.5t-4 -16.5q-29 -17 -39 -34 q-7 -8 -14.5 -19.5t-15.5 -27.5q-4 -7 -9 -20.5l-12 -31.5q-4 -9 -8 -19l-8 -21l1 1l-83 -212l-83 -211l-69 -176l-69 -176q-14 -39 -29 -75l-27 -65h1q-10 -23 -20 -43.5t-22 -40.5v1q-48 -80 -104 -121q-78 -56 -166 -56q-61 0 -118 33q-13 26 -20.5 52.5t-9.5 55.5 q0 34 17 57t49 34q14 -3 30 -6l31 -6q16 -3 38 -8v1q7 -2 11 -2h10h7q26 0 40 10q11 4 22.5 11t22.5 19t25 40t30 73q5 11 11 26l11 27l8.5 21.5t8.5 22.5l-63 148l-63 147l-87 206l-88 207q-9 23 -20 45.5l-23 46.5l1 -1q-11 20 -18.5 32t-12.5 17q-8 14 -21.5 30t-32.5 34 v28z" />
<glyph unicode="z" horiz-adv-x="966" d="M910 238l8 -19.5t10 -20.5q-1 -22 -1.5 -46t-1.5 -46t-1.5 -53t-2.5 -53h-889v116l39 47l38 47l133.5 165.5l128.5 158l129 158.5l134 166q-42 -1 -80 -1h-73h-91q-43 0 -79 -1.5t-64 -5.5q-15 -3 -28 -6.5t-27 -10.5q-5 -10 -7 -26t-4 -39h-100q1 25 1.5 59t1.5 58t1 57 v59h835v-103l-131.5 -163.5l-131.5 -163.5l-130 -160.5l-130 -161.5l-21 -26l-35 -43q-16 -19 -20 -24.5t-9 -11.5q96 3 188 3h88q49 0 90 2t73 6l-2 -1q19 5 36.5 11t34.5 17q29 14 55 59z" />
<glyph unicode="{" horiz-adv-x="833" d="M750 -425q-24 2 -45.5 3.5t-35.5 3.5q-39 5 -72.5 12.5t-57.5 20.5h1q-31 14 -56.5 33.5t-47.5 44.5q-54 63 -73 141q-6 24 -9.5 50.5t-4.5 56.5v12q0 4 -0.5 7.5t-0.5 8.5q0 23 1 48t3 52q5 54 8.5 100t3.5 78q0 13 -0.5 22.5t-1.5 19.5q0 7 -2 15q-12 49 -45 82 q-50 54 -157 62v135q54 5 93 20t64 41q21 21 33 46.5t14 52.5q1 8 1.5 19t0.5 21q0 42 -6 105v-1q-4 23 -6 48.5t-3 48.5q-1 14 -1 31v32q0 77 11 124q11 62 35 107.5t58 78.5q20 19 44.5 35.5t51.5 27.5q47 21 121 30q14 2 34.5 3t46.5 3v-130q-28 -5 -43.5 -8t-28.5 -7 q-35 -5 -59 -16t-40 -28q-37 -41 -37 -137q0 -7 1 -16.5t3 -23.5q1 -40 6 -73q9 -90 9 -154v-17q-1 -47 -14 -86v1q-8 -32 -19.5 -60.5t-25.5 -51.5v1q-15 -25 -30 -43v1q-24 -26 -55.5 -49t-69.5 -42q50 -25 88 -58t64 -73q29 -45 45 -100t18 -118v-19q0 -17 -1 -35t-3 -37 q-1 -20 -2.5 -39t-3.5 -34v1q-5 -45 -6.5 -77t-1.5 -53q0 -11 0.5 -20t2.5 -20q7 -47 36 -74q29 -29 101 -41q24 -8 66 -15v-130z" />
<glyph unicode="|" horiz-adv-x="471" d="M312 1455v-1879h-156v1879h156z" />
<glyph unicode="}" horiz-adv-x="833" d="M100 1456q24 -2 45.5 -3t35.5 -3q41 -5 73 -12.5t57 -20.5h-1q68 -30 113.5 -89t62.5 -131v2q13 -49 15 -107v-30q0 -45 -3 -99q-5 -55 -8.5 -101.5t-3.5 -78.5q0 -20 1 -34t4 -26q11 -43 44 -78q49 -51 157 -62v-135q-55 -4 -94 -20t-63 -42q-41 -44 -47 -102 q-2 -8 -2 -13v-13v-10q0 -42 6 -105v1q4 -23 6 -48.5t3 -47.5q1 -15 1 -32v-31q0 -77 -11 -124q-12 -63 -35.5 -108t-58.5 -78q-20 -18 -44 -34.5t-50 -28.5q-24 -12 -56 -18.5t-66 -11.5q-14 -2 -34.5 -3.5l-46.5 -3.5v130q42 8 68 16q44 8 72.5 24t42.5 38q21 31 23 81v11 q0 20 -1.5 45t-6.5 55q-5 53 -7.5 96t-2.5 80v19q0 26 3.5 50t9.5 44q8 31 19.5 60t25.5 55q53 84 156 136q-99 50 -153 132q-58 86 -62 217q0 20 1 43.5t3 47.5q1 8 1.5 17.5t1.5 17.5q1 11 1.5 20.5t2.5 17.5v-1q5 47 6.5 79.5t1.5 54.5v11q0 16 -1 21q-9 49 -39 79 q-15 14 -40 25t-61 16q-9 3 -22 5.5t-43 7.5v130z" />
<glyph unicode="~" horiz-adv-x="1152" d="M994 749q23 10 51 28t59 42q-2 -162 -39 -253q-8 -8 -14.5 -13.5l-11.5 -9.5l1 1q-78 -69 -183 -77q-5 -1 -13 -1h-13h-14q-7 0 -12 1q-20 1 -42 4.5t-42 9.5q-48 12 -180 69l2 -1q-5 2 -9.5 3.5t-9.5 2.5l-26 10.5t-24 10.5q-54 20 -97.5 32.5t-70.5 12.5q-9 0 -20 -4 q-37 -6 -65.5 -28.5t-50.5 -67.5q-21 -7 -51.5 -26t-72.5 -49q3 80 12 141t28 108l8 8l8.5 8.5t7.5 6.5q76 71 179 78q3 0 6 0.5t6 0.5h24q3 0 7 -0.5t7 -0.5q26 -1 45 -6q15 -3 31.5 -7t33.5 -9q37 -11 89.5 -31l115.5 -46l58 -23.5t48 -16.5q54 -17 86 -17q14 0 26 4 q35 8 64.5 31.5t48.5 62.5z" />
<glyph unicode="&#xa2;" d="M334 387q18 -65 54 -119l10 28l10 29l45.5 141.5l44.5 137l44 137l46 141.5q-15 3 -28 3q-71 0 -121 -35q-11 -7 -22 -17.5t-21 -21.5q-37 -48 -58.5 -118t-21.5 -153q0 -42 5 -81t13 -72zM855 404q14 -2 26.5 -4t26.5 -4q13 -2 35.5 -6t35.5 -6q-45 -208 -166 -314 q-10 -8 -17 -13l1 1q-3 -2 -5.5 -3.5t-5.5 -3.5q-49 -36 -109 -56t-126 -20q-30 0 -58.5 4.5t-58.5 13.5q-14 -45 -28.5 -86.5l-28.5 -85.5l-35 -103.5l-34 -103.5q-19 5 -44 8.5t-42 6.5l-41 7l52.5 161.5l52.5 160.5l14.5 43l14.5 44q-47 34 -82.5 74t-60.5 89 q-30 60 -46 131t-16 156q0 160 55 279q21 45 50.5 82.5t64.5 67.5q11 10 24.5 19t28.5 18q54 32 114 49.5t120 17.5q12 0 29.5 -1t37.5 -3l27.5 87l27.5 86l67 203q18 -5 43 -9l43 -7l41 -6l-35 -107l-35 -107l-27.5 -87l-28.5 -89q46 -23 82.5 -51.5t59.5 -60.5 q44 -64 55 -144q-20 -28 -50.5 -46.5t-72.5 -20.5h-8q-40 0 -80 22l-18.5 51.5t-21.5 55.5q-4 9 -2 7q-1 1 -3 5l-50 -156.5l-49.5 -154l-49.5 -154l-51 -157.5q14 -6 29 -11.5t28 -8.5q5 -2 9 -2.5t9 -0.5h18q11 0 21 2q28 5 55 14.5t49 24.5h-1q50 38 73 82 q9 16 20.5 42.5t26.5 64.5z" />
<glyph unicode="&#xa3;" horiz-adv-x="1160" d="M738 644h-268q5 -19 7 -37.5t2 -29.5q0 -88 -35 -166q-17 -38 -44 -82.5t-63 -92.5q54 9 108 9q79 0 173 -21q11 -3 22.5 -5.5t22.5 -5.5q43 -11 88.5 -19.5t86.5 -8.5q138 0 195 66l59 -196q-36 -49 -150 -69q-23 -7 -47 -9.5t-50 -2.5q-25 0 -46 2.5t-39 9.5 q-53 8 -141 26t-217 47q-33 12 -56 12q-34 0 -64 -13.5t-55 -28.5q-20 -11 -41 -21t-38 -10q-33 0 -54 9.5t-33 24.5t-17 33t-5 36q0 14 3.5 27t9 23t11.5 15.5t12 5.5q22 0 52 37t70 100q21 40 33 74.5t17.5 63.5t6.5 53t1 44q0 14 -2.5 37t-8.5 63h-196v185h145 q-17 51 -24.5 86t-7.5 54q0 234 144 423q24 24 57.5 43t73.5 31.5t85 19.5t92 7q98 0 175 -27.5t130 -77.5q70 -69 108 -145t38 -154q-48 -17 -97.5 -25t-102.5 -8q-16 13 -23.5 28.5t-15.5 36.5q-9 23 -23 55.5t-40 74.5l2 -3q-52 60 -151 60q-105 0 -175 -70 q-65 -42 -65 -156q0 -48 14 -110.5t40 -135.5q74 -2 156 -3.5t155 -3.5v-185z" />
<glyph unicode="&#xa4;" d="M538 985q-117 0 -200 -83t-83 -201q0 -116 83 -198q83 -83 199 -83q117 0 200 83q83 82 83 199q0 81 -42 147q-20 35 -51 64l-21 17t-22 14q-68 41 -146 41zM539 1143q66 0 129.5 -20t120.5 -59l28.5 28.5l28.5 28.5l41.5 40.5l40.5 40.5l35 -35l39 -38l38 -39l-41 -40.5 l-42 -40.5q-17 -17 -28.5 -27.5t-28.5 -28.5q79 -117 79 -249q0 -68 -19 -129t-60 -121q15 -14 28.5 -28l28.5 -29l42 -41l41 -42l-112 -112l-40.5 42l-41.5 41l-57 57q-58 -42 -118.5 -60.5t-126.5 -18.5q-45 0 -85 6.5t-78 21.5q-54 20 -94 50l-28.5 -27.5t-28.5 -28.5 l-84 -84l-28 29l-28 29q-10 11 -27 27.5l-28 26.5l84 84l29 28.5l28 27.5q-79 111 -79 250q0 66 20.5 130.5t58.5 120.5l-28.5 27.5l-28.5 27.5l-20 18.5l-22 21.5l-21.5 21.5l-19.5 19.5l25.5 26l30 30.5l30.5 30.5l25 25l41 -40.5l42 -40.5l28.5 -27.5t28.5 -28.5 q22 15 48.5 27.5t50.5 22.5q79 28 153 28z" />
<glyph unicode="&#xa5;" d="M644 471h408v-142h-408v-60q0 -47 1.5 -82t3.5 -64v2q2 -9 4.5 -18t6.5 -17q13 -5 28 -5h39v-85h-377v85h35q11 0 19.5 1.5t14.5 3.5q4 15 7.5 33t5.5 38q2 14 2 33v45v90h-408v142h408v96q-1 6 -1.5 10t-1.5 9v2l0.5 -0.5l0.5 -0.5l-1 3h-405v145h338l-52 105l-52 104 l-59 117.5l-59 117.5q-15 31 -30.5 56t-29.5 43q-14 19 -32 33t-39 27q-5 12 -9 27.5l-12 46.5h350l38 -93q-25 -13 -34 -23.5t-9 -20.5q0 -11 2 -15q6 -16 14.5 -33l19.5 -40l18 -39.5l19 -39.5l41 -87.5l43 -88.5l20.5 -42.5t15.5 -33.5l14 -32l16 -38l29 61.5l33 68.5 l32 67l32 66l42 87.5l43 90.5q11 20 18.5 38.5l14.5 35.5l-4 4q-2 1 -7.5 1.5t-12.5 1.5h-5h-5t-11 0.5t-12 0.5h-6q2 6 6 16t7.5 20.5t7.5 20t6 15.5l5.5 16.5t5.5 14.5h312l-3 -9t-4 -13.5t-4 -13.5l-3 -9q-2 -8 -4.5 -16t-5.5 -15q-47 -26 -68 -55q-17 -23 -38.5 -58 t-41.5 -72l-103.5 -207.5l-104.5 -208.5h343v-145h-399q-1 0 -2 -1t-2 -1l-3 -1h-2v-116z" />
<glyph unicode="&#xa6;" horiz-adv-x="471" d="M312 1455v-784h-156v784h156zM312 360v-784h-156v784h156z" />
<glyph unicode="&#xa7;" d="M558 695l-87 60t-68 52q-66 -40 -95.5 -82.5t-29.5 -95.5q0 -29 9.5 -57t26.5 -53q22 -27 63.5 -63t102.5 -78q8 -5 16 -11t16 -11l9 -7t10 -7l74 -51l64 -48q63 38 94 82.5t31 92.5q0 41 -32 90q-8 13 -13.5 20.5t-10.5 15.5v-1q-52 62 -181 153zM169 761q27 38 63 69.5 t82 55.5q-61 66 -85.5 122.5t-24.5 118.5q0 56 20 106.5t56 90.5q15 21 41 40h-1q40 32 88.5 50t108.5 22h16h21t21 -1q63 -5 116 -24.5t91 -54.5q71 -64 89 -151l-1 1q4 -15 5 -28t1 -27q0 -11 -1.5 -24.5t-3.5 -33.5q-77 -21 -141 -25q-24 24 -43.5 56.5t-27.5 63.5 q0 15 4 32l-1 -2q2 10 2 15q-9 30 -32.5 48.5t-59.5 22.5q-2 0 -4 0.5t-4 0.5h-10h-11t-11 -1q-2 0 -3 -0.5t-3 -0.5q-23 -3 -42.5 -10t-36.5 -19q-17 -10 -32 -28q-33 -37 -33 -83q0 -51 27 -87q42 -59 181 -150l30.5 -22l32.5 -22q64 -44 110.5 -79.5t77.5 -65.5 l27.5 -29.5t24.5 -28.5q71 -90 71 -199v-14t-1 -12q-2 -45 -19.5 -88.5t-44.5 -80.5q-22 -30 -56 -59.5t-82 -56.5q60 -59 88 -115q34 -66 34 -140q0 -19 -3 -32q-2 -27 -9.5 -52t-19.5 -50q-17 -36 -45.5 -66.5t-65.5 -53.5q-80 -55 -183 -63q-5 -1 -13 -1h-13 q-8 0 -16 0.5t-19 1.5q-128 8 -211 83q-33 31 -57 72.5t-33 82.5q-2 5 -2.5 13.5t-0.5 16.5q0 28 9.5 52.5t25.5 44.5h18q2 0 4.5 0.5t4.5 0.5q35 0 67 -11t58 -29q3 -23 7 -46t8 -43t9.5 -34t11.5 -24q0 -10 2 -10q38 -32 89 -36q6 -1 12 -1.5t11 -0.5h9t10 1q2 0 4.5 0.5 t3.5 0.5q23 2 44.5 10.5t39.5 20.5l-1 -1q11 7 19 14t14 14q26 27 32 64q1 5 1.5 11.5t0.5 10.5v9q0 2 -0.5 4t-0.5 5q-3 38 -27 68q-46 65 -206 173q-7 5 -14.5 11t-17.5 12q-8 5 -15.5 10.5t-15.5 10.5q-66 45 -115 85.5t-79 72.5q-8 7 -15.5 16.5t-14.5 17.5q-2 4 -4 6 q-28 39 -45.5 81.5t-22.5 90.5v3q-1 5 -1.5 12.5t-0.5 15.5v11q0 7 1 12q5 83 57 159z" />
<glyph unicode="&#xa9;" horiz-adv-x="1532" d="M924 1155q70 0 127 -27q62 -106 91 -260q-10 -2 -29 -4.5t-29 -4.5q-9 -2 -27 -6.5t-28 -6.5q-33 97 -95.5 145.5t-148.5 48.5q-63 0 -113.5 -24t-86.5 -69q-28 -39 -47 -100.5t-19 -130.5q0 -170 74 -253q31 -33 71.5 -53t89.5 -24q8 -1 14.5 -1.5t12.5 -0.5q7 0 13 0.5 t16 1.5q59 6 111 33v-1q75 43 124 142l35.5 -10.5t21.5 -7.5q9 -4 28.5 -11t29.5 -11q-59 -133 -158 -198q-99 -63 -231 -63q-192 0 -314 123q-124 127 -124 321v4q0 197 129 321q62 64 143 95.5t181 31.5h5q26 0 41 -3q17 -3 57 -17q8 -3 10 -3t7 11zM768 1309 q-148 0 -297 -78h1q-72 -40 -128.5 -95.5t-96.5 -127.5q-81 -145 -81 -301q0 -157 80 -299h-1q80 -145 223 -223v1q75 -41 148.5 -61t151.5 -20q76 0 150.5 19.5t148.5 61.5q145 80 223 222h-1q80 142 80 299q0 159 -81 301q-40 72 -96 127.5t-128 95.5h1q-148 78 -297 78z M768 1439q183 0 359 -95q175 -94 273 -271q100 -175 100 -366t-98 -364q-49 -87 -115.5 -155t-154.5 -116q-175 -95 -364 -95q-190 0 -365 95q-172 97 -269 271q-98 173 -98 364q0 189 99 366t274 271q176 95 359 95z" />
<glyph unicode="&#xae;" horiz-adv-x="1532" d="M614 755q33 0 63 1.5t57 3.5q30 3 51 8q50 12 73 40q30 32 30 76q0 39 -20 68q-13 23 -39 36q-13 11 -37 17t-59 9q-25 3 -49 3q-16 0 -33.5 -1t-36.5 -4v-257zM402 1107l6 4l4 4t4 3q3 2 8 6t7 6h342q100 -3 162 -31v1q18 -7 33.5 -17t29.5 -23q17 -15 36 -41 q19 -28 29 -59t10 -65q0 -88 -63 -154q-25 -26 -59.5 -45.5t-76.5 -31.5q11 -11 21 -22.5l20 -22.5l-1 1q63 -78 128 -177q8 -12 14.5 -19t13.5 -12h-1q2 -1 8.5 -2t18.5 -2q7 -12 15.5 -28.5l14.5 -28.5q3 -6 8.5 -16l11 -21l11 -21.5l8.5 -16.5h-210l-45 68l-44 68 q-38 61 -76.5 113t-67.5 87q-19 19 -52 29h-56v-251q2 -8 4.5 -17l4.5 -16q5 -2 16 -2h33v-79h-281v75q26 7 34.5 15t12.5 19q3 33 3 93v476v39q0 16 -1 26q-3 19 -10 33t-24 24zM768 1309q-148 0 -297 -78h1q-72 -40 -128.5 -95.5t-96.5 -127.5q-81 -145 -81 -301 q0 -157 80 -299h-1q80 -145 223 -223v1q75 -41 148.5 -61t151.5 -20q76 0 150.5 19.5t148.5 61.5q145 80 223 222h-1q80 142 80 299q0 159 -81 301q-40 72 -96 127.5t-128 95.5h1q-148 78 -297 78zM768 1439q183 0 359 -95q175 -94 273 -271q100 -175 100 -366t-98 -364 q-49 -87 -115.5 -155t-154.5 -116q-175 -95 -364 -95q-190 0 -365 95q-172 97 -269 271q-98 173 -98 364q0 189 99 366t274 271q176 95 359 95z" />
<glyph unicode="&#xb0;" horiz-adv-x="819" d="M405 1306q-72 0 -122 -50q-49 -49 -49 -122q0 -71 49 -121q50 -50 122 -50q71 0 121 50q50 51 50 121q0 72 -50 122t-121 50zM405 1438q129 0 215 -89q90 -90 90 -215q0 -123 -90 -215q-89 -89 -215 -89q-123 0 -215 89q-89 91 -89 215q0 126 89 215q88 89 215 89z" />
<glyph unicode="&#xb1;" horiz-adv-x="1175" d="M1105 184h-1035v160h437q0 104 -1 199.5t-1 200.5h-437v161h437v436h161v-436h437v-161h-437v-400h439v-160z" />
<glyph unicode="&#xb4;" horiz-adv-x="682" d="M614 1432l-151 -184l-66 -79.5l-66 -79.5h-125l30.5 82l34 89.5l34 89.5l31.5 82h278z" />
<glyph unicode="&#xb6;" horiz-adv-x="1014" d="M889 1262v-1674h-156v1674h-161v-1674h-155v1015q-64 4 -116 15.5t-93 27.5q-61 26 -108 72v-1q-23 22 -41 48t-32 58v-1q-20 42 -29.5 87t-9.5 95q0 156 84 250l-1 -1q62 79 154.5 119t230.5 40h569v-150h-136z" />
<glyph unicode="&#xb7;" horiz-adv-x="597" d="M377 832q38 0 76 -4.5t78 -15.5q11 -25 15.5 -51t4.5 -53q0 -39 -19.5 -73t-48.5 -49h-31q-45 0 -85 18.5t-63 46.5v33q0 45 17.5 84.5t43.5 59.5z" />
<glyph unicode="&#xc1;" horiz-adv-x="1422" d="M879 589q-15 40 -31.5 80l-32.5 80l-37.5 93.5l-37.5 93.5v1l-22 56l-16.5 42.5t-14 38.5l-15.5 45q-14 -45 -29 -87.5t-31 -82.5l-21.5 -53l-20.5 -54l-26 -65.5l-24 -60.5l-24.5 -61l-27.5 -66h411zM1018 218q-12 52 -44 131l-26.5 22.5l-26.5 21.5t-26 22t-26 22h-459 l-39.5 -100l-39.5 -100q-12 -27 -19 -50t-10 -40q-2 -8 -2.5 -15.5t-0.5 -11.5v-11q0 -4 1 -9q16 -5 70 -10l-10 -47q-2 -7 -5 -21t-5 -22h-350l23 89q28 14 44 27t25 27l-1 -2q21 36 46 88t51 117l108.5 266.5l107.5 266.5l111 273l111 274h145l114.5 -275l113.5 -273 l111.5 -268l111.5 -270h-1q25 -60 48.5 -109t46.5 -87l-1 2q31 -37 78 -57q4 -11 9.5 -30t7.5 -30l3.5 -14.5l3.5 -14.5h-406q-3 12 -8.5 29.5t-9.5 28.5t-9.5 30l-8.5 30q26 16 36 33t10 36t-3 31zM970 1816l-151 -184l-66 -79.5l-66 -79.5h-125l30.5 82l34 89.5l34 89.5 l31.5 82h278z" />
<glyph unicode="&#xc9;" horiz-adv-x="1308" d="M494 1235q-22 -4 -37 -7.5l-38 -8.5v-407h362q36 0 62.5 4t44.5 12l-1 -1q40 20 64 81h129v-353h-133l-7 43t-5 26q-35 14 -82 22t-112 8h-322v-400v-45q0 -18 2 -34q31 -8 65 -12t87 -4h231q47 0 87.5 1.5t72.5 5.5q20 5 40 12t40 18v-1q45 26 103 93h92 q-4 -15 -8 -34.5l-8.5 -39.5l-9 -39.5l-8.5 -35.5q-8 -32 -16 -69.5t-16 -69.5h-1075v98h43q20 0 36 10q3 1 5.5 5.5t4.5 7.5q3 29 4 62.5t1 78.5v889q0 48 -3 85.5t-8 66.5q-13 9 -53 9l-8 16t-7 15l-15 26v43h1062q1 -29 2 -66.5t2 -65.5q1 -29 2 -68t3 -68h-92 q-19 29 -35 47.5t-30 26.5q-27 17 -73 27h3q-85 4 -172 5.5t-187 1.5zM928 1816l-151 -184l-66 -79.5l-66 -79.5h-125l30.5 82l34 89.5l34 89.5l31.5 82h278z" />
<glyph unicode="&#xcd;" horiz-adv-x="625" d="M499 0h-392v66l13 27l13 28q41 35 57 88v-2q5 23 8 58.5t3 84.5v759q0 42 -1.5 75t-5.5 59q-2 15 -5 30t-10 30q-10 10 -18 16.5t-16 11.5h-38v81h415v-67l-13 -27l-13 -27q-42 -38 -57 -90v2q-5 -23 -8 -58t-3 -84v-758q0 -85 6 -136q3 -17 7 -32.5t11 -30.5l-1 3 q24 -37 48 -63v-44zM580 1816l-151 -184l-66 -79.5l-66 -79.5h-125l30.5 82l34 89.5l34 89.5l31.5 82h278z" />
<glyph unicode="&#xd3;" horiz-adv-x="1536" d="M766 1283q-90 0 -165.5 -32.5t-135.5 -95.5q-66 -74 -99.5 -187.5t-33.5 -268.5q0 -125 29 -226.5t80 -175.5q15 -20 30.5 -37l29.5 -31q108 -103 264 -103q191 0 313 142q126 141 126 428q0 184 -53 317v-1q-18 44 -40.5 81.5t-49.5 67.5v-1q-34 35 -71 61 q-46 27 -105 44.5t-119 17.5zM775 1439q98 0 190.5 -27.5t171.5 -77.5q26 -17 51.5 -37.5t48.5 -43.5v1q70 -64 118 -154l-1 1q97 -169 97 -393q0 -228 -100 -400q-52 -91 -119 -153q-23 -23 -49.5 -43t-52.5 -37q-163 -102 -364 -102q-103 0 -197.5 27.5t-173.5 78.5 q-25 17 -51 37.5t-49 44.5v-1q-35 32 -63 70.5t-53 82.5l1 -1q-96 173 -96 387q0 343 208 547q194 193 483 193zM1037 1816l-151 -184l-66 -79.5l-66 -79.5h-125l30.5 82l34 89.5l34 89.5l31.5 82h278z" />
<glyph unicode="&#xda;" horiz-adv-x="1479" d="M1103 1314q-14 28 -53 45l3 16l-1 -1v38h335v-76l-7.5 -9.5t-7.5 -10.5q-3 -5 -7 -9t-7 -9q-17 -14 -31.5 -38.5t-25.5 -51.5q-9 -45 -9 -127v-490q0 -105 -11 -187t-34 -144q-2 -4 -2.5 -7t-5.5 -12l1 3l-2 -4l-2 -4q-46 -93 -135 -161l-23 -16t-28 -18 q-60 -35 -137.5 -51.5t-172.5 -16.5q-106 0 -190.5 18t-147.5 56q-62 38 -107 89.5t-72 120.5q-43 113 -43 348v480q0 54 -4 96t-12 74v-1q-7 20 -18.5 38.5t-24.5 30.5h-37v89h418v-89h-37q-17 -14 -28 -33t-19 -43v1q-12 -43 -12 -131v-541q0 -66 6.5 -120.5t17.5 -99.5 q23 -88 79 -135q38 -38 94.5 -60.5t134.5 -22.5q125 0 210 43q58 28 92 70q8 10 15 20t13 22q47 90 47 303v553q0 101 -12 165zM1007 1816l-151 -184l-66 -79.5l-66 -79.5h-125l30.5 82l34 89.5l34 89.5l31.5 82h278z" />
<glyph unicode="&#xe1;" horiz-adv-x="1024" d="M434 143q64 0 121.5 30.5t104.5 89.5q7 42 10.5 89.5t3.5 102.5v60q-46 -17 -97.5 -32t-103.5 -26l1 1l-25 -7t-20 -5h1q-27 -11 -48 -21.5t-35 -21.5q-67 -45 -67 -117q0 -69 52 -109q43 -34 102 -34zM767 -9q-32 15 -53.5 42.5t-29.5 75.5q-31 -24 -60 -42t-55 -31h1 q-32 -17 -61.5 -28t-56.5 -16l2 1q-10 -2 -14 -3t-9 -2t-10.5 -2l-11.5 -2q-8 -2 -19 -2h-20h-8q-17 0 -31 1t-28 3h1q-95 12 -156 71q-72 69 -80 177q-1 5 -1 12v13v13t1 12q2 26 8 49.5t16 45.5q21 44 57.5 80t86.5 66q35 23 82 37h-1q27 11 61 20l78 20q65 13 119.5 26 t98.5 28v27q0 80 -27 122q-20 32 -51 50q-33 21 -86 26q-9 1 -19 1.5t-18 0.5h-15q-31 -2 -55.5 -9.5t-43.5 -22.5q-21 -18 -27 -41q-2 -11 -4.5 -22t-4.5 -22q-5 -26 -17.5 -51.5t-28.5 -51.5h-20q-3 0 -5.5 -0.5t-5.5 -0.5q-5 0 -10 0.5t-10 0.5h-21t-20 1q-2 1 -6 1 q-3 0 -6 1h2l-23.5 4t-27.5 7q-20 34 -20 73q0 2 0.5 3t0.5 3v9q7 36 21.5 68.5t38.5 61.5q17 20 36 36q50 41 121 65.5t159 27.5q5 0 8.5 0.5t7.5 0.5h30q4 0 8 -0.5t8 -0.5q48 -2 88 -9.5t72 -18.5h-5h4q14 -6 24.5 -11t19.5 -10l-1 1q25 -13 45.5 -31.5t37.5 -39.5 q37 -46 48 -135v1q3 -19 3 -49q2 -18 2 -42v-47v-243q0 -73 1.5 -121.5t3.5 -77.5v1q2 -15 4.5 -23.5t5.5 -13.5q12 9 62 59q5 -41 13 -75.5t18 -61.5q-117 -86 -222 -86zM793 1432l-151 -184l-66 -79.5l-66 -79.5h-125l30.5 82l34 89.5l34 89.5l31.5 82h278z" />
<glyph unicode="&#xe6;" horiz-adv-x="1593" d="M1296 654q-11 117 -66.5 171.5t-141.5 54.5q-93 0 -154 -64q-55 -58 -64 -162h426zM537 154q20 7 42.5 20.5t48.5 32.5q13 23 21.5 50t11.5 62q-1 10 -1 23v24v35q0 19 1 39q0 11 0.5 18.5t0.5 13.5v15v22q-42 -14 -97 -30l-124 -36q-27 -8 -49.5 -17.5t-40.5 -19.5h1 l-14 -10.5t-11 -9.5q-43 -43 -43 -102q0 -65 43 -108q44 -42 117 -42h9q5 0 10 1q19 2 37 6.5t38 12.5h-1zM869 512q0 -14 0.5 -31t1.5 -28q2 -57 10.5 -99.5t24.5 -71.5l-1 1l14 -22t18 -23q11 -11 21.5 -20.5t24.5 -18.5q61 -40 139 -40q101 0 169 65q46 43 89 153 q23 -4 53.5 -10t53.5 -11q3 0 8 -1.5t11 -2.5t11 -2.5t7 -1.5q-26 -100 -72.5 -173t-111.5 -123q-103 -77 -248 -77q-69 0 -129.5 17.5t-110.5 49.5q-20 13 -46.5 39.5t-52.5 57.5q-15 -14 -33.5 -28t-37.5 -27q-30 -23 -56 -39t-45 -24v1q-42 -19 -86 -30.5t-91 -14.5 q-8 -1 -16 -1h-14q-9 0 -20 0.5t-20 1.5q-54 3 -99.5 22.5t-80.5 54.5t-55 77.5t-26 89.5q-1 6 -1.5 13.5t-0.5 16.5v13q0 6 1 11v-1q0 2 0.5 3t0.5 3q2 37 13.5 70.5t31.5 62.5q21 32 53.5 58.5t75.5 49.5q18 9 39.5 17.5t48.5 16.5h-1q29 11 66 22t76 20l99.5 26.5 t85.5 25.5v27q0 12 -0.5 21.5t-1.5 19.5q0 4 -0.5 8t-0.5 8q-8 72 -32 104q-38 48 -133 48q-66 0 -112 -23l1 1q-41 -24 -53 -56v2q-10 -37 -18 -75q-2 -9 -5.5 -21.5t-5.5 -21.5q-30 -30 -75 -30h-7q-26 2 -50 7t-49 15q-6 16 -8.5 31.5t-2.5 29.5q0 5 0.5 14t2.5 17 q7 30 19 58t31 52q24 30 58.5 55.5t79 44.5t97 29.5t110.5 10.5q69 0 128.5 -11.5t102.5 -31.5q52 -27 82 -73q23 22 46 40t47 32q85 44 201 44q140 0 238 -73h-1q14 -9 24 -18.5l21 -20.5q64 -62 94 -159v1q13 -38 20.5 -79.5t9.5 -81.5q1 -14 1 -40v-43h-651z" />
<glyph unicode="&#xe9;" horiz-adv-x="1024" d="M726 653q-4 35 -10.5 60.5t-14.5 45.5q-10 21 -28 44q-32 38 -74.5 57.5t-90.5 19.5q-92 0 -160 -66q-31 -30 -50 -69.5t-25 -91.5h453zM267 514q9 -166 90 -254v1q74 -80 170 -90q18 -3 34 -3q26 0 58 8q66 11 114.5 58.5t85.5 146.5q14 -3 35 -7t35 -7q13 -3 35.5 -7.5 l36.5 -7.5q-34 -157 -126 -255q-117 -122 -307 -122q-204 0 -332 137q-129 137 -129 378q0 254 131 394q132 142 336 142q93 0 170 -32.5t137 -93.5q49 -54 78 -127.5t36 -163.5v2q2 -17 3.5 -40.5t1.5 -56.5h-693zM800 1432l-151 -184l-66 -79.5l-66 -79.5h-125l30.5 82 l34 89.5l34 89.5l31.5 82h278z" />
<glyph unicode="&#xed;" horiz-adv-x="569" d="M371 1006q6 -8 10 -14l7 -9t7 -12v-650q0 -55 7 -80q4 -12 7 -23t7 -21q6 -7 18 -16t29 -17v-164h-342v135q37 16 45 30q5 10 9.5 23t7.5 24l-1 -1q3 15 5 35t2 46v272q0 45 -1.5 78.5t-3.5 56.5q-4 32 -21 41q-14 14 -42 26q-1 20 -1.5 46.5t-1.5 46.5t-2 47.5t-3 47.5 q28 8 63 16.5t63 14.5l55.5 14l55.5 14zM570 1432l-151 -184l-66 -79.5l-66 -79.5h-125l30.5 82l34 89.5l34 89.5l31.5 82h278z" />
<glyph unicode="&#xf3;" d="M523 882q-64 0 -119 -34h1q-17 -11 -32.5 -26t-30.5 -35l1 1q-25 -37 -40 -88t-19 -117q0 -5 -0.5 -10t-0.5 -10q-1 -10 -1.5 -20.5t-0.5 -21.5q0 -2 0.5 -4.5t0.5 -5.5v-11q6 -167 78 -269q77 -111 195 -111q49 0 93 22t78 59q28 36 45 93.5t21 132.5q1 16 1.5 30.5 t0.5 31.5v23q-8 183 -89 281q-71 89 -182 89zM539 1025q107 0 195 -39t156 -114q61 -70 93 -159.5t32 -196.5q0 -161 -62 -287q-30 -62 -74 -109t-100 -80q-109 -65 -246 -65q-106 0 -195 40.5t-155 115.5q-60 72 -91 163.5t-31 201.5q0 74 16 143.5t46 131.5q20 39 47.5 77 t57.5 64q32 26 69 49q109 64 242 64zM815 1432l-151 -184l-66 -79.5l-66 -79.5h-125l30.5 82l34 89.5l34 89.5l31.5 82h278z" />
<glyph unicode="&#xfa;" d="M938 1001v-589q0 -59 1 -103t3 -73q4 -26 10 -43t15 -30q7 -5 16 -9t21 -7q3 -17 4 -28l2 -21q1 -8 2 -25t2 -26l-54 -16.5t-54 -15.5l-48 -14.5l-49 -14.5h-69v137q-87 -97 -177 -126h1q-20 -7 -39.5 -11.5t-42.5 -6.5q-11 -2 -22.5 -3t-23.5 -1q-42 0 -79.5 11 t-72.5 31v-1q-55 29 -86.5 74t-45.5 103q-9 31 -13 77t-4 106v358q0 27 -2 51t-5 44q-3 18 -7.5 34t-10.5 32q-7 6 -20 14t-31 14v78h283v-567q0 -44 1.5 -75t3.5 -53q11 -95 61 -129q40 -28 95 -28q33 0 67 11t73 38q23 16 41.5 33.5t33.5 41.5q8 45 11 95.5t3 108.5v270 q0 59 -14 95q-10 32 -58 60v99h278zM796 1432l-151 -184l-66 -79.5l-66 -79.5h-125l30.5 82l34 89.5l34 89.5l31.5 82h278z" />
<glyph unicode="&#x104;" horiz-adv-x="1422" d="M879 589q-15 40 -31.5 80l-32.5 80l-37.5 93.5l-37.5 93.5v1l-22 56l-16.5 42.5t-14 38.5l-15.5 45q-14 -45 -29 -87.5t-31 -82.5l-21.5 -53l-20.5 -54l-26 -65.5l-24 -60.5l-24.5 -61l-27.5 -66h411zM1018 218q-12 52 -44 131l-26.5 22.5l-26.5 21.5t-26 22t-26 22h-459 l-39.5 -100l-39.5 -100q-12 -27 -19 -50t-10 -40q-2 -8 -2.5 -15.5t-0.5 -11.5v-11q0 -4 1 -9q16 -5 70 -10l-10 -47q-2 -7 -5 -21t-5 -22h-350l23 89q28 14 44 27t25 27l-1 -2q21 36 46 88t51 117l108.5 266.5l107.5 266.5l111 273l111 274h145l114.5 -275l113.5 -273 l111.5 -268l111.5 -270h-1q25 -60 48.5 -109t46.5 -87l-1 2q31 -37 78 -57q4 -11 9.5 -30t7.5 -30l3.5 -14.5l3.5 -14.5h-406q-3 12 -8.5 29.5t-9.5 28.5t-9.5 30l-8.5 30q26 16 36 33t10 36t-3 31zM1249 63q-19 -38 -29.5 -71.5t-13.5 -56.5v-6q0 -2 -0.5 -3t-0.5 -3 q0 -7 0.5 -13t1.5 -12q4 -51 38 -86v1q49 -46 115 -46q62 0 156 42q1 -5 2 -13.5t2.5 -18t2.5 -18t2 -12.5q1 -8 2 -19.5t3 -31.5q-40 -22 -73.5 -36.5t-59.5 -22.5q-52 -15 -106 -15q-109 0 -173 61t-64 155q0 51 17 109t49 116h129z" />
<glyph unicode="&#x105;" horiz-adv-x="1024" d="M434 143q64 0 121.5 30.5t104.5 89.5q7 42 10.5 89.5t3.5 102.5v60q-46 -17 -97.5 -32t-103.5 -26l1 1l-25 -7t-20 -5h1q-27 -11 -48 -21.5t-35 -21.5q-67 -45 -67 -117q0 -69 52 -109q43 -34 102 -34zM767 -9q-32 15 -53.5 42.5t-29.5 75.5q-31 -24 -60 -42t-55 -31h1 q-32 -17 -61.5 -28t-56.5 -16l2 1q-10 -2 -14 -3t-9 -2t-10.5 -2l-11.5 -2q-8 -2 -19 -2h-20h-8q-17 0 -31 1t-28 3h1q-95 12 -156 71q-72 69 -80 177q-1 5 -1 12v13v13t1 12q2 26 8 49.5t16 45.5q21 44 57.5 80t86.5 66q35 23 82 37h-1q27 11 61 20l78 20q65 13 119.5 26 t98.5 28v27q0 80 -27 122q-20 32 -51 50q-33 21 -86 26q-9 1 -19 1.5t-18 0.5h-15q-31 -2 -55.5 -9.5t-43.5 -22.5q-21 -18 -27 -41q-2 -11 -4.5 -22t-4.5 -22q-5 -26 -17.5 -51.5t-28.5 -51.5h-20q-3 0 -5.5 -0.5t-5.5 -0.5q-5 0 -10 0.5t-10 0.5h-21t-20 1q-2 1 -6 1 q-3 0 -6 1h2l-23.5 4t-27.5 7q-20 34 -20 73q0 2 0.5 3t0.5 3v9q7 36 21.5 68.5t38.5 61.5q17 20 36 36q50 41 121 65.5t159 27.5q5 0 8.5 0.5t7.5 0.5h30q4 0 8 -0.5t8 -0.5q48 -2 88 -9.5t72 -18.5h-5h4q14 -6 24.5 -11t19.5 -10l-1 1q25 -13 45.5 -31.5t37.5 -39.5 q37 -46 48 -135v1q3 -19 3 -49q2 -18 2 -42v-47v-243q0 -73 1.5 -121.5t3.5 -77.5v1q2 -15 4.5 -23.5t5.5 -13.5q12 9 62 59q5 -41 13 -75.5t18 -61.5q-117 -86 -222 -86zM883 70q-19 -38 -29.5 -71.5t-13.5 -56.5v-6q0 -2 -0.5 -3t-0.5 -3q0 -7 0.5 -13t1.5 -12 q4 -51 38 -86v1q49 -46 115 -46q62 0 156 42q1 -5 2 -13.5t2.5 -18t2.5 -18t2 -12.5q1 -8 2 -19.5t3 -31.5q-40 -22 -73.5 -36.5t-59.5 -22.5q-52 -15 -106 -15q-109 0 -173 61t-64 155q0 51 17 109t49 116h129z" />
<glyph unicode="&#x10c;" horiz-adv-x="1422" d="M1179 1381q2 -2 4 -2q3 0 5 -2h-1l24.5 -15l24.5 -15q29 -86 51 -178.5t37 -196.5q-13 -3 -35.5 -7.5l-36.5 -7.5l-36 -7.5l-36 -7.5q-28 90 -66.5 155t-88.5 106.5t-110.5 61t-131.5 19.5q-18 0 -38 -4q-97 -8 -170 -45q-38 -18 -64 -41q-45 -38 -78.5 -87.5 t-55.5 -115.5q-23 -64 -33.5 -137t-10.5 -154q0 -75 10.5 -145t30.5 -128q2 -3 2.5 -6.5t2.5 -6.5q6 -16 12.5 -30.5t14.5 -28.5q40 -77 108 -128q17 -14 34.5 -24.5t35.5 -19.5q38 -19 78 -29.5t81 -14.5q11 -1 22.5 -1.5t21.5 -0.5q24 0 51 3q109 10 188 65l-1 -1 q101 72 184 253q14 -5 35.5 -10.5t35.5 -10.5q7 -2 17 -5.5l20.5 -7t20.5 -6.5t16 -5q-79 -214 -217 -322q-153 -117 -376 -117q-110 0 -210 29t-174 74q-99 67 -163 168l-23.5 39t-23.5 42q-81 170 -81 375q0 215 88 385q92 171 250 261q165 93 353 93q78 0 151 -17.5 t140 -50.5l35.5 -18.5t28.5 -13.5q1 0 2 1l2 2q10 8 14 28zM1101 1811l-28 -41.5l-32.5 -47.5l-32.5 -47l-29 -42l-53.5 -79l-53.5 -79h-203l-52 79l-52 79q-12 19 -28 42l-32 47l-32 47.5l-28 41.5h160l89.5 -88.5l89.5 -88.5l69 78l44 49.5l44 49.5h160z" />
<glyph unicode="&#x10d;" horiz-adv-x="966" d="M814 404q14 -2 26 -4.5t25 -4.5q12 -2 34 -6.5t35 -7.5q-36 -202 -153 -304q-115 -102 -271 -102q-97 0 -175.5 34t-141.5 105q-126 136 -126 384q0 79 14.5 148t42.5 129v-1q29 62 72 109q36 39 81 66h-1q115 76 258 76q85 0 153 -24.5t120 -69.5q90 -81 105 -200 q-20 -27 -51 -45t-71 -20h-7q-2 0 -3 -0.5t-3 -0.5q-40 0 -77 22q-11 35 -22 62.5t-22 51.5q-12 35 -36 54l1 -1q-41 28 -100 28q-104 0 -171 -76q-8 -10 -13 -22q-52 -75 -60 -195q-1 -11 -1.5 -22.5t-0.5 -22.5q0 -89 19.5 -160t54.5 -122q64 -85 169 -97q7 -2 11 -2h9h7 q17 0 36 3q76 10 134 67h-1q49 54 79 156zM853 1429l-28 -41.5l-32.5 -47.5l-32.5 -47l-29 -42l-53.5 -79l-53.5 -79h-203l-52 79l-52 79q-12 19 -28 42l-32 47l-32 47.5l-28 41.5h160l89.5 -88.5l89.5 -88.5l69 78l44 49.5l44 49.5h160z" />
<glyph unicode="&#x12e;" horiz-adv-x="625" d="M499 0h-392v66l13 27l13 28q41 35 57 88v-2q5 23 8 58.5t3 84.5v759q0 42 -1.5 75t-5.5 59q-2 15 -5 30t-10 30q-10 10 -18 16.5t-16 11.5h-38v81h415v-67l-13 -27l-13 -27q-42 -38 -57 -90v2q-5 -23 -8 -58t-3 -84v-758q0 -85 6 -136q3 -17 7 -32.5t11 -30.5l-1 3 q24 -37 48 -63v-44zM347 58q-19 -38 -29.5 -71.5t-13.5 -56.5v-6q0 -2 -0.5 -3t-0.5 -3q0 -7 0.5 -13t1.5 -12q4 -51 38 -86v1q49 -46 115 -46q62 0 156 42q1 -5 2 -13.5t2.5 -18t2.5 -18t2 -12.5q1 -8 2 -19.5t3 -31.5q-40 -22 -73.5 -36.5t-59.5 -22.5q-52 -15 -106 -15 q-109 0 -173 61t-64 155q0 51 17 109t49 116h129z" />
<glyph unicode="&#x12f;" horiz-adv-x="512" d="M320 1436q22 -28 38 -72t16 -98q-28 -25 -71.5 -43t-95.5 -18q-24 31 -41.5 77t-17.5 101q28 25 68.5 43t88.5 18zM341 1004q2 -4 4.5 -7.5t6.5 -8.5q4 -4 7 -8.5t6 -7.5v-645q0 -53 6 -82q6 -28 15 -46l-1 1q9 -15 47 -33v-167h-342v138q39 19 45 32q12 23 17 46l-1 -1 q3 14 5 35t2 47v275q0 45 -1.5 80t-3.5 56q-2 17 -7.5 27t-13.5 16q-9 9 -19.5 15t-22.5 11q-1 20 -1.5 44t-1.5 43t-2 45.5t-3 44.5q28 8 63 16.5t63 14.5l55.5 14l55.5 14zM347 58q-19 -38 -29.5 -71.5t-13.5 -56.5v-6q0 -2 -0.5 -3t-0.5 -3q0 -7 0.5 -13t1.5 -12 q4 -51 38 -86v1q49 -46 115 -46q62 0 156 42q1 -5 2 -13.5t2.5 -18t2.5 -18t2 -12.5q1 -8 2 -19.5t3 -31.5q-40 -22 -73.5 -36.5t-59.5 -22.5q-52 -15 -106 -15q-109 0 -173 61t-64 155q0 51 17 109t49 116h129z" />
<glyph unicode="&#x131;" horiz-adv-x="569" d="M371 1006q6 -8 10 -14l7 -9t7 -12v-650q0 -55 7 -80q4 -12 7 -23t7 -21q6 -7 18 -16t29 -17v-164h-342v135q37 16 45 30q5 10 9.5 23t7.5 24l-1 -1q3 15 5 35t2 46v272q0 45 -1.5 78.5t-3.5 56.5q-4 32 -21 41q-14 14 -42 26q-1 20 -1.5 46.5t-1.5 46.5t-2 47.5t-3 47.5 q28 8 63 16.5t63 14.5l55.5 14l55.5 14z" />
<glyph unicode="&#x147;" horiz-adv-x="1479" d="M71 1390q9 6 19 11q5 2 10 5.5t9 5.5h259l190.5 -258.5l183.5 -249.5l183.5 -249.5l190.5 -257.5v751q0 50 -2 87.5t-9 64.5q-10 11 -52 11l-8 16.5t-8 15.5t-7 13t-7 13v43h359v-43l-15 -26q-3 -5 -7 -12.5l-7 -13.5q-40 -21 -55 -58q-5 -29 -7.5 -66t-2.5 -83v-1121 h-143l-255 343.5l-254 342.5l-70 94.5l-65 88l-65 88.5l-71 96v-737q0 -51 3 -89.5t8 -64.5q8 -19 21.5 -32.5t32.5 -24.5l28 -52v-42h-316q-3 2 -7 5q-8 6 -10 7l-15.5 8t-16.5 8l10.5 20.5t10.5 19.5t7 12.5t7 12.5q37 19 54 59q5 30 8 67t3 83v831q-15 38 -24.5 67.5 l-17.5 56.5q-7 13 -18 29.5t-25 30.5q-11 23 -37 41v32zM1067 1814l-28 -41.5l-32.5 -47.5l-32.5 -47l-29 -42l-53.5 -79l-53.5 -79h-203l-52 79l-52 79q-12 19 -28 42l-32 47l-32 47.5l-28 41.5h160l89.5 -88.5l89.5 -88.5l69 78l44 49.5l44 49.5h160z" />
<glyph unicode="&#x148;" d="M340 881q57 63 126.5 98.5t141.5 43.5q6 1 14 1.5t15 0.5h10q2 0 5.5 -0.5t5.5 -0.5q83 -3 145 -46l-1 1q64 -39 98 -103l-1 1q14 -26 24.5 -56t15.5 -68v1q4 -20 5 -52t1 -75v-360q0 -32 2 -58t4 -46q3 -17 7.5 -33t9.5 -31q12 -13 45 -24v-75h-347v81h24q23 15 32.5 38 t13.5 53q1 16 1.5 40t0.5 53v352v11t-1 11q-1 31 -3 54.5t-7 40.5q-14 58 -51 87.5t-95 29.5q-103 0 -197 -91q-17 -42 -26.5 -98.5t-9.5 -125.5v-252q0 -33 1.5 -57.5t3.5 -41.5v1q8 -39 18 -65q5 -5 18 -11t31 -12v-98h-346v81h23q12 9 20.5 23t12.5 28l-1 -1 q12 56 12 137v287q0 60 -1 101t-3 70q-3 26 -9 42t-18 27q-12 23 -35 44q-1 11 -2.5 26t-2.5 26l-2.5 31.5t-3.5 30.5l106.5 30.5l107.5 30.5h62v-133zM864 1429l-28 -41.5l-32.5 -47.5l-32.5 -47l-29 -42l-53.5 -79l-53.5 -79h-203l-52 79l-52 79q-12 19 -28 42l-32 47 l-32 47.5l-28 41.5h160l89.5 -88.5l89.5 -88.5l69 78l44 49.5l44 49.5h160z" />
<glyph unicode="&#x14a;" horiz-adv-x="1459" d="M629 1388h1h-1zM421 1230q42 49 84 85.5t88 63.5l17.5 4.5t18.5 4.5h1q68 37 159 46q27 3 60 3h16t17 -1q60 -4 120.5 -24t104.5 -46q29 -20 59.5 -48t53.5 -59q22 -29 41 -62.5t36 -69.5q29 -70 44.5 -154.5t17.5 -186.5q0 -6 0.5 -11t0.5 -10v-39q0 -5 -0.5 -10 t-0.5 -11q-2 -86 -12 -166.5t-28 -152.5q-19 -67 -46 -128.5t-60 -106.5q-17 -22 -37.5 -43.5t-40.5 -38.5q-49 -40 -102.5 -64.5t-108.5 -28.5q-5 -1 -12 -1h-12q-14 0 -30 2t-28 4q-50 6 -102 32q-64 40 -100 105q14 48 42 88.5t65 63.5q104 -30 158 -105q6 -21 7 -23 q3 0 7.5 -0.5t6.5 -0.5q11 0 22.5 2.5t22.5 7.5q52 10 87 87q31 60 48.5 170t17.5 276v13q0 299 -85 439q-35 60 -90.5 93.5t-124.5 40.5h-18q-41 0 -77 -10q-16 -4 -34 -9t-35 -13q-57 -23 -111.5 -70.5t-96.5 -113.5q-4 -15 -7 -30.5l-6 -32.5q-8 -53 -13 -120t-5 -145 v-395q0 -42 1 -77t3 -61q5 -30 21.5 -57.5t40.5 -45.5q2 -4 5 -9t5 -9l1 -2q1 0 2.5 -1.5t5 -7t10.5 -19.5v-42h-417v42q2 6 6.5 13l7.5 12l9 14.5l9 14.5q14 0 23 0.5t15 3.5q11 22 17 52q4 27 5.5 62.5t1.5 80.5v826q0 105 -15 157v-3q-6 17 -19 29.5t-32 22.5q-3 6 -7 13 l-7 12l-7.5 12.5t-6.5 12.5v42h322v-189z" />
<glyph unicode="&#x14b;" horiz-adv-x="1076" d="M946 70q0 -29 -0.5 -58t-1.5 -58q-4 -81 -21 -145.5t-45 -110.5q-34 -51 -90.5 -81.5t-128.5 -37.5q-6 -1 -14 -1h-15q-22 0 -42 1.5t-40 5.5q-42 20 -64 54.5t-22 73.5q0 6 0.5 11.5t3.5 13.5q16 16 41.5 30t55.5 14q31 0 68 -34q19 -18 30 -18q43 0 59 34 q11 20 15 65.5t4 117.5v670q0 112 -29 167t-95 63q-2 0 -3.5 0.5t-2.5 0.5q-6 1 -11 1h-10q-7 0 -16.5 -0.5t-17.5 -1.5q-45 -5 -87.5 -26.5t-80.5 -59.5q-18 -74 -27.5 -163.5t-9.5 -195.5q0 -43 8 -56q4 -7 35 -7h29v-44l-48 -62l-48 -62l-67.5 -86l-67.5 -87l-119 23 q1 5 3.5 13.5l5 17.5l5 18t3.5 13q15 15 26.5 34.5t16.5 44.5v-1q5 24 8 56t3 75v337q0 69 -1.5 120t-4.5 88q-1 5 -9 5q-10 0 -50 -17q0 5 -1 14.5l-2 19.5t-2 19t-1 14l-2.5 31t-3.5 30q23 8 55 17l55 15l48.5 14.5l48.5 14.5h69v-132q49 54 108 86t125 43q20 5 41.5 7.5 t42.5 2.5q10 0 19 -0.5t18 -1.5q59 -6 112 -37q42 -25 71 -64t43 -86q12 -38 18.5 -90.5t6.5 -114.5v-557z" />
<glyph unicode="&#x160;" horiz-adv-x="1252" d="M925 1412q23 -9 44.5 -19t43.5 -24q34 -90 51.5 -192.5t19.5 -217.5q-6 0 -15.5 -0.5t-20 -1.5t-20.5 -1.5t-17 -0.5l-36 -2.5t-36 -3.5q-8 60 -20.5 106.5t-29.5 76.5q-46 77 -130 113q-29 14 -61 21t-70 9q-10 1 -18 1h-16h-16t-16 -1q-101 -4 -158 -55 q-65 -57 -65 -131q0 -10 5 -27q4 -29 19 -52q5 -9 12.5 -18.5t18.5 -18.5h-1q60 -55 264 -131q7 -2 13.5 -3t12.5 -3q2 -1 4 -1.5t15 -2.5q154 -60 230 -103v1q12 -8 26 -16t29 -18q81 -59 121.5 -136t40.5 -171v-17q0 -7 -1 -13q-6 -89 -55 -170q-16 -26 -36.5 -49.5 t-45.5 -47.5q-47 -41 -110 -71q-108 -48 -243 -48q-34 0 -67 2.5t-62 6.5q-67 7 -157 41q-51 20 -91.5 45t-67.5 51q-4 -6 -8 -33h-56v82q-37 140 -38 310q13 1 35 2.5l36 2.5t36 2t36 3q11 -69 27 -120t36 -85q21 -32 54 -59.5t75 -47.5h-1q90 -42 199 -42h5q119 0 197 55 q42 29 64.5 66.5t22.5 82.5v5q0 52 -32 98t-96 81q-24 12 -86 38l-143 58l-71 28.5t-68.5 29t-60 28t-45.5 24.5q-30 18 -49 33q-150 114 -150 288q0 115 65 208l20.5 26t22.5 25q26 26 58.5 48t67.5 38q48 20 106 32t118 12h17q4 0 8 -0.5t8 -0.5q53 -2 102 -12.5t98 -27.5 q23 -9 37.5 -14t24.5 -8q4 1 7.5 5t6.5 17zM936 1811l-28 -41.5l-32.5 -47.5l-32.5 -47l-29 -42l-53.5 -79l-53.5 -79h-203l-52 79l-52 79q-12 19 -28 42l-32 47l-32 47.5l-28 41.5h160l89.5 -88.5l89.5 -88.5l69 78l44 49.5l44 49.5h160z" />
<glyph unicode="&#x161;" horiz-adv-x="910" d="M663 1007q62 -20 98 -59v-57q10 -41 18 -90t13 -109q-13 -2 -35 -4t-34 -4l-68 -8q-14 63 -33.5 104t-45.5 62q-43 37 -119 42q-3 0 -6.5 0.5t-6.5 0.5h-24q-3 0 -6.5 -0.5t-6.5 -0.5q-63 -3 -101 -32h1q-40 -32 -40 -71q0 -37 23 -66l-1 1q19 -24 62 -46l26.5 -11.5 t36.5 -14.5q5 -3 15.5 -6l20.5 -6h-1q5 -2 11 -3.5t11 -2.5l60 -23l58 -22q35 -14 64.5 -27t52.5 -28h-1q67 -38 103 -96t36 -137q0 -86 -46 -159v1q-13 -22 -31.5 -41.5t-39.5 -36.5q-53 -38 -119.5 -60t-139.5 -22q-59 0 -113.5 9t-107.5 29q-17 5 -29.5 9.5t-18.5 6.5 t-10 3t-9 1q1 0 -3.5 -0.5t-10.5 -2.5q-13 6 -25.5 12.5t-22.5 12.5q-18 67 -28.5 138.5t-17.5 149.5q13 2 31.5 4t38.5 5t38.5 5.5t31.5 4.5q12 -63 32 -108.5t50 -73.5q65 -66 174 -66q73 0 116 30q8 6 14 11t11 10q12 14 20 28t11 32q1 6 1.5 12.5t0.5 11.5v7q0 3 -1 8 q-4 40 -40 68q-14 11 -46 25.5t-83 32.5l-58.5 22t-58.5 23q-72 26 -118 50h1q-37 20 -62.5 43.5t-43.5 48.5q-46 64 -46 152q0 59 21.5 109.5t61.5 91.5q17 17 38 32q35 25 84.5 41.5t106.5 19.5q8 1 18 1h19h16q27 -2 53.5 -5t52.5 -9q6 -2 11 -3t8 -2q36 -9 49 -9 q10 0 21 8zM779 1429l-28 -41.5l-32.5 -47.5l-32.5 -47l-29 -42l-53.5 -79l-53.5 -79h-203l-52 79l-52 79q-12 19 -28 42l-32 47l-32 47.5l-28 41.5h160l89.5 -88.5l89.5 -88.5l69 78l44 49.5l44 49.5h160z" />
<glyph unicode="&#x172;" horiz-adv-x="1479" d="M1103 1314q-14 28 -53 45l3 16l-1 -1v38h335v-76l-7.5 -9.5t-7.5 -10.5q-3 -5 -7 -9t-7 -9q-17 -14 -31.5 -38.5t-25.5 -51.5q-9 -45 -9 -127v-490q0 -105 -11 -187t-34 -144q-2 -4 -2.5 -7t-5.5 -12l1 3l-2 -4l-2 -4q-46 -93 -135 -161l-23 -16t-28 -18 q-60 -35 -137.5 -51.5t-172.5 -16.5q-106 0 -190.5 18t-147.5 56q-62 38 -107 89.5t-72 120.5q-43 113 -43 348v480q0 54 -4 96t-12 74v-1q-7 20 -18.5 38.5t-24.5 30.5h-37v89h418v-89h-37q-17 -14 -28 -33t-19 -43v1q-12 -43 -12 -131v-541q0 -66 6.5 -120.5t17.5 -99.5 q23 -88 79 -135q38 -38 94.5 -60.5t134.5 -22.5q125 0 210 43q58 28 92 70q8 10 15 20t13 22q47 90 47 303v553q0 101 -12 165zM833 26q-19 -38 -29.5 -71.5t-13.5 -56.5v-6q0 -2 -0.5 -3t-0.5 -3q0 -7 0.5 -13t1.5 -12q4 -51 38 -86v1q49 -46 115 -46q62 0 156 42 q1 -5 2 -13.5t2.5 -18t2.5 -18t2 -12.5q1 -8 2 -19.5t3 -31.5q-40 -22 -73.5 -36.5t-59.5 -22.5q-52 -15 -106 -15q-109 0 -173 61t-64 155q0 51 17 109t49 116h129z" />
<glyph unicode="&#x173;" d="M938 1001v-589q0 -59 1 -103t3 -73q4 -26 10 -43t15 -30q7 -5 16 -9t21 -7q3 -17 4 -28l2 -21q1 -8 2 -25t2 -26l-54 -16.5t-54 -15.5l-48 -14.5l-49 -14.5h-69v137q-87 -97 -177 -126h1q-20 -7 -39.5 -11.5t-42.5 -6.5q-11 -2 -22.5 -3t-23.5 -1q-42 0 -79.5 11 t-72.5 31v-1q-55 29 -86.5 74t-45.5 103q-9 31 -13 77t-4 106v358q0 27 -2 51t-5 44q-3 18 -7.5 34t-10.5 32q-7 6 -20 14t-31 14v78h283v-567q0 -44 1.5 -75t3.5 -53q11 -95 61 -129q40 -28 95 -28q33 0 67 11t73 38q23 16 41.5 33.5t33.5 41.5q8 45 11 95.5t3 108.5v270 q0 59 -14 95q-10 32 -58 60v99h278zM927 79q-19 -38 -29.5 -71.5t-13.5 -56.5v-6q0 -2 -0.5 -3t-0.5 -3q0 -7 0.5 -13t1.5 -12q4 -51 38 -86v1q49 -46 115 -46q62 0 156 42q1 -5 2 -13.5t2.5 -18t2.5 -18t2 -12.5q1 -8 2 -19.5t3 -31.5q-40 -22 -73.5 -36.5t-59.5 -22.5 q-52 -15 -106 -15q-109 0 -173 61t-64 155q0 51 17 109t49 116h129z" />
<glyph unicode="&#x17d;" horiz-adv-x="1251" d="M1188 1412l-16 -51.5l-16 -51.5l-12.5 -39.5l-12.5 -40.5l-369 -489l-371 -489l-17.5 -23.5l-15 -20l-15.5 -20.5l-19 -25h534q48 0 88.5 6t74.5 20q29 27 53 113h31q20 0 31 -1q12 -1 33.5 -1.5t33.5 -1.5l-4.5 -35.5t-4.5 -39.5t-4.5 -39.5l-4.5 -35.5q-4 -32 -8.5 -73 t-8.5 -74h-1139v131l699 930l73 96.5l71 91.5h-411q-43 0 -80 -2.5t-69 -8.5q-17 -8 -26 -24q-5 -9 -10 -32.5l-12 -57.5h-135q2 31 3.5 68t4 75t4.5 75.5t3 69.5h1044zM965 1811l-28 -41.5l-32.5 -47.5l-32.5 -47l-29 -42l-53.5 -79l-53.5 -79h-203l-52 79l-52 79 q-12 19 -28 42l-32 47l-32 47.5l-28 41.5h160l89.5 -88.5l89.5 -88.5l69 78l44 49.5l44 49.5h160z" />
<glyph unicode="&#x17e;" horiz-adv-x="966" d="M910 238l8 -19.5t10 -20.5q-1 -22 -1.5 -46t-1.5 -46t-1.5 -53t-2.5 -53h-889v116l39 47l38 47l133.5 165.5l128.5 158l129 158.5l134 166q-42 -1 -80 -1h-73h-91q-43 0 -79 -1.5t-64 -5.5q-15 -3 -28 -6.5t-27 -10.5q-5 -10 -7 -26t-4 -39h-100q1 25 1.5 59t1.5 58t1 57 v59h835v-103l-131.5 -163.5l-131.5 -163.5l-130 -160.5l-130 -161.5l-21 -26l-35 -43q-16 -19 -20 -24.5t-9 -11.5q96 3 188 3h88q49 0 90 2t73 6l-2 -1q19 5 36.5 11t34.5 17q29 14 55 59zM833 1429l-28 -41.5l-32.5 -47.5l-32.5 -47l-29 -42l-53.5 -79l-53.5 -79h-203 l-52 79l-52 79q-12 19 -28 42l-32 47l-32 47.5l-28 41.5h160l89.5 -88.5l89.5 -88.5l69 78l44 49.5l44 49.5h160z" />
<glyph unicode="&#x1dd;" horiz-adv-x="1024" d="M300 347q3 -32 10 -58.5t16 -46.5q6 -14 12.5 -24.5t14.5 -20.5q32 -38 74.5 -57.5t90.5 -19.5q93 0 160 66q31 30 50 69.5t25 91.5h-453zM759 486q-9 166 -90 254v-1q-74 80 -169 90q-18 3 -35 3q-16 0 -30.5 -2t-27.5 -5q-65 -10 -114 -58.5t-86 -147.5q-14 3 -35 7 t-35 7q-13 3 -35.5 7.5l-36.5 7.5q35 157 127 255q116 122 306 122q204 0 332 -137q129 -136 129 -378q0 -254 -131 -394q-132 -142 -336 -142q-93 0 -170 32.5t-137 93.5q-49 54 -78 127.5t-36 163.5v-2q-2 17 -3.5 40.5t-1.5 56.5h693z" />
<glyph unicode="&#x1e6;" horiz-adv-x="1536" d="M1196 1404q8 -2 16.5 -5t21.5 -8q53 -84 85 -182.5t54 -223.5l-138 -32q-19 60 -43 110t-45 82q-11 14 -22.5 25.5l-23.5 22.5q-53 45 -122.5 68.5t-153.5 23.5q-131 0 -221.5 -45.5t-150.5 -127.5q-21 -28 -37 -57t-29 -60l1 1q-25 -65 -38 -133.5t-13 -143.5 q0 -91 17.5 -173t49.5 -150q33 -67 80 -118.5t104 -83.5q57 -30 119.5 -47.5t125.5 -17.5q108 0 217 44q68 28 108 58v306q-16 15 -38.5 31.5t-41.5 22.5q-30 15 -63 23l2 -1q-29 4 -66.5 6t-88.5 2v141q70 0 149.5 0.5t148.5 0.5h298v-102h-31q-27 0 -35 -15 q-8 -37 -8 -106v-389q-72 -49 -144.5 -85t-144.5 -58q-62 -18 -125.5 -26.5t-131.5 -8.5q-230 0 -404 94h1q-58 30 -108 73t-91 97q-13 17 -25.5 36t-23.5 38q-98 175 -98 381q0 197 88 369q51 101 123 175.5t165 123.5q73 37 163 58t187 21q9 0 18.5 -0.5t17.5 -1.5 q21 -1 43 -2.5t40 -4.5q80 -13 178 -50q24 -8 28 -8q2 0 3.5 9t3.5 39zM1110 1807l-28 -41.5l-32.5 -47.5l-32.5 -47l-29 -42l-53.5 -79l-53.5 -79h-203l-52 79l-52 79q-12 19 -28 42l-32 47l-32 47.5l-28 41.5h160l89.5 -88.5l89.5 -88.5l69 78l44 49.5l44 49.5h160z" />
<glyph unicode="&#x1e7;" d="M530 154q53 0 94.5 21t78.5 68q20 57 30 126t10 150q0 35 -2 71.5l-4 70.5q-8 65 -29 109q-6 13 -15 25t-20 21q-30 32 -68 49.5t-83 17.5q-102 0 -176 -87q-74 -91 -74 -278q0 -181 77 -275q77 -89 181 -89zM941 1014v-1121q0 -35 2 -64t6 -55q-15 -8 -25.5 -12.5 t-16.5 -6.5q-3 -1 -1 0.5t-1 -0.5q-2 -5 -4 -8.5t-4 -6.5l-3 -6q-12 -21 -31.5 -40.5t-40.5 -36.5q-53 -39 -119.5 -61t-140.5 -22q-114 0 -220 38q-35 13 -48 16q-6 2 -10.5 3t-9.5 1q-1 0 -13 -3q-28 12 -49 26q-17 66 -28 138t-18 150q13 1 31.5 3.5l38.5 5l39 5t32 4.5 q12 -63 31.5 -109t49.5 -74q66 -65 174 -65q74 0 117 29q13 8 24 23q12 12 20 27.5t12 31.5v275q-12 -11 -26.5 -22.5t-28.5 -19.5q-34 -24 -68 -40.5t-67 -22.5l1 1q-43 -13 -90 -13q-134 0 -245 105q-14 14 -28 29.5t-26 34.5v-1q-95 129 -95 335q0 158 59 281v-1 q15 33 36.5 63.5t44.5 56.5q16 18 33 32t35 27q114 81 258 81q147 0 242 -98l22.5 44t20.5 43h128zM854 1437l-28 -41.5l-32.5 -47.5l-32.5 -47l-29 -42l-53.5 -79l-53.5 -79h-203l-52 79l-52 79q-12 19 -28 42l-32 47l-32 47.5l-28 41.5h160l89.5 -88.5l89.5 -88.5l69 78 l44 49.5l44 49.5h160z" />
<glyph unicode="&#x1f0;" horiz-adv-x="512" d="M592 1437l-28 -41.5l-32.5 -47.5l-32.5 -47.5l-29 -41.5l-53.5 -79l-53.5 -79h-203l-52 79l-52 79l-28 41.5l-32 47.5l-32 47.5l-28 41.5h160l90 -88.5l89 -88.5l34.5 39l34.5 39l44 49.5l44 49.5h160zM339 1006l5.5 -7.5l5.5 -7.5q4 -5 7 -9.5t7 -12.5v-908 q0 -26 -0.5 -52t-1.5 -52q-4 -90 -23.5 -158.5t-51.5 -110.5q-44 -54 -105.5 -83t-142.5 -29q-43 0 -80 7t-69 24q-12 42 -12 79q0 13 1 24.5t4 25.5q18 19 45 32.5t54 13.5q19 0 34 -9q8 -3 16 -9t19 -17q22 -8 37 -8q12 0 25 9q12 0 16 4q11 11 18 39v-1q8 34 10 117v659 q0 60 -1 104.5t-3 79.5q-4 28 -9.5 46t-16.5 31q-10 11 -37 21q-1 11 -2 26t-2 25t-3 27.5t-4 26.5q28 8 64.5 17t64.5 15l55.5 14l55.5 14z" />
<glyph unicode="&#x21e;" horiz-adv-x="1479" d="M416 812h640v305q0 83 -6 132q-3 14 -6.5 27t-8.5 27q-8 3 -20 4.5t-23 1.5l-17 34q-3 5 -6.5 13t-6.5 13v43h415v-80h-35q-8 -9 -16.5 -21l-17.5 -26q-6 -13 -11.5 -30t-7.5 -33q-6 -49 -6 -131v-771q0 -42 1.5 -74t5.5 -58q2 -16 6 -31t10 -29q10 -14 18 -26.5 t18 -21.5h35v-80h-415v42l13.5 25.5l13.5 25.5q40 34 56 86v-1q5 22 8 55.5t3 81.5v339h-638v-339q0 -39 1.5 -71.5t5.5 -58.5q2 -15 5.5 -29.5t11.5 -29.5q16 -15 42 -30q2 -5 6.5 -11.5t6.5 -11.5l-1 1l8.5 -15.5l8.5 -16.5v-42h-416v68l31 31q36 30 53 83v-1 q5 23 7.5 57.5t2.5 81.5v771q0 84 -6 133q-4 32 -18 60l-18 26.5t-17 21.5h-35v80h416v-88l-8.5 -16.5l-8.5 -15.5l1 1q-2 -5 -5.5 -10t-5.5 -10q-14 -13 -24.5 -27t-19.5 -28l1 1q-8 -15 -14.5 -29.5t-14.5 -34.5l3 -76zM1072 1762l-28 -41.5l-32.5 -47.5l-32.5 -47 l-29 -42l-53.5 -79l-53.5 -79h-203l-52 79l-52 79q-12 19 -28 42l-32 47l-32 47.5l-28 41.5h160l89.5 -88.5l89.5 -88.5l69 78l44 49.5l44 49.5h160z" />
<glyph unicode="&#x21f;" d="M323 1435l10 -13.5t16 -17.5v-513q42 44 78.5 69t76.5 40l-1 -1q32 14 64.5 20t65.5 6h16t14 -1q45 -2 84 -15.5t73 -39.5h-1q69 -47 98 -127q15 -36 22 -95.5t7 -141.5v-322q0 -32 2 -60t4 -49q5 -21 16.5 -38.5t43.5 -31.5v-104h-346v84h28q20 11 29.5 30t13.5 43 q1 17 1 43v56v295v50t-1 47q-2 90 -25 131q-29 63 -109 71h-8q-2 0 -5 0.5t-6 0.5q-7 0 -13 -0.5t-13 -1.5h-4q-13 -2 -24.5 -5t-20.5 -5q-23 -8 -48.5 -23.5t-51.5 -39.5q-32 -43 -46 -99.5t-14 -139.5v-247q0 -36 1 -63.5t4 -47.5q2 -18 7 -35.5l10 -33.5q12 -16 50 -31 v-79h-347v85q40 0 51 4q3 14 6 29.5t5 34.5q6 42 6 110v745q0 61 -1 104t-3 75q-4 28 -9.5 46t-16.5 30q-6 8 -36 18q-4 22 -4.5 32t-1.5 19t-2 26.5t-2 25.5q28 8 63.5 16.5t63.5 14.5l55 14l55 14zM622 1815l-28 -41.5l-32.5 -47.5l-32.5 -47l-29 -42l-53.5 -79l-53.5 -79 h-203l-52 79l-52 79q-12 19 -28 42l-32 47l-32 47.5l-28 41.5h160l89.5 -88.5l89.5 -88.5l69 78l44 49.5l44 49.5h160z" />
<glyph unicode="&#x2bc;" horiz-adv-x="380" d="M132 851q-3 19 -8 44t-8 44q-10 51 -18.5 103l-17.5 103q-12 89 -12 143q0 53 16.5 86t45.5 52q54 0 99 -16.5t76 -45.5v-39q0 -34 -3 -78.5t-10 -103.5q-5 -10 -3.5 -11t0.5 -4q-1 -5 -1.5 -8.5t-1.5 -8.5l-10 -61.5t-11 -61.5l-13 -68t-12 -69h-108z" />
<glyph unicode="&#x2c7;" horiz-adv-x="682" d="M677 1429l-28 -41.5l-32.5 -47.5l-32.5 -47l-29 -42l-53.5 -79l-53.5 -79h-203l-52 79l-52 79q-12 19 -28 42l-32 47l-32 47.5l-28 41.5h160l89.5 -88.5l89.5 -88.5l69 78l44 49.5l44 49.5h160z" />
<glyph unicode="&#x2db;" horiz-adv-x="682" d="M347 58q-19 -38 -29.5 -71.5t-13.5 -56.5v-6q0 -2 -0.5 -3t-0.5 -3q0 -7 0.5 -13t1.5 -12q4 -51 38 -86v1q49 -46 115 -46q62 0 156 42q1 -5 2 -13.5t2.5 -18t2.5 -18t2 -12.5q1 -8 2 -19.5t3 -31.5q-40 -22 -73.5 -36.5t-59.5 -22.5q-52 -15 -106 -15q-109 0 -173 61 t-64 155q0 51 17 109t49 116h129z" />
<glyph unicode="&#x2013;" d="M1093 443h-1109v145h1109v-145z" />
<glyph unicode="&#x2014;" horiz-adv-x="2048" d="M2048 443h-2048v146h2048v-146z" />
<glyph unicode="&#x2018;" horiz-adv-x="568" d="M383 1427q6 -14 14.5 -36.5l13.5 -36.5q-48 -25 -78 -50.5t-43 -54.5q-15 -27 -17 -67q0 -8 4 -12q2 -7 1.5 -8t3.5 -6q4 0 10 2q9 3 19 4t19 1q34 0 76 -23v-20q15 -37 15 -79q0 -53 -18 -103q-26 -13 -52 -18.5t-53 -5.5q-68 0 -128 33q-30 78 -30 163q0 60 13 110 t38 88q27 41 69.5 74.5t97.5 55.5z" />
<glyph unicode="&#x2019;" horiz-adv-x="568" d="M179 922q-6 15 -14 37.5l-13 36.5q95 48 121 105q15 28 17 65q0 8 -0.5 14.5t-1.5 11.5q-4 2 -7 2t-7 -2q-13 -4 -23 -5t-17 -1q-33 0 -77 23v19q-15 35 -15 79q0 53 20 104q52 23 103 23q32 0 63.5 -8.5t64.5 -25.5q30 -78 30 -162q0 -114 -42 -183q-2 -2 -3.5 -5.5 t-3.5 -5.5v1q-6 -11 -13 -20l-15 -19q-51 -60 -142 -95z" />
<glyph unicode="&#x201a;" horiz-adv-x="568" d="M161 -285q-5 14 -14 37l-15 38q97 33 132 96q31 44 32 96q0 4 -2 7l-3 9q-5 -1 -10 -3t-12 -4q-25 -5 -55 -5q-31 20 -49 52.5t-18 78.5q0 53 23 99q45 21 90 21q69 0 136 -34q29 -79 29 -167q0 -58 -11 -103.5t-31 -79.5q-30 -47 -78.5 -85.5t-117.5 -64.5z" />
<glyph unicode="&#x201c;" horiz-adv-x="795" d="M308 1425q5 -13 10 -23.5t10 -22.5q2 -2 5.5 -11.5t4.5 -11.5q-71 -34 -103.5 -73t-35.5 -94q0 -6 1 -9.5t3 -5.5q2 -8 1.5 -9t2.5 -7q5 1 11 1.5t12 1.5q11 2 23 2.5t29 0.5q26 -17 44 -49t18 -72q0 -52 -22 -106q-47 -22 -90 -22q-67 0 -138 34q-30 78 -30 164 q0 60 11.5 107.5t37.5 84.5q2 4 3.5 8t6.5 9q29 36 69 67t91 49zM691 1423q1 -2 2 -4.5t2 -4.5v1q5 -11 11.5 -29t11.5 -30q-48 -25 -76.5 -48.5t-41.5 -52.5q-9 -16 -13.5 -34.5t-5.5 -38.5q0 -6 4 -14q2 -7 1 -6t2 -4q2 0 10 2q9 2 17 3t22 1q17 0 35 -5t38 -16 q19 -45 19 -91q0 -29 -5.5 -57t-18.5 -57q-49 -23 -101 -23q-66 0 -126 33q-14 38 -20.5 75t-8.5 72v34q1 54 14 99.5t37 80.5l-1 -1q2 4 3 6.5t2 4.5q60 81 161 117z" />
<glyph unicode="&#x201d;" horiz-adv-x="795" d="M105 921q-1 2 -1.5 4t-1.5 4q-5 12 -12 32t-12 33q45 23 74.5 47.5t42.5 52.5q18 33 19 73v14t-1 11q-2 1 -7 1l-2 -1q-2 -1 -4 -1q-1 0 -4 -2q-14 -2 -30.5 -3t-36.5 -1q-26 18 -44.5 52t-18.5 75q0 51 24 100q50 22 100 22q32 0 63.5 -8.5t64.5 -25.5q25 -71 28 -146 v-36q-1 -106 -51 -180l2 2q-1 -2 -1.5 -2.5t-1.5 -2.5t-3.5 -5.5t-3.5 -5.5l2 2q-60 -78 -160 -114zM487 924q-5 14 -9.5 24.5l-9.5 22.5l-11 22q71 33 103.5 74.5t35.5 97.5v27q-1 1 -5 1q-2 0 -11 -3q-10 -3 -19 -4t-19 -1q-34 0 -77 23v21q-8 20 -11 40.5t-3 43.5 q0 51 22 99q50 22 99 22q64 0 130 -36q15 -43 22 -89t7 -91q-1 -53 -14.5 -97.5t-37.5 -80.5l2 2q-1 -2 -1.5 -2.5t-1.5 -2.5t-3.5 -5.5t-3.5 -5.5l2 2q-57 -78 -161 -116z" />
<glyph unicode="&#x201e;" horiz-adv-x="795" d="M105 -274q-1 2 -1.5 3.5t-1.5 3.5q-5 12 -12 32l-12 34q91 46 118 101q16 30 18 72v14q0 5 -1 10q-2 1 -7 1l-2 -1q-4 -2 -8 -3q-14 -2 -31 -3t-36 -1q-26 18 -44.5 51.5t-18.5 75.5q0 51 24 99q47 22 100 22q69 0 127 -32q14 -38 20.5 -75t8.5 -73v-35q-1 -106 -51 -180 l2 2l-3 -5q-2 -2 -5 -6.5t0 -1.5q-29 -38 -70.5 -68t-89.5 -47zM487 -271q-5 13 -9.5 23.5l-9.5 21.5q-2 3 -6 12.5t-5 11.5q71 32 103.5 73.5t35.5 98.5v26q-1 1 -5 1q-2 0 -11 -3q-10 -3 -19 -4t-19 -1q-35 0 -77 24v20q-8 19 -11 40t-3 44t5.5 48.5t17.5 51.5 q46 20 98 20q64 0 129 -34q13 -36 20 -72.5t9 -73.5q1 -8 1 -18v-18q-1 -53 -14.5 -96.5t-37.5 -79.5l1 1l-3 -6l-2 -4q-58 -82 -163 -120z" />
<glyph unicode="&#x2020;" d="M461 -373q-1 191 -4 367.5t-11 325.5q-5 93 -14 187.5t-20 181.5q14 20 23 37t13 34v-1q5 17 7.5 43t4.5 53q-23 -2 -44.5 -5.5t-42.5 -8.5q-52 -12 -96 -17.5t-80 -5.5q-40 0 -71 17t-46 44q0 48 17 87t43 63h33q18 0 37.5 -0.5t35.5 -2.5q22 -1 54 -6.5t73 -15.5l-1 1 q21 -5 44.5 -8.5t44.5 -5.5q0 12 -0.5 18.5t-2.5 14.5q-2 13 -5 28t-8 36q-14 51 -21 94.5t-7 78.5q0 52 19.5 93t46.5 63h52q24 0 48 -5.5t48 -18.5q20 -48 20 -107q0 -14 -1 -29t-3 -28q-2 -29 -8 -63.5t-14 -72.5q-15 -55 -18 -102q22 2 43.5 5.5t45.5 8.5l-1 -1 q35 11 62.5 15.5t45.5 6.5q17 2 35.5 2.5t36.5 0.5q41 0 72.5 -18t47.5 -44q0 -45 -17 -85t-43 -64h-58q-74 0 -182 24q-12 2 -22.5 4.5t-21.5 4.5q-3 1 -7 1q-3 0 -5 1h-10q-4 0 -9 1l-5 1q1 0 -9 1q2 -26 5 -50.5t8 -46.5l-1 2q10 -36 38 -72q-12 -91 -20.5 -181 t-13.5 -181q-5 -128 -9 -307.5t-7 -392.5h-145z" />
<glyph unicode="&#x2021;" d="M626 914q-3 0 -6.5 0.5t-6.5 0.5l4 -21t4 -16q5 -10 13.5 -24t24.5 -33q-14 -38 -23.5 -71t-14.5 -63v2q-5 -42 -8 -85t-3 -92q0 -43 3 -80.5t8 -73.5t14.5 -74t23.5 -80q-16 -13 -24.5 -22.5t-13.5 -17.5q-2 -6 -4 -15.5l-4 -18.5q5 1 9 2l8 2q32 3 72 13 q38 8 74.5 12.5t66.5 4.5q42 0 77.5 -15.5t58.5 -38.5v-92q-19 -26 -49.5 -42t-68.5 -16q-34 0 -70 4.5t-78 12.5q-13 4 -32.5 7t-34.5 5q-2 0 -5.5 0.5t-5.5 0.5q-5 2 -11 2q-5 0 -12 1q0 -7 1 -11q1 -11 1.5 -20.5t2.5 -18.5q1 -14 3.5 -30t6.5 -34l-1 1q25 -109 25 -200 q-28 -28 -70 -45.5t-93 -17.5q-26 17 -43.5 51t-17.5 75q0 11 0.5 22.5t2.5 22.5q2 17 7 45t13 66h-1q5 24 8.5 47.5t5.5 46.5q-4 0 -6.5 -1t-5.5 -1q-4 -1 -9 -1h-11q-34 -4 -85 -13l1 1q-40 -10 -72 -14t-59 -4q-40 0 -69 15.5t-48 39.5v92q22 26 58 41.5t79 15.5 q25 0 52.5 -3.5t60.5 -12.5l-1 1q27 -5 49 -8.5t40 -5.5q2 -1 8 -1q4 0 4.5 -0.5t1.5 -1t2 -0.5h8q-5 26 -9 37q-5 19 -38 56q28 68 35 121q8 47 12 93t4 97q0 49 -4 96.5t-12 92.5q-5 26 -13.5 56t-22.5 61q34 26 38 36v-1q3 7 5.5 17t4.5 21q-2 0 -5.5 -0.5t-5.5 -0.5h-11 l-37 -5t-54 -11q-49 -7 -96.5 -10.5t-98.5 -3.5q-25 25 -40 63.5t-15 84.5q19 23 48 39t67 16t75.5 -4.5t82.5 -12.5q19 -5 37 -8.5t31 -4.5q3 0 6.5 -0.5t5.5 -0.5q4 0 4.5 -0.5l0.5 -0.5q1 0 2 -0.5t6 -0.5q0 13 -1 23.5t-3 20.5q-2 23 -7.5 51t-13.5 65l1 -1 q-6 24 -9 41.5t-4 27.5q-1 19 -1.5 42t-0.5 43q28 32 70 49.5t94 17.5q26 -17 42.5 -50t16.5 -80q0 -28 -3 -46q-1 -19 -5.5 -44t-12.5 -57q-6 -24 -10 -49.5t-6 -53.5q5 1 10 1t13 2q28 0 74 13q42 8 79.5 12.5t74.5 4.5q38 0 68 -15.5t49 -41.5v-89q-19 -26 -49 -42 t-70 -16q-31 0 -66 4.5t-70 12.5q-26 5 -46.5 8.5t-39.5 5.5h-12z" />
<glyph unicode="&#x2022;" horiz-adv-x="717" d="M362 962q109 0 187 -78q79 -76 79 -186q0 -109 -79 -188q-77 -77 -187 -77t-187 77q-78 81 -78 188q0 108 78 186t187 78z" />
<glyph unicode="&#x2026;" horiz-adv-x="2048" d="M1753 226q25 -28 42 -73.5t17 -101.5q-31 -27 -79 -46t-104 -19q-27 31 -45.5 78.5t-18.5 103.5q31 27 75.5 46t97.5 19zM1083 231q26 -15 45.5 -48t19.5 -74q0 -40 -14 -93q-26 -15 -54 -22.5t-56 -7.5q-41 0 -94 14q-30 51 -30 109q0 49 21 104q42 11 80 15.5t73 4.5z M415 232q27 -9 53 -44q15 -40 15 -86t-22 -96q-26 -8 -53.5 -14t-54.5 -6q-26 0 -50 6t-47 14q-10 28 -15 55t-5 56q0 48 19 96q42 11 80.5 15.5t73.5 4.5z" />
<glyph unicode="&#x20ac;" d="M948 890l-7.5 -32l-9.5 -39.5l-9.5 -39l-7.5 -31.5h-603v-20v-46h587q-1 -6 -3.5 -15.5l-5 -20l-4.5 -19.5t-4 -15l-7.5 -36l-7.5 -36h-540q10 -75 30 -138.5t50 -113.5v1q40 -64 98 -102q63 -40 136 -47h4q10 -1 18 -1.5t18 -0.5q8 0 16 0.5t17 1.5h6q78 7 143 40 q29 17 67 52t82 89l3 -20.5t4 -28.5t4 -28.5l3 -20.5q2 -14 4 -32t4 -32q-78 -92 -151 -128q-63 -31 -138 -43q-24 -4 -48 -5t-49 -1q-19 0 -37 0.5t-35 2.5h1q-109 11 -199 63.5t-153 138.5q-23 32 -43 68.5t-35 77.5q-31 86 -51 207h-130q1 7 4 18t5.5 23l5 23t4.5 18 q3 11 7.5 29.5l7.5 30.5h81v33q0 12 -0.5 15.5t0.5 17.5h-115q1 6 3.5 15.5l5 20l4.5 19.5t4 15l7.5 36l7.5 36h97q42 222 174 365v-1q60 67 133 107v-1q119 68 264 76q5 0 8.5 0.5t8.5 0.5h16q11 0 23 -0.5t23 -1.5q78 -5 152.5 -27t143.5 -62q-2 -29 -5.5 -64t-5.5 -65 q-1 -15 -2.5 -34.5l-3 -40l-3 -40t-3.5 -34.5q-25 14 -45 22l-37 15q-28 76 -78.5 120.5t-118.5 55.5q-9 2 -19 2h-19h-38q-106 -8 -182 -78q-12 -11 -23.5 -24t-20.5 -26q-16 -19 -28 -39l-26 -42l1 1q-21 -44 -34.5 -89.5t-21.5 -95.5h621z" />
</font>
</defs>
</svg>
