<?xml version="1.0" standalone="no"?>
<!DOCTYPE svg PUBLIC "-//W3C//DTD SVG 1.1//EN" "http://www.w3.org/Graphics/SVG/1.1/DTD/svg11.dtd" >
<svg xmlns="http://www.w3.org/2000/svg">
<metadata>
This is a custom SVG webfont generated by Font Squirrel.
Designer    : Peter S Baker
Foundry     : Lakota Language Consortium
Foundry URL : httpwwwlakhotaorg
</metadata>
<defs>
<font id="webfontWsF853xW" horiz-adv-x="956" >
<font-face units-per-em="2048" ascent="1638" descent="-410" />
<missing-glyph horiz-adv-x="559" />
<glyph unicode=" "  horiz-adv-x="559" />
<glyph unicode="&#x09;" horiz-adv-x="559" />
<glyph unicode="&#xa0;" horiz-adv-x="559" />
<glyph unicode="!" horiz-adv-x="520" d="M367 1288q0 -3 -20 -207q-15 -142 -54 -645q0 -16 -31 -16q-35 0 -35 16q-8 199 -32 461q-29 322 -29 381q0 60 41 98q25 23 57 23q103 0 103 -111zM139 96q0 66 57 98q31 17 72 17q60 0 94 -53q21 -32 21 -70q0 -62 -51 -95q-29 -18 -64 -18q-77 0 -112 57 q-17 28 -17 64z" />
<glyph unicode="&#x22;" horiz-adv-x="758" d="M639 1397q0 -18 -7 -66l-43 -283q-6 -53 -11 -104q-1 -8 -34 -8t-34 8q-4 46 -9 88l-50 334q-2 20 -2 29q0 86 94 86q96 0 96 -84zM311 1397l-59 -453q-1 -8 -35 -8t-35 8q-7 94 -32 242q-29 171 -29 209q0 86 96 86q94 0 94 -84z" />
<glyph unicode="#" horiz-adv-x="1016" d="M993 922v-86h-219l-94 -353h197v-86h-220l-102 -387h-90l102 387h-241l-105 -387h-88l103 387h-211v86h233l96 353h-213v86h236l88 327h90l-88 -327h242l88 327h88l-86 -327h194zM684 836h-242l-94 -353h244z" />
<glyph unicode="$" horiz-adv-x="987" d="M895 389q0 -184 -110 -294q-94 -94 -240 -99v-146q0 -16 -43 -16t-43 16v146q-87 6 -168 35q-34 14 -123 57q-28 77 -42 200l-4 63q0 8 1 14q4 17 38 17q24 0 25 -7q13 -145 128 -235q63 -49 145 -66v536l-125 58q-205 95 -205 348q0 122 115 229q77 71 215 84v137 q0 15 43 15t43 -15v-137q84 -5 147 -18q90 -19 94 -19q25 -88 37 -243q1 -16 -27 -22q-33 -6 -38 13q-22 113 -102 177q-49 41 -111 49v-488q197 -61 274 -149q76 -88 76 -240zM262 1057q0 -123 75 -183q38 -30 122 -65v459q-125 -13 -174 -107q-23 -45 -23 -104zM764 293 q0 192 -219 282v-509q76 0 139 53q80 63 80 174z" />
<glyph unicode="%" horiz-adv-x="1823" d="M1735 403q0 -189 -89 -308q-87 -115 -231 -115q-155 0 -244 138q-75 116 -75 285q0 185 88 306q88 122 231 122q187 0 275 -194q45 -103 45 -234zM1583 406q0 180 -56 281q-44 77 -112 77q-103 0 -146 -165q-22 -86 -22 -193q0 -174 55 -277q43 -82 113 -82q95 0 140 151 q28 93 28 208zM504 -78q-3 -4 -9 -4q-12 0 -37 15q-29 19 -24 28l875 1452q3 5 10 5q12 0 33 -12q32 -20 26 -32zM735 973q0 -209 -99 -327q-84 -99 -218 -99q-160 0 -248 142q-72 116 -72 284q0 189 89 309q87 117 231 117q160 0 247 -144q70 -116 70 -282zM586 975 q0 182 -39 259q-49 97 -130 97q-102 0 -145 -164q-22 -85 -22 -192q0 -174 54 -277q44 -84 114 -84q102 0 145 163q23 88 23 198z" />
<glyph unicode="&#x26;" horiz-adv-x="1704" d="M834 1116q0 -130 -125 -203l-89 -51q214 -155 402 -430l92 118q148 192 148 247t-152 55q-15 0 -15 28q0 29 15 29q57 -6 236 -6q184 0 243 6q17 0 17 -25q0 -32 -17 -32q-104 0 -155 -37q-52 -36 -184 -207l-185 -239l70 -103q129 -190 311 -190q120 0 192 78q8 8 26 -6 q6 -6 6 -14q0 -7 -5 -15q-110 -148 -342 -148q-157 0 -348 281q-216 -279 -479 -279q-207 0 -324 129q-96 110 -96 254q0 258 205 377l149 86q-172 124 -172 264q0 122 91 207q87 82 208 82q137 0 216 -87q61 -68 61 -169zM549 1311q-78 0 -123 -70q-31 -48 -31 -106 q0 -110 174 -236q129 75 129 223q0 111 -64 161q-36 28 -85 28zM221 422q0 -163 113 -253q90 -71 221 -71q209 0 377 217q-188 277 -450 467q-261 -151 -261 -360z" />
<glyph unicode="'" horiz-adv-x="422" d="M307 1397l-59 -453q-1 -8 -35 -8t-35 8q-4 47 -9 88l-50 334q-2 20 -2 29q0 86 96 86q94 0 94 -84z" />
<glyph unicode="(" horiz-adv-x="676" d="M647 -324q0 -13 -25 -25l-16 -5q-19 0 -39 16q-193 174 -288 369q-119 240 -119 557q0 262 137 559q91 199 270 369q16 14 39 14q18 0 35 -17q6 -7 6 -12q0 -17 -18 -37q-330 -346 -330 -876q0 -525 334 -877q14 -14 14 -35z" />
<glyph unicode=")" horiz-adv-x="651" d="M510 588q0 -262 -137 -559q-96 -205 -270 -367q-16 -16 -39 -16q-19 0 -35 18q-6 6 -6 12q0 17 18 35q330 342 330 877q0 531 -332 874q-16 16 -16 39q0 12 24 24q10 5 17 5q23 0 39 -14q194 -182 288 -371q119 -241 119 -557z" />
<glyph unicode="*" horiz-adv-x="807" d="M367 694v287l-244 -138l-37 61l246 140l-246 142l37 61l244 -139v276h71v-278l244 141l37 -61l-244 -142l244 -140l-37 -61l-244 138v-287h-71z" />
<glyph unicode="+" horiz-adv-x="1024" d="M907 371h-334v-371h-120v371h-334v100h334v336h120v-336h334v-100z" />
<glyph unicode="," horiz-adv-x="520" d="M236 236q79 0 133 -68q45 -57 45 -129q0 -155 -126 -291q-70 -75 -155 -117q-2 -2 -4 -2q-27 0 -27 27q0 4 2 6l95 102q73 92 73 179q0 49 -34 61q-117 45 -117 135q0 58 55 84q26 13 60 13z" />
<glyph unicode="-" horiz-adv-x="827" d="M707 602q17 0 17 -52q0 -63 -19 -63h-590q-16 0 -16 55q0 60 16 60h592z" />
<glyph unicode="." horiz-adv-x="520" d="M266 211q65 0 97 -55q18 -30 18 -68q0 -65 -54 -97q-27 -16 -61 -16q-74 0 -109 56q-18 29 -18 65q0 68 58 99q30 16 69 16z" />
<glyph unicode="/" horiz-adv-x="717" d="M102 -12q-2 -5 -10 -5q-14 0 -46 15q-42 21 -42 33v2l610 1440q3 6 14 6q14 0 44 -11q43 -21 43 -35v-3z" />
<glyph unicode="0" d="M479 1333q219 0 326 -238q82 -181 82 -452q0 -269 -96 -450q-112 -209 -314 -209q-227 0 -333 248q-74 176 -74 436q0 302 108 483q108 182 301 182zM709 631q0 233 -41 436q-40 201 -187 201q-140 0 -198 -238q-39 -147 -39 -348q0 -212 16 -315q45 -263 167 -308 q23 -8 48 -8q234 0 234 580z" />
<glyph unicode="1" d="M756 -8q-79 8 -262 8q-186 0 -265 -8q-14 0 -14 28q0 29 14 29q117 0 150 27q45 39 45 184v870q0 47 -21 47q-8 0 -24 -8l-129 -59q-20 0 -26 22q-2 9 0 15t7 10q196 95 324 211q6 6 16 6q12 0 13 -14q-6 -90 -6 -172v-926q0 -121 24 -160q35 -53 154 -53q14 0 14 -28 q0 -29 -14 -29z" />
<glyph unicode="2" d="M881 244l-101 -219q-15 -33 -51 -33q-135 8 -323 8q-179 0 -359 -8q-41 0 -41 39q0 9 10 18q442 461 572 764q37 81 37 184q0 106 -76 166q-55 43 -133 43q-144 0 -246 -182q-4 -4 -10 -4q-21 0 -39 17q-9 8 -9 14q0 2 1 4q59 119 151 190q106 88 232 88q150 0 238 -106 q73 -82 73 -219q0 -146 -111 -301q-60 -82 -168 -209l-284 -318q-16 -17 -16 -28q0 -15 30 -15h297q163 0 227 60q27 25 43 63q1 6 17 6q31 -1 39 -14q1 -2 1 -4t-1 -4z" />
<glyph unicode="3" d="M819 414q0 -185 -133 -312q-131 -125 -315 -125q-141 0 -219 54q-56 38 -56 96q0 38 38 62q20 12 42 12q36 0 102 -74q69 -74 146 -74q108 0 174 117q51 94 51 217q0 130 -74 215q-75 88 -208 88q-65 0 -113 -16q-14 0 -14 41q0 39 14 39q180 0 275 93q71 70 71 179 q0 101 -69 159q-50 42 -119 42q-118 0 -207 -137q-1 -3 -6 -3q-22 0 -39 22q-8 9 -8 17q0 2 2 4q137 203 325 203q115 0 193 -84q80 -85 80 -196q0 -167 -183 -271q-32 -18 -32 -25q0 -11 28 -16q254 -51 254 -327z" />
<glyph unicode="4" d="M870 391h-116q-23 0 -23 -20v-244q0 -78 121 -78q14 0 14 -28q0 -29 -14 -29q-77 8 -190 8q-165 0 -242 -8q-14 0 -14 28q0 29 14 29q158 0 158 78v244q0 20 -21 20h-477q-67 0 -67 37q0 11 7 28q11 26 39 64l222 301q14 19 419 604q9 13 39 13q58 0 58 -31l-647 -897 q-8 -11 -8 -19q0 -14 26 -14h389q21 0 21 21v444q0 15 76 15q77 0 77 -15v-444q0 -21 23 -21h116q18 0 18 -43t-18 -43z" />
<glyph unicode="5" d="M813 496q0 -215 -131 -361q-136 -151 -348 -151q-141 0 -206 53q-36 31 -36 74q0 82 82 82q39 0 109 -64q68 -61 135 -61q112 0 190 116q68 101 68 222q0 208 -141 291q-78 46 -191 46q-50 0 -129 -18h-13q-15 0 -15 23q0 5 1 10l93 530q5 29 32 29h471q7 0 7 -17 q0 -53 -26 -107q-9 -19 -15 -19h-383q-29 0 -33 -27l-43 -234q-3 -23 12 -23l80 5q233 0 347 -139q83 -101 83 -260z" />
<glyph unicode="6" d="M473 -16q-191 0 -292 160q-81 128 -81 321q0 286 199 545q196 254 453 368h9q23 -7 23 -37q0 -9 -6 -12q-293 -166 -415 -427q-58 -123 -82 -273q152 137 268 137q142 0 231 -119q84 -109 84 -256q0 -168 -106 -284q-111 -123 -285 -123zM498 63q103 0 164 96 q47 73 47 171q0 146 -73 239q-66 84 -167 84q-113 0 -199 -110q-6 -43 -6 -82q0 -267 113 -358q50 -40 121 -40z" />
<glyph unicode="7" d="M889 1264l-510 -1264q-7 -14 -82 -14q-68 0 -68 14q13 22 51 100l62 138l397 901q9 22 9 28q0 15 -33 15h-215q-163 0 -211 -13q-106 -29 -146 -131q-6 -14 -34 -14q-24 0 -25 14l51 248q6 31 41 31h682q39 0 39 -23q0 -11 -8 -30z" />
<glyph unicode="8" d="M477 -16q-171 0 -276 98q-97 90 -97 233q0 209 273 353q-127 82 -166 141q-70 93 -70 199q0 134 99 233q93 92 237 92q183 0 271 -108q61 -74 61 -187q0 -208 -227 -327q270 -173 270 -379q0 -154 -113 -252q-108 -96 -262 -96zM258 1075q0 -128 159 -246q33 -25 111 -75 q142 100 142 243q0 130 -75 204q-53 56 -142 56q-102 0 -158 -71q-37 -48 -37 -111zM709 260q0 128 -88 213q-85 81 -158 132l-29 20q-174 -101 -174 -289q0 -112 68 -197q71 -88 180 -88q101 0 159 77q42 56 42 132z" />
<glyph unicode="9" d="M483 1333q178 0 281 -145q92 -129 92 -324q0 -312 -238 -586q-169 -193 -405 -313l-8 -1q-16 5 -27 35q-4 10 -4 17q0 6 6 11q190 111 328 270q117 134 166 389q-128 -135 -258 -135q-134 0 -228 103q-93 110 -96 253q0 192 110 311q107 115 281 115zM248 975 q0 -135 70 -227q65 -86 163 -86q112 0 203 112q6 44 6 88q0 234 -98 333q-35 33 -139 56q-109 0 -166 -106q-39 -73 -39 -170z" />
<glyph unicode=":" horiz-adv-x="594" d="M215 737q0 67 56 98q30 17 69 17q68 0 101 -57q12 -26 16 -60q0 -66 -50 -99q-35 -20 -67 -20q-73 0 -107 54q-18 29 -18 67zM215 96q0 67 56 98q30 17 69 17q68 0 101 -57q12 -26 16 -60q0 -66 -50 -99q-35 -20 -67 -20q-73 0 -107 54q-18 29 -18 67z" />
<glyph unicode=";" horiz-adv-x="594" d="M308 236q79 0 133 -68q45 -57 45 -129q0 -155 -126 -291q-70 -75 -155 -117q-2 -2 -4 -2q-27 0 -27 27q0 4 2 6l95 102q73 92 73 179q0 49 -34 61q-117 45 -117 135q0 58 55 84q26 13 60 13zM311 855q65 0 97 -55q18 -30 18 -68q0 -65 -54 -97q-27 -16 -61 -16 q-74 0 -109 56q-18 29 -18 65q0 68 58 99q30 16 69 16z" />
<glyph unicode="&#x3c;" horiz-adv-x="1024" d="M911 -2l-796 377v92l796 379v-119l-649 -303v-4l649 -305v-117z" />
<glyph unicode="=" horiz-adv-x="1024" d="M907 596h-788v100h788v-100zM907 330h-788v100h788v-100z" />
<glyph unicode="&#x3e;" horiz-adv-x="1024" d="M909 375l-796 -377v117l649 305v4l-649 303v119l796 -379v-92z" />
<glyph unicode="?" horiz-adv-x="752" d="M279 1194q-68 0 -68 86q0 82 84 82q130 0 244 -131q115 -141 118 -301q0 -146 -82 -189l-165 -88q-74 -41 -74 -90q0 -56 20 -125q0 -15 -22 -19q-15 -1 -23 7q-75 136 -75 211q0 89 114 151l105 56q116 62 116 151q0 199 -292 199zM459 86q0 -67 -54 -100 q-30 -17 -65 -17q-61 0 -97 49q-22 31 -22 68q0 69 51 106q30 21 68 21q64 0 99 -56q20 -32 20 -71z" />
<glyph unicode="@" horiz-adv-x="1556" d="M1177 95q9 -19 1 -23q-166 -105 -396 -105q-280 0 -473 154q-217 174 -217 479q0 346 246 571q236 213 563 213q280 0 449 -163q155 -150 155 -369q0 -201 -141 -344q-148 -150 -389 -150q-91 0 -111 25q-12 15 -12 39q0 27 44 159l5 15l-8 4q-181 -240 -303 -240 q-92 0 -92 127q0 153 123 334q130 193 282 193q52 0 101 -41l16 51q6 18 47 18q48 0 43 -18l-141 -492q-10 -36 -10 -60q0 -46 42 -46q179 0 293 113q123 121 123 305q0 206 -152 343q-142 128 -362 128q-317 0 -497 -215q-173 -204 -173 -498q0 -218 129 -373 q162 -190 482 -190q144 0 317 72q7 3 16 -16zM981 901q0 64 -98 64q-103 0 -195 -179q-80 -158 -80 -274q0 -70 45 -70q53 0 169 132q41 47 61 77q47 71 76 173z" />
<glyph unicode="A" horiz-adv-x="1398" d="M1367 -7q-73 7 -232 7q-157 0 -229 -7q-14 0 -14 38q0 37 14 38q99 0 99 68q0 23 -8 49l-101 313q-9 32 -44 32h-407q-28 0 -40 -35l-113 -314q-9 -22 -9 -40q0 -73 151 -73q14 0 14 -38q0 -37 -14 -38q-85 7 -214 7q-127 0 -211 -7q-13 0 -13 38q-1 37 13 38 q97 0 135 33q26 23 60 99l377 987q6 17 6 29q0 14 -8 21q-18 20 -18 27q0 5 26 18q53 30 133 86q26 18 38 18q23 0 35 -44q26 -97 49 -166l333 -991q39 -117 192 -117q13 0 13 -38q0 -37 -13 -38zM854 627l-170 532q-6 20 -17 20q-12 0 -20 -20l-197 -532l-2 -15 q3 -12 24 -12h359q25 0 25 16q0 5 -2 11z" />
<glyph unicode="B" horiz-adv-x="1250" d="M1129 353q0 -168 -126 -273q-103 -87 -374 -87l-276 7v0l-262 -7q-13 0 -13 38q-1 37 13 38q180 0 180 117v986q0 110 -189 110q-13 0 -13.5 38t13.5 38q140 -6 256 -6h57l232 6h2q156 0 256 -58q18 -11 37 -24q114 -80 114 -241q0 -197 -196 -290q-15 -7 -15 -14 q0 -5 15 -11q100 -32 188 -115q77 -74 96 -194q5 -29 5 -58zM864 1032q0 265 -381 265q-52 0 -52 -67v-441q0 -36 79 -36q354 0 354 279zM948 372q0 211 -222 289q-87 29 -260 30q-35 0 -35 -30v-384q0 -220 184 -220q333 0 333 315z" />
<glyph unicode="C" horiz-adv-x="1344" d="M1299 306q-29 -148 -74 -242q-8 -16 -16 -28q-32 -4 -77 -17q-147 -46 -366 -46q-239 0 -421 141q-177 137 -233 357q-21 85 -21 176q0 269 147 468q142 190 371 248q86 22 180 22q139 0 291 -30q10 -2 21 -4q114 -24 129 -24q20 -60 28 -285q1 -14 1 -23q0 -17 -33 -19 l-23 2q-12 4 -13 12q-28 292 -389 300h-18q-182 0 -322 -149q-126 -133 -165 -324q-14 -68 -14 -134q0 -259 126 -444q110 -161 274 -203q48 -12 98 -12q367 0 452 269q4 11 33 11q14 0 23 -4t11 -10v-8z" />
<glyph unicode="D" horiz-adv-x="1525" d="M1432 729q0 -310 -163 -508q-161 -197 -435 -224q-41 -4 -83 -4l-412 7q-125 0 -248 -7q-13 0 -13 38q0 37 13 38q180 0 180 117v986q0 110 -189 110q-14 0 -14 38t14 38q140 -6 264 -6l189 3q105 3 168 3q297 0 494 -147q235 -175 235 -482zM1241 716q0 220 -140 379 q-139 156 -360 192q-59 10 -120 10q-87 0 -107 -4q-83 -14 -83 -112v-883q0 -149 65 -201q55 -44 186 -44q256 0 407 180q152 182 152 483z" />
<glyph unicode="E" horiz-adv-x="1235" d="M1156 23q0 -24 -28 -28l-45 -2l-735 7q-112 0 -264 -7q-14 0 -14 38q0 37 14 38q187 0 187 108v995q0 110 -187 110q-14 0 -14 38t14 38q140 -6 264 -6h239l430 6q51 0 61 -6q11 -8 11 -21v-321q0 -17 -39 -17q-36 0 -36 17q0 266 -258 272l-284 7q-41 1 -41 -48v-532 q0 -33 28 -33h206q78 0 100 33q17 25 17 84v74q0 13 35 13q35 1 35 -13q-8 -71 -8 -227q0 -130 8 -210q0 -13 -35 -14q-35 0 -35 14v82q0 43 -22 73q-22 22 -95 22h-209q-25 0 -25 -31v-314q0 -113 65 -168q38 -32 91 -32l235 7q259 8 259 271q0 17 36 17q39 0 39 -17v-317z " />
<glyph unicode="F" horiz-adv-x="1170" d="M1108 1010q0 -18 -34 -18q-42 0 -42 18q0 255 -259 262l-301 10q-41 0 -41 -41v-494q0 -31 28 -31h164q79 0 101 38q16 27 16 92v117q0 13 35 13t35 -13q-8 -70 -8 -285q0 -212 8 -283q0 -13 -35 -13t-35 13v117q0 89 -43 114q-25 14 -74 14h-167q-25 0 -25 -25v-429 q0 -117 188 -117q13 0 13 -38q0 -37 -13 -38q-89 7 -266 7q-176 0 -262 -7q-13 0 -13 38q0 37 13 38q180 0 180 117v986q0 110 -187 110q-14 0 -14 38t14 38q116 -5 264 -5h242q222 3 445 5q70 0 73 -19v-329z" />
<glyph unicode="G" horiz-adv-x="1409" d="M1371 478q-141 0 -141 -115v-219q0 -67 37 -67q14 0 14 -23t-14 -23q-12 0 -111 -12l-210 -35q-90 -11 -178 -11q-146 0 -310 77q-220 100 -314 336q-53 133 -53 281q0 242 171 470q185 248 509 248q164 0 331 -34q116 -24 130 -24q19 -49 29 -308q0 -18 -33 -18 q-35 0 -36 13q-7 104 -78 182q-109 118 -348 118q-219 0 -357 -189q-127 -174 -127 -399q0 -306 154 -497q144 -181 346 -181q188 0 266 47q22 16 22 78v190q0 115 -228 115q-14 0 -14 34q0 42 14 42q56 -6 310 -6q162 0 219 6q15 0 15 -37q0 -39 -15 -39z" />
<glyph unicode="H" horiz-adv-x="1620" d="M1551 -7q-160 7 -258 7q-102 0 -260 -7q-13 0 -13 38q0 37 13 38q178 0 178 117v435q0 38 -39 38h-702q-39 0 -39 -38v-435q0 -117 180 -117q13 0 13 -38t-13 -38q-149 7 -258 7q-100 0 -260 -7q-13 0 -13 38q0 37 13 38q178 0 178 117v986q0 115 -189 115q-14 0 -14 38 t14 38q45 -5 271 -5q213 0 258 5q13 0 13 -38t-13 -38q-180 0 -180 -115v-390q0 -39 39 -39h702q39 0 39 39v390q0 115 -189 115q-14 0 -14 38t14 38q45 -5 271 -5q213 0 258 5q13 0 13 -38t-13 -38q-180 0 -180 -115v-986q0 -117 180 -117q13 0 13 -38t-13 -38z" />
<glyph unicode="I" horiz-adv-x="683" d="M611 -7q-86 7 -258 7q-174 0 -260 -7q-13 0 -13 38q-1 37 13 38q178 0 178 117v986q0 115 -189 115q-13 0 -13.5 38t13.5 38q45 -5 271 -5q213 0 258 5q13 0 13 -38t-13 -38q-105 0 -140 -24q-40 -26 -40 -91v-986q0 -117 180 -117q13 0 13 -38q0 -37 -13 -38z" />
<glyph unicode="J" horiz-adv-x="716" d="M644 1287q-192 0 -192 -115v-538q0 -400 -16 -572q-16 -171 -46 -221q-77 -125 -146 -179q-102 -81 -211 -81q-64 0 -105 44q-25 28 -25 67q0 60 57 83q22 9 49 9q73 0 122 -53q21 -22 29 -48q70 24 104 120q28 84 28 457v912q0 84 -111 108q-35 7 -79 7q-14 0 -14 38 t14 38q47 -5 272 -5q211 0 270 5q14 0 14 -38t-14 -38z" />
<glyph unicode="K" horiz-adv-x="1335" d="M1336 -7q-79 7 -274 7q-185 0 -262 -7q-14 0 -14 38q0 37 14 38q96 0 96 59q0 24 -25 58l-269 353q-53 67 -113 95q-23 11 -41 11q-17 0 -17 -22v-437q0 -117 180 -117q13 0 13 -38t-13 -38q-77 7 -258 7q-185 0 -262 -7q-13 0 -13 38q0 37 13 38q180 0 180 117v986 q0 115 -189 115q-14 0 -14 38t14 38q45 -5 271 -5q220 0 266 5q13 0 13 -38t-13 -38q-188 0 -188 -115v-437q0 -23 13 -23q29 0 92 67q15 15 27 31l293 365q40 52 40 78q0 34 -65 34q-13 0 -13 38t13 38q44 -5 193 -5q124 0 170 5q14 0 14 -38t-14 -38q-85 0 -163 -51 q-26 -17 -41 -35l-358 -433q-5 -9 -5 -16t5 -14l458 -565q84 -104 246 -104q14 0 14 -38t-14 -38z" />
<glyph unicode="L" horiz-adv-x="1344" d="M1264 27q0 -28 -36 -32q-14 -2 -45 -2l-799 7h-36q-110 0 -253 -7q-13 0 -13 38t13 38q171 0 176 108v995q0 115 -189 115q-14 0 -14 38t14 38q45 -5 271 -5q207 0 252 5q13 0 13 -38t-13 -38q-174 0 -174 -115v-895q0 -121 69 -180q41 -35 109 -35l313 13q136 5 209 110 q55 80 55 194q0 13 39 13t39 -13v-352z" />
<glyph unicode="M" horiz-adv-x="1848" d="M1770 1287q-129 0 -167 -70q-21 -40 -21 -111l7 -920q1 -117 159 -117q14 0 14 -38t-14 -38q-75 7 -244 7q-139 0 -224 -7q-14 0 -14 38q0 37 14 38q149 0 149 117l-4 853q0 13 -8 13q-7 0 -13 -7l-508 -1051q-7 -17 -21 -17q-16 0 -23 17l-464 1047q-7 17 -17 17 q-8 0 -10 -17l-51 -855l2 -32q15 -85 156 -85q14 0 14 -38t-14 -38q-81 7 -191 7q-122 0 -206 -7q-13 0 -13 38q0 37 13 38q149 0 157 117l59 944q0 111 -83 142q-40 15 -107 15q-13 0 -13 38t13 38q45 -5 159 -5q95 0 127 -16q31 -15 51 -57l472 -1008q13 -27 21 -27t24 29 l485 1012q22 46 60 58q30 9 106 9q120 0 168 5q14 0 14 -38t-14 -38z" />
<glyph unicode="N" horiz-adv-x="1482" d="M1423 1287q-136 0 -136 -116v-1142q0 -50 -19 -50q-16 0 -40 30l-867 1095q-11 13 -21 13q-12 0 -12 -18v-913q0 -117 159 -117q13 0 13 -38t-13 -38q-81 7 -191 7q-123 0 -206 -7q-14 0 -14 38t14 38q167 0 167 117v924q0 118 -67 154q-41 23 -121 23q-13 0 -13 38 t13 38q44 -5 174 -5q80 0 102 -5q42 -10 69 -44l758 -977q10 -13 24 -13q23 0 23 33v819q0 116 -171 116q-14 0 -14 38t14 38q46 -5 207 -5q122 0 168 5q13 0 13 -38t-13 -38z" />
<glyph unicode="O" horiz-adv-x="1461" d="M1383 663q0 -220 -134 -419q-184 -271 -514 -271q-212 0 -383 126q-104 73 -177 213q-84 164 -84 355q0 255 165 476q180 242 484 242q232 0 401 -153q242 -224 242 -569zM1192 647q0 289 -159 492q-142 175 -300 175q-170 0 -281 -115q-103 -105 -147 -285 q-23 -93 -23 -188q0 -336 179 -527q136 -151 288 -151q245 0 365 235q78 162 78 364z" />
<glyph unicode="P" horiz-adv-x="1164" d="M1116 984q0 -184 -132 -286q-130 -102 -346 -102q-120 0 -174 6q-8 1 -17 -2q-16 -6 -16 -31v-383q0 -117 186 -117q13 0 13 -38t-13 -38q-77 7 -264 7q-183 0 -260 -7q-13 0 -13 38q0 37 13 38q178 0 178 117v986q0 115 -189 115q-13 0 -13 35q0 36 13 36q116 -5 266 -5 l295 5h1q202 0 330 -93q142 -104 142 -281zM944 984q0 129 -100 217q-106 95 -277 95h-89q-47 0 -47 -31v-558q0 -34 33 -40q63 -9 112 -9q368 0 368 326z" />
<glyph unicode="Q" horiz-adv-x="1474" d="M1648 -284q14 -4 14 -24q0 -8 -2 -18q-8 -33 -21 -33h-2q-420 83 -1136 368q-129 56 -233 169q-177 193 -177 489q0 255 165 476q180 242 484 242q241 0 401 -153q242 -231 242 -569q0 -220 -134 -419q-100 -146 -227 -206q-17 -8 -17 -22q0 -12 14 -23q77 -60 230 -133 q176 -85 399 -144zM1192 647q0 236 -94 398q-157 269 -365 269q-170 0 -281 -115q-170 -173 -170 -473q0 -336 179 -527q137 -152 288 -152q251 0 362 230q81 168 81 370z" />
<glyph unicode="R" horiz-adv-x="1405" d="M1414 -21q-42 -4 -67 -4q-163 0 -241 54q-122 85 -211 202l-175 256q-48 71 -84 95q-19 14 -73 14q-57 0 -107 6q-10 1 -18 -5q-7 -6 -7 -18v-393q0 -117 194 -117q13 0 13 -38t-13 -38q-78 7 -272 7q-185 0 -262 -7q-13 0 -13 38q0 37 13 38q180 0 180 117v986 q0 110 -189 110q-14 0 -14 38t14 38q116 -5 266 -5h76l219 5h1q230 0 357 -93q135 -100 135 -281q0 -277 -267 -348q-15 -4 -16 -17q0 -12 16 -40q145 -257 359 -459q111 -105 186 -105q14 0 14 -18q0 -17 -14 -18zM963 984q0 131 -101 217q-109 95 -295 95h-89 q-47 0 -47 -31v-560q0 -31 28 -36q54 -11 117 -11q387 0 387 326z" />
<glyph unicode="S" horiz-adv-x="1042" d="M583 48q92 0 159 74q64 70 64 166q0 127 -90 217q-37 37 -187 100q-125 53 -164 71q-164 77 -209 226q-19 64 -19 148q0 144 110 239q111 96 278 96q104 0 206 -23q71 -18 93 -18q4 0 7 1q28 -101 38 -258q1 -19 -31 -24q-34 -4 -38 14q-21 110 -99 180q-67 61 -195 61 q-138 0 -210 -125q-19 -44 -19 -98q0 -146 104 -216q53 -35 171 -71q159 -49 220 -86q172 -104 172 -332q0 -190 -112 -306q-107 -111 -278 -111q-134 0 -226 31q-19 7 -151 69q-49 155 -49 273q0 11 2 19q4 18 37 18q29 0 30 -9q9 -129 103 -219q111 -107 283 -107z" />
<glyph unicode="T" horiz-adv-x="1585" d="M1551 1006q0 -14 -38 -14t-38 14q0 257 -262 266l-289 10q-51 0 -51 -46v-1050q0 -117 189 -117q14 0 14 -38t-14 -38q-78 7 -265 7q-203 0 -281 -7q-14 0 -14 38q0 37 14 38q103 0 160 46q37 30 37 71v1050q0 46 -48 46l-289 -10q-265 -9 -265 -266q0 -14 -38 -14 t-38 14v319q0 34 78 33q222 -3 445 -5h470q370 5 445 5q78 0 78 -33v-319z" />
<glyph unicode="U" horiz-adv-x="1497" d="M1469 1287q-180 0 -180 -115v-282q0 -279 -11 -436q-16 -239 -159 -366q-130 -115 -361 -115q-157 0 -255 40q-166 68 -215 255q-32 131 -32 271v633q0 115 -185 115q-13 0 -13 38t13 38q44 -5 269 -5q239 0 285 5q13 0 13 -38t-13 -38q-206 0 -206 -115v-631 q0 -260 72 -355q99 -138 304 -138q181 0 286 105q98 96 98 334v685q0 115 -188 115q-13 0 -13 38t13 38q45 -5 243 -5q190 0 235 5q13 0 13 -38t-13 -38z" />
<glyph unicode="V" horiz-adv-x="1287" d="M1310 1287q-154 0 -187 -86l-476 -1214q-10 -26 -26 -25q-17 0 -32 44l-409 1166q-40 115 -147 115q-13 0 -13 38t13 38q44 -5 229 -5q183 0 229 5q13 0 13 -38t-13 -38q-143 0 -143 -74q0 -17 7 -41l304 -880q7 -20 16 -20q11 0 20 22l319 869q10 33 10 46q0 78 -102 78 q-14 0 -14 38t14 38q46 -5 194 -5q149 0 194 5q14 0 14 -38t-14 -38z" />
<glyph unicode="W" horiz-adv-x="1971" d="M2012 1287q-130 0 -169 -86l-542 -1194q-17 -36 -27 -36q-12 0 -27 35l-228 512q-8 16 -16 16t-15 -16l-232 -512q-15 -35 -27 -35q-9 0 -26 35l-523 1166q-51 115 -147 115q-13 0 -13 38t13 38q44 -5 217 -5q164 0 211 5q13 0 13 -38t-13 -38q-113 0 -113 -57 q0 -24 15 -58l395 -880q9 -19 17 -19q11 0 20 21l145 317q8 18 8 39q0 22 -10 45l-214 477q-52 115 -137 115q-13 0 -13 38t13 38q44 -5 208 -5t210 5q13 0 13 -38t-13 -38q-113 0 -113 -55q0 -24 16 -60l116 -259q11 -23 19 -23t19 25l113 248q17 37 17 63q0 61 -100 61 q-14 0 -14 38t14 38q46 -5 184 -5q149 0 195 5q13 0 13 -38t-13 -38q-149 0 -188 -86l-175 -388q-11 -25 -11 -46q0 -16 7 -32l199 -443q10 -19 18 -19q10 0 18 21l396 869q17 37 17 62q0 62 -99 62q-13 0 -13 38t13 38q47 -5 183 -5q130 0 176 5q14 0 14 -38t-14 -38z" />
<glyph unicode="X" horiz-adv-x="1330" d="M1097 186q76 -117 240 -117q13 0 13 -38t-13 -38q-76 7 -258 7q-179 0 -255 -7q-14 0 -14 38t14 38q114 0 114 53q0 26 -29 69l-264 392q-11 17 -20 17q-10 0 -22 -17l-204 -281q-95 -131 -95 -182t120 -51q14 0 14 -38t-14 -38q-74 7 -233 7q-133 0 -220 -7 q-13 0 -13 38t13 38q161 0 226 86l374 496q8 11 8 20q0 12 -12 30l-324 478q-45 67 -96 88q-45 19 -128 20q-13 0 -13 38t13 38q45 -5 273 -5q236 0 284 5q14 0 14 -38t-14 -38q-139 0 -139 -57q0 -25 22 -59l210 -327q11 -16 21 -16q12 0 24 16l241 319q38 50 38 78 q0 46 -87 46q-14 0 -14 38t14 38q44 -5 202 -5q151 0 197 5q13 0 13 -38t-13 -38q-118 0 -185 -51q-40 -31 -127 -144l-240 -314q-11 -14 -11 -29q0 -13 9 -27z" />
<glyph unicode="Y" horiz-adv-x="1235" d="M1285 1287q-88 0 -141 -42q-53 -43 -147 -186l-231 -354q-50 -76 -58 -93q-19 -44 -19 -123v-303q0 -117 164 -117q13 0 13 -38t-13 -38q-75 7 -240 7q-173 0 -248 -7q-13 0 -13 37.5t13 38.5q108 0 140 37q24 27 24 80v301q0 96 -28 147l-326 538q-67 115 -188 115 q-13 0 -13 38t13 38q44 -5 237 -5q192 0 239 5q13 0 13 -38t-13 -38q-121 0 -121 -57q0 -22 21 -58l281 -472q8 -14 15.5 -14t16.5 14l298 463q27 43 27 71q0 53 -111 53q-14 0 -14 38t14 38q45 -5 202 -5q148 0 193 5q13 0 13 -38t-13 -38z" />
<glyph unicode="Z" horiz-adv-x="1241" d="M1261 336q-48 -236 -48 -353q0 -13 -15 -16l-55 12q-187 21 -660 21h-365q-35 0 -35 24q0 13 10 27l875 1198q9 12 9 21q0 21 -31 21h-554q-55 0 -77 -30q-72 -92 -104 -174q-17 -43 -36 -110q-2 -7 -20 -7q-26 0 -29 14q33 213 33 363q0 18 37 18l147 -9h481 q146 0 184 2q117 6 184 6q25 0 25 -16q0 -11 -14 -30l-863 -1200q-9 -12 -9 -24q0 -22 30 -25q403 -2 640 13q80 5 163 163q39 74 47 107q3 12 35 0q15 -5 15 -16z" />
<glyph unicode="[" horiz-adv-x="725" d="M666 -354h-357q-22 0 -22 22v1843q0 19 20 19h359q17 0 17 -35q0 -43 -17 -43h-220q-20 0 -20 -22v-1678q0 -28 14 -28h226q17 0 17 -36q0 -42 -17 -42z" />
<glyph unicode="\" horiz-adv-x="717" d="M713 25v-7q-5 -9 -29 -20q-36 -16 -55 -16q-15 0 -17 6l-608 1444q-2 2 -2 6q0 14 30 30q32 15 56 15q16 0 18 -8z" />
<glyph unicode="]" horiz-adv-x="739" d="M452 -332q0 -22 -22 -22h-377q-23 0 -23 41q0 37 21 37h250q12 0 12 24v1682q0 22 -18 22h-224q-24 0 -24 43q0 35 20 35h365q20 0 20 -19v-1843z" />
<glyph unicode="^" horiz-adv-x="1096" d="M985 535h-135l-301 682l-303 -682h-140l390 837h104z" />
<glyph unicode="_" horiz-adv-x="1024" d="M1024 -256h-1024v102h1024v-102z" />
<glyph unicode="`" horiz-adv-x="569" d="M461 1081q4 -11 4 -20q0 -39 -35 -39q-23 0 -41 29l-168 271q-4 5 -4 13q0 26 40 45q22 11 41 11q24 0 31 -16z" />
<glyph unicode="a" horiz-adv-x="797" d="M481 199v215q0 22 -14 22q-7 0 -60 -26q-170 -86 -170 -222q0 -64 52 -94q27 -16 67 -16t82.5 42.5t42.5 78.5zM781 123q22 -3 29 -30q0 -3 -1 -5q-41 -69 -76 -90t-92 -21q-106 0 -143 136q-76 -76 -121 -106t-132 -30t-133 77q-28 47 -28 108q0 97 98 172q21 17 47 31 l232 129q20 11 20 32v181q0 88 -133 88q-97 0 -135 -50q-8 -13 -15 -93q-14 -99 -69 -99t-55 56t40.5 112.5t69.5 73.5q128 75 246 75q72 0 138.5 -40t66.5 -99v-532q0 -115 67 -115q32 0 72 37z" />
<glyph unicode="b" horiz-adv-x="1001" d="M930 430q0 -218 -111.5 -335.5t-294.5 -117.5q-59 0 -155 46q-24 10 -58 10t-96 -56q-3 -2 -9 -2t-21 6q-31 12 -31 19q4 61 4 260v918q0 133 -92 133q-17 0 -17 27.5t17 27.5q25 0 105 41t100.5 59.5t32.5 18.5q13 0 13 -25l-6 -124v-500q0 -27 13 -27q9 0 20 6 q94 55 176 55q176 0 293 -131.5t117 -308.5zM756 414q0 156 -76.5 266.5t-198.5 110.5q-86 0 -147 -50q-23 -18 -23 -94v-346q0 -81 75.5 -172.5t171.5 -91.5q97 0 147.5 111t50.5 266z" />
<glyph unicode="c" horiz-adv-x="817" d="M743 152q11 5 28 -21q10 -15 10 -24q0 -7 -5 -11q-38 -30 -87 -59q-97 -60 -240 -60q-150 0 -254 115q-109 119 -109 293q0 196 119 336q125 149 307 149q204 0 244 -73q6 -18 6 -34q0 -30 -25 -58q-23 -23 -39 -23q-14 0 -24 14q-78 107 -180 107q-88 0 -162 -96 q-83 -108 -83 -271q0 -154 95 -256q84 -90 188 -90q100 0 211 62z" />
<glyph unicode="d" horiz-adv-x="1012" d="M842 231q0 -149 82 -149q22 0 47 6q12 2 18 -37q2 -19 -6 -20q-37 -5 -153.5 -31.5t-124.5 -32.5q-17 0 -17 49v41q0 23 -11.5 23t-27.5 -14q-94 -89 -196 -89q-197 0 -292 122.5t-95 311.5t132 324t343 135q70 0 114 -14q12 -4 19 -4q14 0 14 25v294q0 140 -92 140 q-17 0 -17 27.5t17 27.5q25 0 98 36.5t103.5 59.5t40.5 23q11 0 10 -15l-6 -108v-1131zM688 199v469q0 75 -22 94q-59 49 -148 49q-134 0 -211.5 -111.5t-77.5 -259.5q0 -149 83 -257.5t192 -108.5q78 0 131 41t53 84z" />
<glyph unicode="e" horiz-adv-x="838" d="M768 604q0 -55 -51 -55h-449q-30 0 -30 -66q0 -160 73 -270q80 -119 215 -119q100 0 201 60l11 3q18 -1 27 -19l1 -13q0 -5 -4 -8q-158 -140 -320 -140q-144 0 -254 140q-103 136 -103 319q0 173 114 305q113 129 252 129q143 0 239 -108q78 -88 78 -158zM621 633 q0 44 -50 106q-59 72 -118 72q-126 0 -189 -166l-3 -15q2 -14 24 -14h321q15 0 15 17z" />
<glyph unicode="f" horiz-adv-x="584" d="M858 1374q0 -46 -41 -75q-22 -15 -45 -15q-56 0 -106 59q-41 50 -95 50q-123 0 -181 -119q-36 -74 -36 -173v-214q0 -37 37 -37h203q15 0 15 -43t-15 -43h-203q-37 0 -37 -37v-600q0 -78 148 -78q14 0 14 -28l-3 -19q-4 -10 -11 -10q-85 8 -217 8q-120 0 -201 -8 q-14 0 -14 28l3 19q4 10 11 10q117 0 117 78v600q0 37 -37 37h-74q-15 0 -15 27l3 18q4 10 12 10q111 0 111 86v19q0 250 135 401q147 162 336 162q119 0 165 -55q21 -25 21 -58z" />
<glyph unicode="g" horiz-adv-x="948" d="M819 -242q0 187 -244 187h-184q-35 0 -61 -19q-111 -81 -111 -184q0 -92 70 -150q76 -61 215 -61q137 0 227 68q88 65 88 159zM631 543q0 172 -86 237q-41 31 -99 31q-80 0 -137 -66q-59 -67 -59 -175q0 -110 67 -183q65 -68 144 -68q170 0 170 224zM948 707h-166 q4 -37 4 -109q0 -132 -77 -223q-97 -115 -279 -115l-76 4v0q-21 0 -43 -14q-69 -45 -69 -100q0 -80 149 -80h254q297 0 297 -228q0 -170 -162 -286q-157 -115 -368 -115q-179 0 -275 84q-78 67 -78 162q0 104 187 239q16 13 16 21q0 9 -14 14l-6 2q-136 39 -136 148 q0 51 114 131q10 7 22 14q15 9 15 21t-15 22q-146 92 -146 250q0 135 101 227q100 94 245 94q109 0 205 -43q78 -34 129 -34h172q15 0 15 -44q0 -42 -15 -42z" />
<glyph unicode="h" horiz-adv-x="1094" d="M922 127q0 -78 127 -78q14 0 14 -28.5t-14 -28.5q-81 8 -198 8t-196 -8q-14 0 -14 28.5t14 28.5q113 0 113 78v420q0 97 -59 165t-143 68q-85 0 -148.5 -51t-63.5 -100v-502q0 -78 111 -78q14 0 14 -28.5t-14 -28.5q-105 8 -205 8t-180 -8q-14 0 -14 28.5t14 28.5 q121 0 121 78v1047q0 139 -92 139q-17 0 -17 27.5t17 27.5q33 0 97.5 34t97.5 59.5t44 25.5q12 0 12 -17q-6 -107 -6 -165v-514q0 -25 16 -25q9 0 17 8q91 96 241 96q145 0 219.5 -105.5t74.5 -215.5v-422z" />
<glyph unicode="i" horiz-adv-x="524" d="M467 -8q-76 8 -182 8q-116 0 -197 -8q-14 0 -14 28q0 29 14 29q113 0 113 78v447q0 128 -84 128q-17 0 -17 27q0 29 17 29q59 0 202 114q15 11 23 11q19 0 18 -21q-6 -105 -6 -131v-604q0 -78 113 -78q14 0 14 -28q0 -29 -14 -29zM365 1157q0 -57 -48 -90 q-27 -19 -61 -19q-60 0 -90 50q-16 27 -16 59q0 63 49 91q26 15 57 15q59 0 91 -47q18 -27 18 -59z" />
<glyph unicode="j" horiz-adv-x="518" d="M101 729q0 29 16 29q48 0 165 80q22 15 35 26q20 19 33 19q17 0 19 -27q-11 -164 -11 -264v-533q0 -326 -110 -483q-95 -131 -248 -131q-62 0 -100 39q-25 24 -25 57q0 43 42 62q17 8 36 8q49 0 88 -39q41 -39 65 -39q99 0 99 213v786q0 170 -88 170q-16 0 -16 27z M365 1157q0 -57 -48 -90q-27 -19 -61 -19q-60 0 -90 50q-16 27 -16 59q0 63 49 91q26 15 57 15q59 0 91 -47q12 -18 16 -39q2 -10 2 -20z" />
<glyph unicode="k" horiz-adv-x="1008" d="M664 723q26 29 26 47q0 33 -96 33q-14 0 -14 26q0 27 14 27q92 -6 180 -6q122 0 184 6q14 0 14 -26q0 -27 -14 -27q-92 0 -163 -68l-213 -205q-19 -17 -19 -34q0 -16 17 -35l321 -367q39 -45 129 -45q14 0 14 -28q0 -29 -14 -29q-81 8 -203 8q-120 0 -200 -8 q-14 0 -14 28q0 29 14 29q82 0 82 29q0 12 -31 49l-221 254q-28 31 -74 31q-29 0 -29 -43v-242q0 -78 119 -78q14 0 14 -28q0 -29 -14 -29q-90 8 -188 8q-118 0 -199 -8q-14 0 -14 28q0 29 14 29q115 0 115 78v1044q0 140 -92 140q-17 0 -17 25q0 30 17 30q55 0 186 88 l33 23q14 10 18 10q14 0 14 -19q-6 -75 -6 -153v-793q0 -43 39 -43q53 0 74 23z" />
<glyph unicode="l" horiz-adv-x="524" d="M354 127q0 -78 119 -78q14 0 14 -28.5t-14 -28.5q-77 8 -192.5 8t-196.5 -8q-14 0 -14 28.5t14 28.5q117 0 117 78v1044q0 140 -92 140q-17 0 -17 27.5t17 27.5q46 0 165 74q34 21 50 33t26 12t10 -15q-6 -57 -6 -97v-1246z" />
<glyph unicode="m" horiz-adv-x="1610" d="M1556 -8q-77 8 -194 8q-109 0 -186 -8q-14 0 -14 28q0 29 14 29q110 0 110 78v453q0 114 -53 155q-57 45 -146 45q-86 0 -137 -80q-53 -83 -53 -223v-350q0 -78 115 -78q14 0 14 -28q0 -29 -14 -29q-80 8 -195 8q-107 0 -184 -8q-14 0 -14 28q0 29 14 29q110 0 110 78 v405q0 161 -49 213q-35 35 -110 35h-23q-50 0 -123 -53q-83 -62 -83 -137v-463q0 -78 106 -78q14 0 14 -28q0 -29 -14 -29q-77 8 -189 8t-192 -8q-14 0 -14 28q0 29 14 29q121 0 121 78v451q0 124 -84 124q-17 0 -17 27q0 29 17 29q40 0 160 83q22 15 34 25q22 17 33 17 q14 0 14 -27q-4 -51 -4 -83q0 -21 12 -21q9 0 17 8q104 110 252 110q143 0 217 -122q11 -16 18 -16q10 0 21 13q113 125 274 125q112 0 176 -61q68 -76 85 -130q14 -43 14 -114v-438q0 -78 116 -78q14 0 14 -28q0 -29 -14 -29z" />
<glyph unicode="n" horiz-adv-x="1069" d="M1012 -8q-77 8 -183 8q-116 0 -196 -8q-14 0 -14 28q0 29 14 29q110 0 110 78v403q0 163 -49 215q-30 35 -110 35h-21q-48 0 -125 -53q-84 -61 -84 -137v-463q0 -78 107 -78q14 0 14 -28q0 -29 -14 -29q-77 8 -185 8q-111 0 -190 -8q-14 0 -14 28q0 29 14 29 q115 0 115 78v447q0 128 -84 128q-17 0 -17 27q0 29 17 29q62 0 163 84l25 20q25 21 37 21q14 0 14 -31l-2 -73q0 -21 14 -21q8 0 15 6q106 106 254 106q157 0 227 -147q33 -66 33 -248v-348q0 -78 115 -78q14 0 14 -28q0 -29 -14 -29z" />
<glyph unicode="o" horiz-adv-x="995" d="M924 426q0 -182 -105 -307q-117 -142 -313 -142q-175 0 -299 142q-123 142 -123 305q0 172 123 307q127 139 297 139q177 0 301 -139q119 -134 119 -305zM761 420q0 178 -85 291q-75 100 -170 100q-96 0 -172 -100q-87 -111 -87 -291q0 -175 85 -281q78 -96 172 -96 t172 96q85 106 85 281z" />
<glyph unicode="p" horiz-adv-x="1001" d="M772 420q0 368 -264 368q-84 0 -160 -100q-20 -26 -20 -94v-389q0 -164 260 -164q84 0 138 117q46 111 46 262zM946 438q0 -217 -114 -344q-105 -117 -300 -117q-110 0 -167 19q-6 2 -11 2q-26 0 -26 -33v-381q0 -86 151 -86q14 0 14 -28q0 -29 -14 -29q-85 8 -225 8 q-115 0 -195 -8q-14 0 -14 28q0 29 14 29q115 0 115 84v999q0 124 -86 124q-17 0 -17 25q0 30 17 30q29 0 125 54q46 26 63 44q25 25 43 25q13 0 13 -27q-4 -60 -4 -68q0 -20 16 -20q9 0 18 8q82 94 187 94q162 0 291 -144q106 -110 106 -288z" />
<glyph unicode="q" horiz-adv-x="1012" d="M688 205v418q0 39 -14 59q-65 106 -152 106q-293 1 -293 -353q0 -159 53 -261q69 -133 171 -133q235 0 235 164zM975 -559q-83 8 -207 8q-130 0 -213 -8q-14 0 -14 28q0 29 14 29q133 0 133 86v379q0 37 -19 37l-13 -2q-55 -21 -204 -21q-181 0 -275 104 q-111 124 -111 339q0 208 126 333q117 117 272 117q131 0 247 -59l119 55q23 -1 32 -13q10 -13 7 -32q-27 -27 -27 -299v-940q0 -84 133 -84q14 0 14 -28q0 -29 -14 -29z" />
<glyph unicode="r" horiz-adv-x="696" d="M692 770q0 -54 -41 -84q-21 -16 -47 -16q-17 0 -71 29q-37 20 -60 20q-61 0 -103 -61q-42 -60 -42 -164v-367q0 -78 151 -78q14 0 14 -28q0 -29 -14 -29q-84 8 -211 8q-126 0 -209 -8q-14 0 -14 28q0 29 14 29q115 0 115 78v462q0 113 -84 113q-17 0 -17 27q0 29 17 29 q38 0 134 63q37 24 52 39q28 23 39 23q17 0 17 -25q-4 -49 -4 -98q0 -32 15 -32q12 0 26 20q89 122 213 122q57 0 90 -43q20 -26 20 -57z" />
<glyph unicode="s" horiz-adv-x="707" d="M649 246q0 -60 -23 -111q-54 -110 -182 -146q-50 -14 -106 -14q-156 0 -240 60q-20 63 -20 172v45q0 15 24 15q23 0 25 -15q5 -39 57 -116q68 -97 187 -97q59 0 106 35q55 39 55 106q0 73 -40 113q-46 45 -158 76q-242 69 -242 258q0 102 86 174q82 69 201 69 q139 0 217 -36q31 -84 31 -170v-11q0 -14 -22 -14t-25 14q-10 54 -64 101q-61 55 -151 55q-64 0 -109 -35q-49 -40 -49 -100q0 -69 42 -107q25 -22 154 -61q134 -41 179 -86q67 -67 67 -174z" />
<glyph unicode="t" horiz-adv-x="674" d="M643 78q-84 -101 -229 -101q-127 0 -181 70q-40 52 -40 166v507q0 40 -40 40h-73q-14 0 -14 23t14 23q69 0 148 85q52 56 73 110q4 9 15 9q7 0 18 -4q12 -5 12 -15v-98q0 -43 41 -43h244q14 0 14 -45t-14 -45h-244q-41 0 -41 -40v-403q0 -112 25 -165q37 -78 137 -78 q50 0 108 39q14 10 24 -8q5 -10 5 -19q0 -5 -2 -8z" />
<glyph unicode="u" horiz-adv-x="1036" d="M1010 31q-35 -6 -144 -29l-130 -34q-4 -1 -7 -1q-16 0 -16 45v45q0 24 -13 24q-10 0 -26 -15q-95 -89 -234 -89q-110 0 -194 121q-72 104 -72 203v335q0 147 -111 147q-15 0 -15 28t15 28q106 0 169 9q66 9 90 9q14 0 14 -16q-8 -107 -8 -152v-355q0 -104 32 -170 q40 -90 125 -90q92 0 160 52t68 126v384q0 147 -111 147q-15 0 -15 28t15 28q123 0 180 9q58 9 70 9q20 0 20 -27q-6 -60 -6 -139v-464q0 -145 82 -145l47 6v0q17 2 22 -31v-8q0 -16 -7 -18z" />
<glyph unicode="v" horiz-adv-x="838" d="M862 830q0 -27 -14 -27q-96 0 -121 -72l-250 -715q-13 -39 -45 -39q-26 0 -37 27l-280 727q-29 72 -103 72q-14 0 -14 26q0 27 14 27q58 -6 172 -6q123 0 183 6q14 0 14 -26q0 -27 -14 -27q-78 0 -78 -55q0 -17 4 -29l160 -490q6 -18 13 -18q9 0 15 18l170 498q4 10 4 23 q0 53 -96 53q-14 0 -14 26q0 27 14 27q57 -6 146 -6q83 0 143 6q14 0 14 -26z" />
<glyph unicode="w" horiz-adv-x="1331" d="M115 731q-29 72 -103 72q-14 0 -14 26q0 27 14 27q58 -6 172 -6q123 0 183 6q14 0 14 -26q0 -27 -14 -27q-78 0 -78 -55q0 -17 4 -29l160 -490q6 -18 14 -18t14 18l150 435q6 20 6 28q0 59 -51 94q-27 17 -62 17q-14 0 -14 26q0 27 14 27q58 -6 185 -6q110 0 170 6 q14 0 14 -26q0 -27 -14 -27q-78 0 -78 -55q0 -17 4 -29l160 -490q6 -18 14 -18t14 18l170 498q4 10 4 23q0 53 -96 53q-14 0 -14 26q0 27 14 27q57 -6 146 -6q83 0 143 6q14 0 14 -26q0 -27 -14 -27q-96 0 -121 -72l-250 -715q-13 -39 -45 -39q-26 0 -37 27l-213 549 q-8 20 -14.5 20t-13.5 -20l-189 -537q-13 -39 -45 -39q-26 0 -37 27z" />
<glyph unicode="x" horiz-adv-x="918" d="M188 733q-51 70 -98 70q-14 0 -14 26q0 27 14 27q57 -6 168 -6q116 0 174 6q14 0 14 -26q0 -27 -14 -27q-76 0 -76 -37q0 -18 17 -45l110 -176q9 -15 18 -15q11 0 21 15l121 160q27 35 27 57q0 41 -82 41q-14 0 -14 26q0 27 14 27q57 -6 157 -6q78 0 138 6q14 0 14 -26 q0 -27 -14 -27q-67 0 -125 -72l-195 -237q-14 -17 -14 -28q0 -13 10 -28l211 -305q58 -84 148 -84q14 0 14 -28q0 -29 -14 -29q-76 8 -183 8q-128 0 -211 -8q-14 0 -14 28q0 29 14 29q97 0 97 33q0 12 -23 47l-137 215q-8 12 -17 12q-8 0 -16 -12l-143 -199q-33 -47 -33 -67 q0 -29 65 -29q14 0 14 -28q0 -29 -14 -29q-80 8 -151 8q-68 0 -143 -8q-14 0 -14 28q0 29 14 29q94 0 147 68l225 282q7 9 8 21q0 13 -8 24z" />
<glyph unicode="y" horiz-adv-x="838" d="M82 731q-26 72 -121 72q-14 0 -14 26q0 27 14 27q57 -6 182 -6q129 0 189 6q14 0 14 -26q0 -27 -14 -27q-96 0 -96 -55q0 -16 4 -29l174 -504q10 -31 25 -31t28 33l195 502q6 13 6 26q0 58 -129 58q-14 0 -14 26q0 27 14 27q57 -6 168 -6q101 0 159 6q14 0 14 -26 q0 -27 -14 -27q-96 0 -125 -72l-442 -1149q-30 -78 -98 -115q-38 -20 -80 -20t-72 33q-18 20 -18 43q0 76 88 76q101 0 127 63l96 240q11 25 11 40q0 13 -13 50z" />
<glyph unicode="z" horiz-adv-x="735" d="M713 276q-31 -229 -31 -276q0 -27 -27 -27q-4 0 -76 16q-51 11 -87 11h-420q-17 2 -16 16q0 4 1 7l398 729q8 15 8 23q0 18 -29 18h-158q-69 0 -131 -107l-40 -79l-21 -44q-3 -6 -14 -2q-10 3 -9 8l37 267q5 34 23 34l103 -16q38 -4 77 -4h346q15 0 15 -9q0 -5 -5 -14 l-397 -723q-6 -12 -6 -18q0 -18 29 -23q33 -3 80 -3q28 0 59 1q108 0 170 72q24 27 80 152q4 9 24 5q18 -6 17 -14z" />
<glyph unicode="{" horiz-adv-x="784" d="M715 -319q-241 0 -307 32q-121 60 -121 269v442q0 176 -211 176q-10 0 -10 18q0 17 10 17q211 0 211 172v338q0 239 98 305q70 43 330 43q14 0 14 -23q0 -24 -14 -24q-144 0 -209 -41q-82 -55 -82 -197v-243q0 -169 -12 -213q-31 -103 -152 -131v-7q112 -20 146 -120 q18 -56 18 -201v-277q0 -172 61 -229q65 -59 230 -59q14 0 14 -25q0 -22 -14 -22z" />
<glyph unicode="|" horiz-adv-x="537" d="M354 -334h-121v1768h121v-1768z" />
<glyph unicode="}" horiz-adv-x="821" d="M719 600q-211 0 -211 -176v-442q0 -209 -121 -269q-69 -32 -307 -32q-14 0 -14 22q0 25 14 25q165 0 229 59q62 57 62 229v277q0 143 16 201q34 100 148 120v7q-121 28 -152 131q-12 44 -12 213v243q0 142 -82 197q-67 41 -209 41q-14 0 -14 24q0 23 14 23q259 0 330 -43 q98 -66 98 -305v-338q0 -172 211 -172q10 0 10 -17q0 -18 -10 -18z" />
<glyph unicode="~" horiz-adv-x="676" d="M653 512q0 -40 -80 -99q-83 -58 -135 -63q-45 0 -135 33q-99 35 -133 35q-66 0 -121 -66q-3 -3 -7 -3q-12 0 -18 12v9q0 2 1 3q101 149 211 149q42 0 141 -35q78 -28 115 -28q60 0 133 71l8 3q13 -1 19 -15q1 -3 1 -6z" />
<glyph unicode="&#xa2;" horiz-adv-x="829" d="M84 631q0 190 109 327q111 137 283 156l34 2l35 189q4 10 22 10q67 0 66 -27l-33 -176q137 -17 166 -70q6 -11 6 -28q0 -35 -21 -61l-3 -3q-22 -22 -38 -23l-13 4q-7 3 -13 11l-37 43q-24 28 -59 45l-121 -680q36 -14 76 -14q72 0 147 29l66 30l8 -1q17 -10 25 -33l2 -13 q-2 -4 -5 -6l-84 -58l-20 -12q-91 -49 -223 -49h-15l-32 -190q-4 -10 -27 -10q-67 0 -63 24l32 191q-126 35 -202 153q-68 106 -68 240zM498 1049q-88 -1 -160 -101q-80 -109 -80 -266q0 -178 127 -283z" />
<glyph unicode="&#xa3;" horiz-adv-x="1126" d="M575 479q0 -128 -67 -313q180 -68 270 -68q134 0 246 99q35 32 43 32q14 0 14 -16q0 -27 -26 -84q-78 -170 -264 -170q-128 0 -330 137q-63 -65 -119 -100q-60 -37 -147 -37q-90 0 -136 59q-28 35 -28 82q0 152 174 152q63 0 237 -57q23 78 23 135q0 124 -64 325h-274 q-15 0 -15 36t15 36h250q-60 162 -60 283q0 152 109 255q118 102 279 105q91 0 191 -31q112 -34 112 -82q0 -187 -27 -227q-3 -4 -12 -4q-19 0 -37 66q-23 76 -25 82q-45 149 -213 149q-113 0 -181 -77q-54 -61 -54 -144q0 -86 84 -375h323q16 0 16 -35q0 -37 -16 -37h-307 q16 -90 16 -176zM410 125q-98 74 -195 74q-67 0 -105 -42q-22 -25 -22 -57q0 -54 60 -78q26 -10 57 -10q112 0 205 113z" />
<glyph unicode="&#xa4;" horiz-adv-x="1024" d="M946 668q0 -149 -88 -262l78 -78q2 -2 2 -6q0 -15 -33 -48q-34 -32 -49 -32q-2 0 -4 2l-78 78q-116 -89 -262 -89q-142 0 -260 91l-80 -80q-2 -2 -4 -2q-15 0 -49 32q-33 33 -33 48q0 4 2 6l80 80q-88 112 -88 260t88 260l-80 80q-2 2 -2 6q0 14 33 47t49 33q2 0 4 -2 l80 -78q112 88 260 88q147 0 262 -88l78 78q2 2 4 2q16 0 49 -33t33 -47q0 -4 -2 -6l-78 -78q88 -115 88 -262zM860 668q0 140 -102 244q-104 102 -246 102q-141 0 -244 -103q-100 -100 -100 -243q0 -144 100 -246q101 -100 244 -100q146 0 246 100q102 102 102 246z" />
<glyph unicode="&#xa5;" horiz-adv-x="1325" d="M1378 1380q-108 0 -192 -84q-36 -38 -117 -161l-195 -297h222q15 0 15 -50l-3 -33q-4 -18 -12 -18h-287q-65 -100 -70 -166h357q15 0 15 -49l-3 -33q-4 -18 -12 -18h-357v-272q0 -125 176 -125q13 0 13 -41t-13 -41q-79 8 -258 8q-187 0 -266 -8q-14 0 -13 41q0 41 13 41 q113 0 149 38q27 28 27 87v272h-346q-15 0 -15 50t15 50h346q-5 59 -67 166h-279q-15 0 -15 50q0 25 5 40q4 11 10 11h219l-252 419q-74 123 -202 123q-14 0 -13.5 41t13.5 41q57 -6 262 -6q178 0 237 6q13 0 13 -40l-2 -28q-4 -14 -11 -14q-125 0 -125 -65q0 -27 19 -58 l303 -509q9 -15 19 -16l11 3q6 5 13 15l319 497q23 36 23 66q0 67 -113 67q-14 0 -14 41t14 41q58 -6 217 -6q149 0 207 6q13 0 13 -40l-2 -28q-4 -14 -11 -14z" />
<glyph unicode="&#xa6;" horiz-adv-x="537" d="M354 834h-121v538h121v-538zM354 111h-121v536h121v-536z" />
<glyph unicode="&#xa7;" d="M879 481q0 -195 -183 -299q131 -101 131 -241q0 -144 -114 -246q-110 -98 -256 -98q-98 0 -203 43q-135 51 -135 129q0 22 33 49q34 28 55 28q15 0 55 -45l44 -49q70 -78 165 -78q99 0 159 79q46 61 46 143q0 104 -152 206l-278 177q-152 114 -152 251q0 95 51 181 q53 89 140 123q-115 102 -115 229q0 135 102 227q100 90 238 90q83 0 166 -32q112 -43 112 -105q0 -29 -35 -59q-22 -19 -42 -19q-10 0 -78 68q-67 70 -148 70q-67 0 -128 -56q-52 -47 -52 -131q0 -102 150 -196l274 -172q150 -117 150 -267zM754 428q0 123 -224 248 q-111 62 -194 121q-121 -72 -121 -199q0 -96 92 -156l334 -219q113 79 113 205z" />
<glyph unicode="&#xa9;" horiz-adv-x="1442" d="M1444 748q0 -299 -211 -510t-510 -211t-510 211t-211 510t211 510q211 210 510 210t510 -210q211 -211 211 -510zM1374 748q0 270 -190 460q-191 191 -461 191t-461 -191q-190 -190 -190 -460q0 -226 143 -406q22 -28 47 -55q128 -137 326 -177q67 -14 135 -14 q268 0 459 191q192 192 192 461zM1008 555q-21 -100 -50 -145l-19 -4h-1q-11 -3 -20 -7q-78 -22 -197 -22q-156 0 -258 102q-103 105 -105 258l2 61q14 129 101 220q108 115 272 115q77 0 166 -19q57 -12 72 -12q14 -33 14 -166q0 -8 -18 -8l-15 -1q-4 2 -4 7 q-14 162 -219 162q-115 0 -194 -109q-72 -101 -72 -219q0 -172 96 -272q77 -80 168 -80q199 0 244 143q1 6 13 6h7q17 -5 17 -10z" />
<glyph unicode="&#xad;" horiz-adv-x="827" d="M707 602q16 0 16 -57q0 -58 -18 -58h-590q-15 0 -15 58q0 57 15 57h592z" />
<glyph unicode="&#xae;" horiz-adv-x="1524" d="M1444 748q0 -299 -211 -510t-510 -211t-510 211t-211 510t211 510q211 210 510 210t510 -210q211 -211 211 -510zM1374 748q0 270 -190 460q-191 191 -461 191t-461 -191q-190 -190 -190 -460q0 -204 107 -359q35 -51 83 -102q181 -191 461 -191q268 0 459 191 q192 192 192 461zM1147 379h-67q-64 5 -99 27q-70 44 -127 126l-75 114q-25 34 -50 56q-9 9 -35 9h-21h-1q-5 0 -39 2l-7 -1q-5 -4 -5 -12v-211q0 -63 102 -63q7 0 7 -20l-2 -17q-2 -4 -5 -4q-88 4 -150 4q-53 0 -145 -4q-7 0 -7 20l3 18q2 3 4 3q96 0 96 63v531 q0 57 -100 57q-8 0 -8 20l2 16q3 5 6 5l115 -3v0h30q60 1 164 1q172 0 242 -86l17 -27q20 -37 20 -85q0 -143 -158 -187q-8 -3 -8 -10l5 -15q1 -3 3 -6q63 -112 155 -207q17 -18 38 -38q60 -58 100 -58q6 0 6 -7l-2 -8zM903 918q0 98 -93 141q-39 19 -89 23q-14 1 -29 1 q-71 0 -71 -16v-299q0 -16 14 -18q33 -9 61 -9q207 0 207 177z" />
<glyph unicode="&#xb0;" horiz-adv-x="713" d="M631 1047q0 -133 -95 -207q-74 -58 -180 -58q-134 0 -212 89q-62 72 -62 176q0 119 89 197q77 67 185 67q132 0 212 -90q63 -71 63 -174zM516 1047q0 103 -63 157q-41 35 -97 35q-89 0 -133 -81q-26 -48 -26 -111q0 -99 62 -157q40 -36 97 -36q89 0 133 81q27 48 27 112z " />
<glyph unicode="&#xb1;" horiz-adv-x="1024" d="M907 596h-334v-371h-120v371h-334v100h334v336h120v-336h334v-100zM907 2h-788v100h788v-100z" />
<glyph unicode="&#xb4;" horiz-adv-x="569" d="M400 1336l-179 -285q-18 -29 -41 -29q-33 0 -33 37q0 12 5 22l135 307q6 13 25 13q34 0 70 -29q20 -16 20 -29q0 -3 -2 -7z" />
<glyph unicode="&#xb6;" horiz-adv-x="997" d="M836 127q0 -78 118 -78q14 0 14 -29q0 -28 -14 -28q-83 8 -157 8h-256q-82 0 -170 -8q-14 0 -14 28q0 29 14 29q116 0 116 76v569q-257 0 -384 140q-87 96 -87 243q0 185 128 284q123 95 309 95q277 -4 342 -4q50 0 159 6q14 0 14 -29q0 -28 -14 -28q-118 0 -118 -77 v-1197zM743 125v1199q0 74 -75 74q-88 0 -88 -74v-1197q0 -78 79 -78q84 0 84 76z" />
<glyph unicode="&#xb7;" horiz-adv-x="745" d="M366 737q64 0 97 -55q18 -30 18 -68q0 -63 -51 -96q-29 -19 -64 -19q-76 0 -110 58q-17 29 -17 65q0 68 58 99q30 16 69 16z" />
<glyph unicode="&#xc1;" horiz-adv-x="1398" d="M1037 1776l-449 -241q-20 -11 -37 -11t-25.5 14.5t-8.5 29t24 30.5l414 299q10 7 29 7t47 -36.5t28 -57.5t-22 -34zM1367 -7q-73 7 -232 7q-157 0 -229 -7q-14 0 -14 38q0 37 14 38q99 0 99 68q0 23 -8 49l-101 313q-9 32 -44 32h-407q-28 0 -40 -35l-113 -314 q-9 -22 -9 -40q0 -73 151 -73q14 0 14 -38q0 -37 -14 -38q-85 7 -214 7q-127 0 -211 -7q-13 0 -13 38q-1 37 13 38q97 0 135 33q26 23 60 99l377 987q6 17 6 29q0 14 -8 21q-18 20 -18 27q0 5 26 18q53 30 133 86q26 18 38 18q23 0 35 -44q26 -97 49 -166l333 -991 q39 -117 192 -117q13 0 13 -38q0 -37 -13 -38zM854 627l-170 532q-6 20 -17 20q-12 0 -20 -20l-197 -532l-2 -15q3 -12 24 -12h359q25 0 25 16q0 5 -2 11z" />
<glyph unicode="&#xc9;" horiz-adv-x="1235" d="M955 1776l-449 -241q-20 -11 -37 -11t-25.5 14.5t-8.5 29t24 30.5l414 299q10 7 29 7t47 -36.5t28 -57.5t-22 -34zM1156 23q0 -24 -28 -28l-45 -2l-735 7q-112 0 -264 -7q-14 0 -14 38q0 37 14 38q187 0 187 108v995q0 110 -187 110q-14 0 -14 38t14 38q140 -6 264 -6 h239l430 6q51 0 61 -6q11 -8 11 -21v-321q0 -17 -39 -17q-36 0 -36 17q0 266 -258 272l-284 7q-41 1 -41 -48v-532q0 -33 28 -33h206q78 0 100 33q17 25 17 84v74q0 13 35 13q35 1 35 -13q-8 -71 -8 -227q0 -130 8 -210q0 -13 -35 -14q-35 0 -35 14v82q0 43 -22 73 q-22 22 -95 22h-209q-25 0 -25 -31v-314q0 -113 65 -168q38 -32 91 -32l235 7q259 8 259 271q0 17 36 17q39 0 39 -17v-317z" />
<glyph unicode="&#xcd;" horiz-adv-x="683" d="M740 1776l-449 -241q-20 -11 -37 -11t-25.5 14.5t-8.5 29t24 30.5l414 299q10 7 29 7t47 -36.5t28 -57.5t-22 -34zM611 -7q-86 7 -258 7q-174 0 -260 -7q-13 0 -13 38q-1 37 13 38q178 0 178 117v986q0 115 -189 115q-13 0 -13.5 38t13.5 38q45 -5 271 -5q213 0 258 5 q13 0 13 -38t-13 -38q-105 0 -140 -24q-40 -26 -40 -91v-986q0 -117 180 -117q13 0 13 -38q0 -37 -13 -38z" />
<glyph unicode="&#xd3;" horiz-adv-x="1461" d="M1145 1776l-449 -241q-20 -11 -37 -11t-25.5 14.5t-8.5 29t24 30.5l414 299q10 7 29 7t47 -36.5t28 -57.5t-22 -34zM1383 663q0 -220 -134 -419q-184 -271 -514 -271q-212 0 -383 126q-104 73 -177 213q-84 164 -84 355q0 255 165 476q180 242 484 242q232 0 401 -153 q242 -224 242 -569zM1192 647q0 289 -159 492q-142 175 -300 175q-170 0 -281 -115q-103 -105 -147 -285q-23 -93 -23 -188q0 -336 179 -527q136 -151 288 -151q245 0 365 235q78 162 78 364z" />
<glyph unicode="&#xda;" horiz-adv-x="1497" d="M1155 1776l-449 -241q-20 -11 -37 -11t-25.5 14.5t-8.5 29t24 30.5l414 299q10 7 29 7t47 -36.5t28 -57.5t-22 -34zM1469 1287q-180 0 -180 -115v-282q0 -279 -11 -436q-16 -239 -159 -366q-130 -115 -361 -115q-157 0 -255 40q-166 68 -215 255q-32 131 -32 271v633 q0 115 -185 115q-13 0 -13 38t13 38q44 -5 269 -5q239 0 285 5q13 0 13 -38t-13 -38q-206 0 -206 -115v-631q0 -260 72 -355q99 -138 304 -138q181 0 286 105q98 96 98 334v685q0 115 -188 115q-13 0 -13 38t13 38q45 -5 243 -5q190 0 235 5q13 0 13 -38t-13 -38z" />
<glyph unicode="&#xe1;" horiz-adv-x="797" d="M599 1336l-179 -285q-18 -29 -41 -29q-33 0 -33 37q0 12 5 22l135 307q6 13 25 13q34 0 70 -29q20 -16 20 -29q0 -3 -2 -7zM481 199v215q0 22 -14 22q-7 0 -60 -26q-170 -86 -170 -222q0 -64 52 -94q27 -16 67 -16t82.5 42.5t42.5 78.5zM781 123q22 -3 29 -30q0 -3 -1 -5 q-41 -69 -76 -90t-92 -21q-106 0 -143 136q-76 -76 -121 -106t-132 -30t-133 77q-28 47 -28 108q0 97 98 172q21 17 47 31l232 129q20 11 20 32v181q0 88 -133 88q-97 0 -135 -50q-8 -13 -15 -93q-14 -99 -69 -99t-55 56t40.5 112.5t69.5 73.5q128 75 246 75q72 0 138.5 -40 t66.5 -99v-532q0 -115 67 -115q32 0 72 37z" />
<glyph unicode="&#xe6;" horiz-adv-x="1145" d="M831 870q119 0 202 -48q63 -36 63 -93q0 -34 -35 -51l-416 -172q-35 -14 -35 -90q0 -105 60 -201q74 -121 202 -121q104 0 197 76q11 11 28 -1q13 -10 13 -22q0 -7 -4 -14q-112 -156 -330 -156q-148 0 -239 142q-14 18 -18 18t-17 -16q-105 -131 -219 -131 q-217 0 -217 170q0 123 98 195q49 35 183 92q120 51 120 90v112q0 144 -135 144q-106 0 -137 -52l-18 -109l-12 -37q-20 -42 -59 -42q-61 0 -61 53q0 103 125 187q114 77 217 77q121 0 182 -84q13 -18 21 -18q6 0 33 23q100 79 208 79zM958 723q0 37 -56 67q-37 19 -71 19 q-70 0 -133 -66q-38 -41 -61 -110q-9 -25 -9 -40q0 -22 29 -11l269 108q32 12 32 33zM492 219q-8 39 -27 170q-5 34 -21 35q-8 0 -22 -6q-203 -90 -203 -238q0 -106 115 -106q49 0 111 68q47 50 47 77z" />
<glyph unicode="&#xe9;" horiz-adv-x="838" d="M606 1336l-179 -285q-18 -29 -41 -29q-33 0 -33 37q0 12 5 22l135 307q6 13 25 13q34 0 70 -29q20 -16 20 -29q0 -3 -2 -7zM768 604q0 -55 -51 -55h-449q-30 0 -30 -66q0 -160 73 -270q80 -119 215 -119q100 0 201 60l11 3q18 -1 27 -19l1 -13q0 -5 -4 -8 q-158 -140 -320 -140q-144 0 -254 140q-103 136 -103 319q0 173 114 305q113 129 252 129q143 0 239 -108q78 -88 78 -158zM621 633q0 44 -50 106q-59 72 -118 72q-126 0 -189 -166l-3 -15q2 -14 24 -14h321q15 0 15 17z" />
<glyph unicode="&#xed;" horiz-adv-x="524" d="M420 1336l-179 -285q-18 -29 -41 -29q-33 0 -33 37q0 12 5 22l135 307q6 13 25 13q34 0 70 -29q20 -16 20 -29q0 -3 -2 -7zM467 -8q-76 8 -182 8q-116 0 -197 -8q-14 0 -14 28q0 29 14 29q113 0 113 78v405q0 114 -24 146q-18 24 -60 24q-17 0 -17 27q0 29 17 29 q59 0 202 114q15 11 23 11q18 0 18 -21q-6 -65 -6 -131v-604q0 -78 113 -78q14 0 14 -28q0 -29 -14 -29z" />
<glyph unicode="&#xf3;" horiz-adv-x="995" d="M670 1336l-179 -285q-18 -29 -41 -29q-33 0 -33 37q0 12 5 22l135 307q6 13 25 13q34 0 70 -29q20 -16 20 -29q0 -3 -2 -7zM924 426q0 -182 -105 -307q-117 -142 -313 -142q-175 0 -299 142q-123 142 -123 305q0 172 123 307q127 139 297 139q177 0 301 -139 q119 -134 119 -305zM761 420q0 178 -85 291q-75 100 -170 100q-96 0 -172 -100q-87 -111 -87 -291q0 -175 85 -281q78 -96 172 -96t172 96q85 106 85 281z" />
<glyph unicode="&#xfa;" horiz-adv-x="1036" d="M684 1336l-179 -285q-18 -29 -41 -29q-33 0 -33 37q0 12 5 22l135 307q6 13 25 13q34 0 70 -29q20 -16 20 -29q0 -3 -2 -7zM1010 31q-35 -6 -144 -29l-130 -34q-4 -1 -7 -1q-16 0 -16 45v45q0 24 -13 24q-10 0 -26 -15q-95 -89 -234 -89q-110 0 -194 121q-72 104 -72 203 v335q0 147 -111 147q-15 0 -15 28t15 28q106 0 169 9q66 9 90 9q14 0 14 -16q-8 -107 -8 -152v-355q0 -104 32 -170q40 -90 125 -90q92 0 160 52t68 126v384q0 147 -111 147q-15 0 -15 28t15 28q123 0 180 9q58 9 70 9q20 0 20 -27q-6 -60 -6 -139v-464q0 -145 82 -145l47 6 v0q17 2 22 -31v-8q0 -16 -7 -18z" />
<glyph unicode="&#x104;" horiz-adv-x="1398" d="M1241 -384q-62 -83 -146 -96q-19 -3 -41 -3q-99 0 -145 70q-25 38 -25 90q0 154 224 334h78q-170 -161 -170 -279q0 -114 112 -114q54 0 94 30q19 -6 19 -32zM1367 -7q-73 7 -232 7q-157 0 -229 -7q-14 0 -14 38q0 37 14 38q99 0 99 68q0 23 -8 49l-101 313q-9 32 -44 32 h-407q-28 0 -40 -35l-113 -314q-9 -22 -9 -40q0 -73 151 -73q14 0 14 -38q0 -37 -14 -38q-85 7 -214 7q-127 0 -211 -7q-13 0 -13 38q-1 37 13 38q97 0 135 33q26 23 60 99l377 987q6 17 6 29q0 14 -8 21q-18 20 -18 27q0 5 26 18q53 30 133 86q26 18 38 18q23 0 35 -44 q26 -97 49 -166l333 -991q39 -117 192 -117q13 0 13 -38q0 -37 -13 -38zM854 627l-170 532q-6 20 -17 20q-12 0 -20 -20l-197 -532l-2 -15q3 -12 24 -12h359q25 0 25 16q0 5 -2 11z" />
<glyph unicode="&#x105;" horiz-adv-x="797" d="M481 199v215q0 22 -14 22q-7 0 -60 -26q-170 -86 -170 -222q0 -64 52 -94q27 -16 67 -16t82.5 42.5t42.5 78.5zM781 123q22 -3 29 -30q0 -3 -1 -5q-41 -69 -76 -90t-92 -21q-106 0 -143 136q-76 -76 -121 -106t-132 -30t-133 77q-28 47 -28 108q0 97 98 172q21 17 47 31 l232 129q20 11 20 32v181q0 88 -133 88q-97 0 -135 -50q-8 -13 -15 -93q-14 -99 -69 -99t-55 56t40.5 112.5t69.5 73.5q128 75 246 75q72 0 138.5 -40t66.5 -99v-532q0 -115 67 -115q32 0 72 37zM754 -354q-62 -83 -146 -96q-19 -3 -41 -3q-99 0 -145 70q-25 38 -25 90 q0 154 224 334h78q-170 -161 -170 -279q0 -114 112 -114q54 0 94 30q19 -6 19 -32z" />
<glyph unicode="&#x10c;" horiz-adv-x="1344" d="M1096 1795l-260 -249q-22 -22 -44 -22t-44 22l-260 249q-4 5 -4 10.5t8 14t17 8.5q4 0 8 -2l241 -139q17 -9 34 -9t34 9l246 139q2 1 5 1q8 0 15.5 -9t7.5 -14t-4 -9zM1299 306q-29 -148 -74 -242q-8 -16 -16 -28q-32 -4 -77 -17q-147 -46 -366 -46q-239 0 -421 141 q-177 137 -233 357q-21 85 -21 176q0 269 147 468q142 190 371 248q86 22 180 22q139 0 291 -30q10 -2 21 -4q114 -24 129 -24q20 -60 28 -285q1 -14 1 -23q0 -17 -33 -19l-23 2q-12 4 -13 12q-28 292 -389 300h-18q-182 0 -322 -149q-126 -133 -165 -324q-14 -68 -14 -134 q0 -259 126 -444q110 -161 274 -203q48 -12 98 -12q367 0 452 269q4 11 33 11q14 0 23 -4t11 -10v-8z" />
<glyph unicode="&#x10d;" horiz-adv-x="817" d="M743 152q11 5 28 -21q10 -15 10 -24q0 -7 -5 -11q-38 -30 -87 -59q-97 -60 -240 -60q-150 0 -254 115q-109 119 -109 293q0 196 119 336q125 149 307 149q204 0 244 -73q6 -18 6 -34q0 -30 -25 -58q-23 -23 -39 -23q-14 0 -24 14q-78 107 -180 107q-88 0 -162 -96 q-83 -108 -83 -271q0 -154 95 -256q84 -90 188 -90q100 0 211 62zM739 1421l-209 -371q-16 -28 -38 -28t-38 28l-209 371q-2 3 -2 4q0 23 27 23q5 0 8 -4l185 -217q21 -25 29 -25q9 0 30 25l184 217q3 4 6 4q29 0 29 -23z" />
<glyph unicode="&#x12e;" horiz-adv-x="683" d="M448 -384q-62 -83 -146 -96q-19 -3 -41 -3q-99 0 -145 70q-25 38 -25 90q0 154 224 334h78q-170 -161 -170 -279q0 -114 112 -114q54 0 94 30q19 -6 19 -32zM611 -7q-86 7 -258 7q-174 0 -260 -7q-13 0 -13 38q-1 37 13 38q178 0 178 117v986q0 115 -189 115 q-13 0 -13.5 38t13.5 38q45 -5 271 -5q213 0 258 5q13 0 13 -38t-13 -38q-105 0 -140 -24q-40 -26 -40 -91v-986q0 -117 180 -117q13 0 13 -38q0 -37 -13 -38z" />
<glyph unicode="&#x12f;" horiz-adv-x="524" d="M467 -8q-76 8 -182 8q-116 0 -197 -8q-14 0 -14 28q0 29 14 29q113 0 113 78v447q0 128 -84 128q-17 0 -17 27q0 29 17 29q59 0 202 114q15 11 23 11q19 0 18 -21q-6 -105 -6 -131v-604q0 -78 113 -78q14 0 14 -28q0 -29 -14 -29zM365 1157q0 -57 -48 -90 q-27 -19 -61 -19q-60 0 -90 50q-16 27 -16 59q0 63 49 91q26 15 57 15q59 0 91 -47q18 -27 18 -59zM428 -354q-62 -83 -146 -96q-19 -3 -41 -3q-99 0 -145 70q-25 38 -25 90q0 154 224 334h78q-170 -161 -170 -279q0 -114 112 -114q54 0 94 30q19 -6 19 -32z" />
<glyph unicode="&#x131;" horiz-adv-x="524" d="M467 -8q-76 8 -182 8q-116 0 -197 -8q-14 0 -14 28q0 29 14 29q113 0 113 78v405q0 114 -24 146q-18 24 -60 24q-17 0 -17 27q0 29 17 29q59 0 202 114q15 11 23 11q18 0 18 -21q-6 -65 -6 -131v-604q0 -78 113 -78q14 0 14 -28q0 -29 -14 -29z" />
<glyph unicode="&#x147;" horiz-adv-x="1482" d="M1044 1795l-260 -249q-22 -22 -44 -22t-44 22l-260 249q-4 5 -4 10.5t8 14t17 8.5q4 0 8 -2l241 -139q17 -9 34 -9t34 9l246 139q2 1 5 1q8 0 15.5 -9t7.5 -14t-4 -9zM1423 1287q-136 0 -136 -116v-1142q0 -50 -19 -50q-16 0 -40 30l-867 1095q-11 13 -21 13 q-12 0 -12 -18v-913q0 -117 159 -117q13 0 13 -38t-13 -38q-81 7 -191 7q-123 0 -206 -7q-14 0 -14 38t14 38q167 0 167 117v924q0 118 -67 154q-41 23 -121 23q-13 0 -13 38t13 38q44 -5 174 -5q80 0 102 -5q42 -10 69 -44l758 -977q10 -13 24 -13q23 0 23 33v819 q0 116 -171 116q-14 0 -14 38t14 38q46 -5 207 -5q122 0 168 5q13 0 13 -38t-13 -38z" />
<glyph unicode="&#x148;" horiz-adv-x="1069" d="M1012 -8q-77 8 -183 8q-116 0 -196 -8q-14 0 -14 28q0 29 14 29q110 0 110 78v403q0 163 -49 215q-30 35 -110 35h-21q-48 0 -125 -53q-84 -61 -84 -137v-463q0 -78 107 -78q14 0 14 -28q0 -29 -14 -29q-77 8 -185 8q-111 0 -190 -8q-14 0 -14 28q0 29 14 29 q115 0 115 78v447q0 128 -84 128q-17 0 -17 27q0 29 17 29q62 0 163 84l25 20q25 21 37 21q14 0 14 -31l-2 -73q0 -21 14 -21q8 0 15 6q106 106 254 106q157 0 227 -147q33 -66 33 -248v-348q0 -78 115 -78q14 0 14 -28q0 -29 -14 -29zM819 1421l-209 -371q-16 -28 -38 -28 t-38 28l-209 371q-2 3 -2 4q0 23 27 23q5 0 8 -4l185 -217q21 -25 29 -25q9 0 30 25l184 217q3 4 6 4q29 0 29 -23z" />
<glyph unicode="&#x14a;" horiz-adv-x="1482" d="M1287 120q0 -178 -9 -253q-18 -151 -93 -262q-83 -123 -243 -123q-47 0 -79 28q-26 23 -26 62q0 65 72 65q43 0 82 -36q40 -37 61 -37q50 0 102 77q65 96 65 199v181l-858 1083q-10 13 -21 13q-12 0 -12 -18v-913q0 -117 159 -117q15 0 15 -38t-15 -38q-81 7 -191 7 q-109 0 -206 -7q-15 0 -15 38t15 38q167 0 167 117v924q0 116 -67 154q-41 23 -121 23q-15 0 -15 38t15 38q46 -5 174 -5q106 0 116 -5q34 -16 55 -44l758 -977q10 -13 25 -13q22 0 22 33v819q0 116 -171 116q-14 0 -14 38t14 38q46 -5 207 -5q108 0 168 5q14 0 14 -38 t-14 -38q-98 0 -119 -39q-17 -31 -17 -77v-1051z" />
<glyph unicode="&#x14b;" horiz-adv-x="1057" d="M897 127q0 -163 -10 -272q-25 -201 -129 -314q-83 -96 -222 -96q-63 0 -102 46q-20 23 -20 50q0 39 41 61q17 9 37 9q49 0 88 -39q40 -39 65 -39q98 0 98 213v784q0 170 -55 224q-29 26 -125 26q-48 0 -125 -53q-84 -61 -84 -137v-463q0 -78 107 -78q15 0 15 -28 q0 -29 -15 -29q-77 8 -185 8q-111 0 -190 -8q-17 0 -17 26q0 31 17 31q115 0 115 78v454q0 121 -84 121q-18 0 -18 25q0 31 18 31q64 0 188 104q25 21 37 21q14 0 14 -31q-2 -46 -2 -74q0 -17 14 -20l15 6q106 106 254 106q157 0 227 -147q33 -66 33 -248v-348z" />
<glyph unicode="&#x160;" horiz-adv-x="1042" d="M828 1795l-260 -249q-22 -22 -44 -22t-44 22l-260 249q-4 5 -4 10.5t8 14t17 8.5q4 0 8 -2l241 -139q17 -9 34 -9t34 9l246 139q2 1 5 1q8 0 15.5 -9t7.5 -14t-4 -9zM583 48q92 0 159 74q64 70 64 166q0 127 -90 217q-37 37 -187 100q-125 53 -164 71q-164 77 -209 226 q-19 64 -19 148q0 144 110 239q111 96 278 96q104 0 206 -23q71 -18 93 -18q4 0 7 1q28 -101 38 -258q1 -19 -31 -24q-34 -4 -38 14q-21 110 -99 180q-67 61 -195 61q-138 0 -210 -125q-19 -44 -19 -98q0 -146 104 -216q53 -35 171 -71q159 -49 220 -86q172 -104 172 -332 q0 -190 -112 -306q-107 -111 -278 -111q-134 0 -226 31q-19 7 -151 69q-49 155 -49 273q0 11 2 19q4 18 37 18q29 0 30 -9q9 -129 103 -219q111 -107 283 -107z" />
<glyph unicode="&#x161;" horiz-adv-x="707" d="M649 246q0 -60 -23 -111q-54 -110 -182 -146q-50 -14 -106 -14q-156 0 -240 60q-20 63 -20 172v45q0 15 24 15q23 0 25 -15q5 -39 57 -116q68 -97 187 -97q59 0 106 35q55 39 55 106q0 73 -40 113q-46 45 -158 76q-242 69 -242 258q0 102 86 174q82 69 201 69 q139 0 217 -36q31 -84 31 -170v-11q0 -14 -22 -14t-25 14q-10 54 -64 101q-61 55 -151 55q-64 0 -109 -35q-49 -40 -49 -100q0 -69 42 -107q25 -22 154 -61q134 -41 179 -86q67 -67 67 -174zM639 1421l-209 -371q-16 -28 -38 -28t-38 28l-209 371q-2 3 -2 4q0 23 27 23 q5 0 8 -4l185 -217q21 -25 29 -25q9 0 30 25l184 217q3 4 6 4q29 0 29 -23z" />
<glyph unicode="&#x172;" horiz-adv-x="1497" d="M852 -404q-62 -83 -146 -96q-19 -3 -41 -3q-99 0 -145 70q-25 38 -25 90q0 154 224 334h78q-170 -161 -170 -279q0 -114 112 -114q54 0 94 30q19 -6 19 -32zM1469 1287q-180 0 -180 -115v-282q0 -279 -11 -436q-16 -239 -159 -366q-130 -115 -361 -115q-157 0 -255 40 q-166 68 -215 255q-32 131 -32 271v633q0 115 -185 115q-13 0 -13 38t13 38q44 -5 269 -5q239 0 285 5q13 0 13 -38t-13 -38q-206 0 -206 -115v-631q0 -260 72 -355q99 -138 304 -138q181 0 286 105q98 96 98 334v685q0 115 -188 115q-13 0 -13 38t13 38q45 -5 243 -5 q190 0 235 5q13 0 13 -38t-13 -38z" />
<glyph unicode="&#x173;" horiz-adv-x="1036" d="M1010 31q-35 -6 -144 -29l-130 -34q-4 -1 -7 -1q-16 0 -16 45v45q0 24 -13 24q-10 0 -26 -15q-95 -89 -234 -89q-110 0 -194 121q-72 104 -72 203v335q0 147 -111 147q-15 0 -15 28t15 28q106 0 169 9q66 9 90 9q14 0 14 -16q-8 -107 -8 -152v-355q0 -104 32 -170 q40 -90 125 -90q92 0 160 52t68 126v384q0 147 -111 147q-15 0 -15 28t15 28q123 0 180 9q58 9 70 9q20 0 20 -27q-6 -60 -6 -139v-464q0 -145 82 -145l47 6v0q17 2 22 -31v-8q0 -16 -7 -18zM914 -354q-62 -83 -146 -96q-19 -3 -41 -3q-99 0 -145 70q-25 38 -25 90 q0 154 224 334h78q-170 -161 -170 -279q0 -114 112 -114q54 0 94 30q19 -6 19 -32z" />
<glyph unicode="&#x17d;" horiz-adv-x="1241" d="M972 1795l-260 -249q-22 -22 -44 -22t-44 22l-260 249q-4 5 -4 10.5t8 14t17 8.5q4 0 8 -2l241 -139q17 -9 34 -9t34 9l246 139q2 1 5 1q8 0 15.5 -9t7.5 -14t-4 -9zM1261 336q-48 -236 -48 -353q0 -13 -15 -16l-55 12q-187 21 -660 21h-365q-35 0 -35 24q0 13 10 27 l875 1198q9 12 9 21q0 21 -31 21h-554q-55 0 -77 -30q-72 -92 -104 -174q-17 -43 -36 -110q-2 -7 -20 -7q-26 0 -29 14q33 213 33 363q0 18 37 18l147 -9h481q146 0 184 2q117 6 184 6q25 0 25 -16q0 -11 -14 -30l-863 -1200q-9 -12 -9 -24q0 -22 30 -25q403 -2 640 13 q80 5 163 163q39 74 47 107q3 12 35 0q15 -5 15 -16z" />
<glyph unicode="&#x17e;" horiz-adv-x="735" d="M713 276q-31 -229 -31 -276q0 -27 -27 -27q-4 0 -76 16q-51 11 -87 11h-420q-17 2 -16 16q0 4 1 7l398 729q8 15 8 23q0 18 -29 18h-158q-69 0 -131 -107l-40 -79l-21 -44q-3 -6 -14 -2q-10 3 -9 8l37 267q5 34 23 34l103 -16q38 -4 77 -4h346q15 0 15 -9q0 -5 -5 -14 l-397 -723q-6 -12 -6 -18q0 -18 29 -23q33 -3 80 -3q28 0 59 1q108 0 170 72q24 27 80 152q4 9 24 5q18 -6 17 -14zM626 1421l-209 -371q-16 -28 -38 -28t-38 28l-209 371q-2 3 -2 4q0 23 27 23q5 0 8 -4l185 -217q21 -25 29 -25q9 0 30 25l184 217q3 4 6 4q29 0 29 -23z " />
<glyph unicode="&#x1dd;" horiz-adv-x="838" d="M98 244q0 55 52 55h448q31 0 31 66q0 146 -62 249q-6 10 -12 19q-81 121 -215 121q-100 0 -201 -62q-2 -2 -10 -2q-29 0 -29 31q0 4 4 8q155 139 320 139q144 0 252 -137q106 -138 106 -319q0 -176 -114 -306q-112 -129 -252 -129q-143 0 -240 109q-78 84 -78 158z M246 213q0 -47 49 -107q55 -69 119 -69q127 0 188 166q4 7 4 12q0 16 -24 16h-322q-14 0 -14 -18z" />
<glyph unicode="&#x1e6;" horiz-adv-x="1409" d="M1072 1795l-260 -249q-22 -22 -44 -22t-44 22l-260 249q-4 5 -4 10.5t8 14t17 8.5q4 0 8 -2l241 -139q17 -9 34 -9t34 9l246 139q2 1 5 1q8 0 15.5 -9t7.5 -14t-4 -9zM1371 478q-141 0 -141 -115v-219q0 -67 37 -67q14 0 14 -23t-14 -23q-12 0 -111 -12l-210 -35 q-90 -11 -178 -11q-146 0 -310 77q-220 100 -314 336q-53 133 -53 281q0 242 171 470q185 248 509 248q164 0 331 -34q116 -24 130 -24q19 -49 29 -308q0 -18 -33 -18q-35 0 -36 13q-7 104 -78 182q-109 118 -348 118q-219 0 -357 -189q-127 -174 -127 -399q0 -306 154 -497 q144 -181 346 -181q188 0 266 47q22 16 22 78v190q0 115 -228 115q-14 0 -14 34q0 42 14 42q56 -6 310 -6q162 0 219 6q15 0 15 -37q0 -39 -15 -39z" />
<glyph unicode="&#x1e7;" horiz-adv-x="948" d="M689 1421l-209 -371q-16 -28 -38 -28t-38 28l-209 371q-2 3 -2 4q0 23 27 23q5 0 8 -4l185 -217q21 -25 29 -25q9 0 30 25l184 217q3 4 6 4q29 0 29 -23zM819 -242q0 187 -244 187h-184q-35 0 -61 -19q-111 -81 -111 -184q0 -92 70 -150q76 -61 215 -61q137 0 227 68 q88 65 88 159zM631 543q0 172 -86 237q-41 31 -99 31q-80 0 -137 -66q-59 -67 -59 -175q0 -110 67 -183q65 -68 144 -68q170 0 170 224zM948 707h-166q4 -37 4 -109q0 -132 -77 -223q-97 -115 -279 -115l-76 4v0q-21 0 -43 -14q-69 -45 -69 -100q0 -80 149 -80h254 q297 0 297 -228q0 -170 -162 -286q-157 -115 -368 -115q-179 0 -275 84q-78 67 -78 162q0 104 187 239q16 13 16 21q0 9 -14 14l-6 2q-136 39 -136 148q0 51 114 131q10 7 22 14q15 9 15 21t-15 22q-146 92 -146 250q0 135 101 227q100 94 245 94q109 0 205 -43 q78 -34 129 -34h172q15 0 15 -44q0 -42 -15 -42z" />
<glyph unicode="&#x1f0;" horiz-adv-x="518" d="M369 856l-10 -205q-1 -30 -1 -59v-533q0 -326 -110 -483q-79 -110 -193 -127q-26 -4 -55 -4q-64 0 -102 39q-23 25 -23 57q0 45 43 63q16 7 35 7q49 0 88 -39q41 -39 65 -39q99 0 99 213v786q0 170 -88 170q-15 0 -15 27q0 29 15 29q48 0 165 80q22 15 35 26q20 19 33 19 q17 0 19 -27zM528 1421l-209 -371q-16 -28 -38 -28t-38 28l-209 371q-2 3 -2 4q0 23 27 23q5 0 8 -4l185 -217q21 -25 29 -25q9 0 30 25l184 217q3 4 6 4q29 0 29 -23z" />
<glyph unicode="&#x21e;" horiz-adv-x="1620" d="M1124 1795l-260 -249q-22 -22 -44 -22t-44 22l-260 249q-4 5 -4 10.5t8 14t17 8.5q4 0 8 -2l241 -139q17 -9 34 -9t34 9l246 139q2 1 5 1q8 0 15.5 -9t7.5 -14t-4 -9zM1551 -7q-160 7 -258 7q-102 0 -260 -7q-13 0 -13 38q0 37 13 38q178 0 178 117v435q0 38 -39 38h-702 q-39 0 -39 -38v-435q0 -117 180 -117q13 0 13 -38t-13 -38q-149 7 -258 7q-100 0 -260 -7q-13 0 -13 38q0 37 13 38q178 0 178 117v986q0 115 -189 115q-14 0 -14 38t14 38q45 -5 271 -5q213 0 258 5q13 0 13 -38t-13 -38q-180 0 -180 -115v-390q0 -39 39 -39h702 q39 0 39 39v390q0 115 -189 115q-14 0 -14 38t14 38q45 -5 271 -5q213 0 258 5q13 0 13 -38t-13 -38q-180 0 -180 -115v-986q0 -117 180 -117q13 0 13 -38t-13 -38z" />
<glyph unicode="&#x21f;" horiz-adv-x="1094" d="M872 1892l-260 -249q-22 -22 -44 -22t-44 22l-260 249q-4 5 -4 10.5t8 14t17 8.5q4 0 8 -2l241 -139q17 -9 34 -9t34 9l246 139q2 1 5 1q8 0 15.5 -9t7.5 -14t-4 -9zM922 127q0 -78 127 -78q14 0 14 -28.5t-14 -28.5q-81 8 -198 8t-196 -8q-14 0 -14 28.5t14 28.5 q113 0 113 78v420q0 97 -59 165t-143 68q-85 0 -148.5 -51t-63.5 -100v-502q0 -78 111 -78q14 0 14 -28.5t-14 -28.5q-105 8 -205 8t-180 -8q-14 0 -14 28.5t14 28.5q121 0 121 78v1047q0 139 -92 139q-17 0 -17 27.5t17 27.5q33 0 97.5 34t97.5 59.5t44 25.5q12 0 12 -17 q-6 -107 -6 -165v-514q0 -25 16 -25q9 0 17 8q91 96 241 96q145 0 219.5 -105.5t74.5 -215.5v-422z" />
<glyph unicode="&#x2bc;" horiz-adv-x="422" d="M307 1397l-59 -453q-1 -8 -35 -8t-35 8q-4 47 -9 88l-50 334q-2 20 -2 29q0 86 96 86q94 0 94 -84z" />
<glyph unicode="&#x2c7;" horiz-adv-x="797" d="M639 1421l-209 -371q-16 -28 -38 -28t-38 28l-209 371q-2 3 -2 4q0 23 27 23q5 0 8 -4l185 -217q21 -25 29 -25q9 0 30 25l184 217q3 4 6 4q29 0 29 -23z" />
<glyph unicode="&#x2db;" horiz-adv-x="737" d="M547 -354q-62 -83 -146 -96q-19 -3 -41 -3q-99 0 -145 70q-25 38 -25 90q0 154 224 334h78q-170 -161 -170 -279q0 -114 112 -114q54 0 94 30q19 -6 19 -32z" />
<glyph unicode="&#x2013;" horiz-adv-x="1024" d="M993 473h-962q-21 0 -24 47l2 32q6 34 22 34h962q21 0 24 -47l-2 -32l-6 -22l-8 -9q-4 -3 -8 -3z" />
<glyph unicode="&#x2014;" horiz-adv-x="2048" d="M2017 473h-1986q-21 0 -24 47l2 32q6 34 22 34h1986q21 0 24 -47l-2 -32l-6 -22q-7 -12 -16 -12z" />
<glyph unicode="&#x2018;" horiz-adv-x="389" d="M338 1456q-96 -94 -126 -156q-22 -46 -22 -94q0 -45 31 -57q84 -33 100 -83q5 -17 5 -36q0 -88 -103 -88q-72 0 -121 62q-39 50 -39 114q0 209 246 365l9 1q15 -4 21 -19v-8z" />
<glyph unicode="&#x2019;" horiz-adv-x="389" d="M332 1305q0 -190 -186 -329q-28 -21 -60 -40l-9 -1q-15 5 -24 23l-2 9l2 2q144 105 152 235v13q0 39 -33 56l-38 18q-63 34 -64 102q0 72 73 85q14 3 29 3q76 0 125 -66q35 -49 35 -110z" />
<glyph unicode="&#x201a;" horiz-adv-x="389" d="M334 55q0 -225 -246 -368q-2 -2 -6 -2q-29 0 -29 28q0 4 2 6q152 116 152 248q0 44 -40 63l-46 20l-4 3q-45 33 -45 90q0 76 79 87q11 1 23 1q75 0 124 -66q36 -49 36 -110z" />
<glyph unicode="&#x201c;" horiz-adv-x="727" d="M338 1456q-96 -94 -126 -156q-22 -46 -22 -94q0 -45 31 -57q84 -33 100 -83q5 -17 5 -36q0 -88 -103 -88q-72 0 -121 62q-39 50 -39 114q0 209 246 365l9 1q15 -4 21 -19v-8zM677 1456q-96 -94 -126 -156q-22 -46 -22 -94q0 -45 31 -57q84 -33 100 -83q5 -17 5 -36 q0 -88 -103 -88q-72 0 -121 62q-39 50 -39 114q0 209 246 365l9 1q15 -4 21 -19v-8z" />
<glyph unicode="&#x201d;" horiz-adv-x="731" d="M332 1305q0 -190 -186 -329q-28 -21 -60 -40l-9 -1q-15 5 -24 23l-2 9l2 2q144 105 152 235v13q0 39 -33 56l-38 18q-63 34 -64 102q0 72 73 85q14 3 29 3q76 0 125 -66q35 -49 35 -110zM674 1305q0 -190 -186 -329q-28 -21 -60 -40l-9 -1q-15 5 -24 23l-2 9l2 2 q144 105 152 235v13q0 39 -33 56l-38 18q-63 34 -64 102q0 72 73 85q14 3 29 3q76 0 125 -66q35 -49 35 -110z" />
<glyph unicode="&#x201e;" horiz-adv-x="731" d="M334 55q0 -225 -246 -368q-2 -2 -6 -2q-29 0 -29 28q0 4 2 6q152 116 152 248q0 44 -40 63l-46 20l-4 3q-45 33 -45 90q0 76 79 87q11 1 23 1q75 0 124 -66q36 -49 36 -110zM673 55q0 -225 -246 -368q-2 -2 -6 -2q-29 0 -29 28q0 4 2 6q152 116 152 248q0 44 -40 63 l-46 20l-4 3q-45 33 -45 90q0 76 79 87q11 1 23 1q75 0 124 -66q36 -49 36 -110z" />
<glyph unicode="&#x2020;" d="M963 872q0 -26 -57 -59q-32 -20 -60 -26l-19 -3q-12 0 -55 13q-152 43 -256 47q0 -142 90 -242q-73 -113 -86 -370q-4 -89 -4 -316v-303h-76v123l-8 529v1q-16 246 -84 336q92 92 92 242q-123 -1 -258 -47q-39 -13 -53 -13q-34 0 -88 34q-47 30 -47 54q0 30 51 66 q43 29 76 29q44 0 155 -29q103 -26 164 -31q-6 82 -28 170q-27 109 -27 148q0 64 38 123q27 43 54 43q38 0 69 -67q23 -51 23 -99q0 -59 -23 -150q0 -3 -1 -6q-23 -88 -29 -162q20 1 199 39q95 21 121 21q37 0 85 -37q42 -31 42 -58z" />
<glyph unicode="&#x2021;" d="M836 37q-33 0 -215 39q-82 17 -105 18q7 -79 29 -160q24 -92 24 -155q0 -61 -33 -119l-16 -24q-21 -23 -43 -23q-40 0 -70 71q-22 51 -22 95q0 41 27 149q22 86 28 166q-43 -1 -170 -31q-90 -22 -105 -24q-19 -2 -44 -2q-46 0 -92 38q-35 29 -35 56q0 31 63 64 q44 24 72 24q19 0 53 -12q130 -46 258 -47q0 210 -92 362q92 125 92 322q-123 -1 -258 -47q-39 -13 -53 -13q-34 0 -88 34q-47 30 -47 54q0 30 51 66q43 29 76 29q44 0 155 -29q103 -26 164 -31q-6 82 -28 170q-27 109 -27 148q0 63 35 121q27 45 57 45q42 0 72 -71 q20 -49 20 -95q0 -59 -21 -143q-1 -7 -3 -13q-23 -80 -29 -162q46 1 166 31q96 25 98 25q24 4 56 4q38 0 87 -38q34 -27 39 -50l1 -7q0 -27 -59 -61q-48 -27 -77 -27q-15 0 -45 10q-5 1 -10 3q-152 43 -256 47q0 -192 90 -320q-50 -79 -77 -234q-13 -72 -13 -130 q114 4 256 47q38 12 55 12q39 0 92 -35q44 -28 44 -53q0 -35 -57 -70q-41 -21 -70 -24z" />
<glyph unicode="&#x2022;" horiz-adv-x="815" d="M143 760q0 117 90 190q78 62 189 62q118 0 191 -88q61 -75 61 -183q0 -109 -74 -180q-72 -72 -178 -72q-135 0 -214 89q-65 73 -65 182z" />
<glyph unicode="&#x2026;" horiz-adv-x="1591" d="M266 211q65 0 97 -55q18 -30 18 -68q0 -65 -54 -97q-27 -16 -61 -16q-74 0 -109 56q-18 29 -18 65q0 68 58 99q30 16 69 16zM1310 211q65 0 97 -55q18 -30 18 -68q0 -65 -54 -97q-27 -16 -61 -16q-74 0 -109 56q-18 29 -18 65q0 68 58 99q30 16 69 16zM797 211 q65 0 97 -55q18 -30 18 -68q0 -65 -54 -97q-27 -16 -61 -16q-74 0 -109 56q-18 29 -18 65q0 68 58 99q30 16 69 16z" />
<glyph unicode="&#x20ac;" horiz-adv-x="1261" d="M959 511h-655q48 -213 182 -327q111 -94 259 -94q138 0 230 40q45 19 166 90q6 4 9 4q19 0 31 -24q4 -8 4 -16q0 -9 -8 -16q-137 -113 -238 -154q-99 -41 -211 -41q-219 0 -392 132q-162 124 -216 313q-13 46 -19 93h-86q-20 0 -23 44l2 31q5 30 21 30h75v51q0 45 1 66 h-76q-20 0 -23 44l2 31q5 30 21 30h91q51 217 197 366q178 181 428 181q175 0 315 -71q61 -30 95 -67q45 -50 45 -86q0 -46 -44 -69q-21 -11 -45 -11q-42 0 -84 47l-57 68l-6 6q-75 76 -132 97q-41 15 -92 15q-198 0 -322 -175l-32 -52q-61 -111 -79 -249h666q19 0 22 -44 l-2 -32l-7 -20q-6 -9 -13 -9h-675v-21q0 -65 3 -96h672q19 0 22 -44l-2 -32l-7 -20q-6 -9 -13 -9z" />
<glyph horiz-adv-x="794" d="M645 1776l-449 -241q-20 -11 -37 -11t-25.5 14.5t-8.5 29t24 30.5l414 299q10 7 29 7t47 -36.5t28 -57.5t-22 -34z" />
<glyph horiz-adv-x="795" d="M696 1795l-260 -249q-22 -22 -44 -22t-44 22l-260 249q-4 5 -4 10.5t8 14t17 8.5q4 0 8 -2l241 -139q17 -9 34 -9t34 9l246 139q2 1 5 1q8 0 15.5 -9t7.5 -14t-4 -9z" />
</font>
</defs>
</svg>
