<?xml version="1.0" standalone="no"?>
<!DOCTYPE svg PUBLIC "-//W3C//DTD SVG 1.1//EN" "http://www.w3.org/Graphics/SVG/1.1/DTD/svg11.dtd" >
<svg xmlns="http://www.w3.org/2000/svg">
<metadata>
This is a custom SVG webfont generated by Font Squirrel.
Designer    : Peter S Baker
Foundry     : Lakota Language Consortium
Foundry URL : httpwwwlakhotaorg
</metadata>
<defs>
<font id="webfontuLx7s76a" horiz-adv-x="956" >
<font-face units-per-em="2048" ascent="1638" descent="-410" />
<missing-glyph horiz-adv-x="559" />
<glyph unicode=" "  horiz-adv-x="559" />
<glyph unicode="&#x09;" horiz-adv-x="559" />
<glyph unicode="&#xa0;" horiz-adv-x="559" />
<glyph unicode="!" horiz-adv-x="520" d="M324 436q-6 -17 -36.5 -17t-30.5 13l185 854q9 38 47.5 75.5t81.5 37.5q79 0 79 -70q0 -27 -9 -51zM317 90q0 -52 -34.5 -83.5t-81.5 -31.5t-88 28.5t-41 79t31 89.5t87 39t91.5 -34.5t35.5 -86.5z" />
<glyph unicode="&#x22;" horiz-adv-x="758" d="M428 944h-70q13 55 39 242q25 187 31 209q24 86 121 86q74 0 74 -54q0 -19 -5 -30q-70 -157 -190 -453zM754 944h-68q13 55 39 242q25 187 31 209q24 86 110 86q85 0 85 -54q0 -12 -5 -30q-80 -174 -192 -453z" />
<glyph unicode="#" horiz-adv-x="1024" d="M664 6h-89l158 395h-233l-162 -395h-86l158 395h-224l43 99h217l136 336h-224l48 100h217l143 354h96l-145 -354h231l142 354h98l-146 -354h205l-41 -100h-205l-139 -336h201l-43 -99h-195zM770 500l137 336h-231l-139 -336h233z" />
<glyph unicode="$" horiz-adv-x="926" d="M877 490q0 -180 -140 -330t-323 -163l-56 -192q-5 -16 -43.5 -16t-33.5 16l55 192q-125 6 -276 91q0 154 32 269q6 19 37.5 19t28.5 -16q-6 -34 -6 -53q0 -198 206 -236l155 534q-149 70 -197.5 130t-48.5 152q0 173 137 295t314 130l50 171q5 15 43.5 15t34.5 -15 l-50 -173q31 0 114.5 -17.5t99.5 -17.5q-3 -104 -34 -246q-4 -18 -35 -18t-31 16l-1 56q-2 131 -133 160l-141 -487q134 -50 188 -109.5t54 -156.5zM565 782q126 434 135 468q-123 0 -207.5 -88t-84.5 -212q0 -107 157 -168zM433 65q114 2 199.5 101.5t85.5 215.5t-137 190z " />
<glyph unicode="%" horiz-adv-x="1923" d="M1842 519q0 -181 -143 -370.5t-320 -189.5q-144 0 -209.5 80.5t-65.5 207.5q0 166 162 338t326 172q128 0 189 -64.5t61 -173.5zM520 -120q-8 -10 -56.5 -10t-42.5 10l1023 1307l-5 4q-145 -80 -268 -80q-75 0 -145 22v-14q0 -180 -143 -369.5t-319 -189.5 q-149 0 -212.5 82t-63.5 206q0 166 162 337.5t333 171.5q196 0 235 -166q75 -26 140 -26q268 0 488 256q8 9 43 9t32 -9zM1762 535q0 161 -131 161q-115 0 -254 -202t-139 -325q0 -151 135 -151q144 0 266.5 178t122.5 339zM946 1128q0 19 -2 39q-90 49 -125 129 q-85 0 -176 -97.5t-156 -218.5t-65 -210q0 -151 136 -151q145 0 266.5 178t121.5 331z" />
<glyph unicode="&#x26;" horiz-adv-x="1577" d="M1739 829q0 -89 -54 -104q-26 -6 -88 -25t-116 -43q-5 -2 -15 -2t-22 17q-63 87 -141 147q0 -86 -8.5 -180t-81 -255.5t-240 -287t-389.5 -125.5q-203 0 -322.5 112.5t-119.5 301.5q0 101 46.5 226t184 252.5t270.5 127.5q53 0 77 -17t52 -65q120 97 241.5 237t121.5 234 q0 32 -23.5 59.5t-23.5 47.5q0 42 26.5 64t55.5 22q94 0 94 -111q0 -321 -985 -1003v-17q0 -173 107 -263.5t248 -90.5q140 0 289.5 96.5t234 275.5t92.5 384q-41 35 -104 35q-64 0 -108 -44t-44 -75.5t15 -75.5t15 -63q0 -58 -67 -58q-88 0 -88 82q0 108 117 213t225 105 q55 0 108 -27.5t133 -107.5t124 -80q38 0 38 63q0 18 -16 81q0 27 22.5 40.5t42.5 13.5q76 0 76 -117zM619 840q0 63 -68 63q-38 0 -105.5 -54.5t-109 -146.5t-53.5 -163q220 151 334 252q2 24 2 49z" />
<glyph unicode="'" horiz-adv-x="422" d="M424 944h-68q23 180 68 451q24 86 119 86q76 0 76 -55q0 -11 -5 -29q-73 -163 -190 -453z" />
<glyph unicode="(" horiz-adv-x="676" d="M270 188q0 -267 142 -475q7 -11 7 -27.5t-18 -29t-36.5 -11t-30.5 16.5q-200 251 -200 549q0 170 62.5 388.5t241 477.5t426.5 439q19 14 39.5 14t28.5 -10t6 -23.5t-27 -32.5q-193 -150 -343 -368t-224 -472t-74 -436z" />
<glyph unicode=")" horiz-adv-x="676" d="M616 958q0 -172 -65 -398t-257 -482.5t-409 -415.5q-22 -16 -40 -16t-27 12t-7.5 23t27.5 30q227 182 368.5 404t208 453t66.5 419q0 264 -143 475q-11 16 -2.5 42t39 26t41.5 -14q200 -253 200 -558z" />
<glyph unicode="*" horiz-adv-x="807" d="M754 1187l-278 -143l215 -141l-49 -62l-216 141l-61 -288h-72l61 287l-271 -139l-23 62l273 140l-216 142l49 62l215 -141l59 277h72l-60 -279l279 144z" />
<glyph unicode="+" horiz-adv-x="1024" d="M907 371h-334v-371h-120v371h-334v100h334v336h120v-336h334v-100z" />
<glyph unicode="," horiz-adv-x="520" d="M340 104q0 -76 -48.5 -163.5t-149.5 -175t-208 -134.5q-2 -1 -5 -1q-9 0 -14 8.5t-5 15.5q0 5 4 8q84 62 155 133.5t93 147.5q3 11 3 32t-18 29q-83 39 -83 104q0 51 43.5 89.5t103.5 38.5q62 0 95.5 -43.5t33.5 -88.5z" />
<glyph unicode="-" horiz-adv-x="827" d="M745 487h-573q-6 0 -6 19t14 57.5t25 38.5h573q6 0 6 -21.5t-15 -57.5t-24 -36z" />
<glyph unicode="." horiz-adv-x="520" d="M315 85.5q0 -48.5 -33.5 -79.5t-90.5 -31t-88 37t-31 80t32 81t92 38t89.5 -38.5t29.5 -87z" />
<glyph unicode="/" horiz-adv-x="541" d="M90 -12q-6 -15 -33 -15t-47 19t-20 27t2 14l610 1440q6 15 33.5 15t48 -18.5t20.5 -26t-2 -13.5z" />
<glyph unicode="0" d="M1026 977q0 -153 -58.5 -369t-214 -420t-362.5 -204q-273 0 -273 354q0 149 61.5 376.5t215 423t359.5 195.5q272 0 272 -356zM873 1094q0 174 -134 174q-129 0 -232.5 -182t-169 -428t-65.5 -377q0 -230 134 -230t230.5 172t166.5 434t70 437z" />
<glyph unicode="1" d="M566 262q-27 -100 -27 -144t31.5 -56.5t116.5 -12.5q10 0 10 -15t-4.5 -28.5t-20.5 -13.5q-85 8 -263.5 8t-263.5 -8q-10 0 -10 15t5 28.5t21 13.5q126 0 169.5 34t81.5 177l233 871q5 18 5 27q0 18 -12.5 18t-27.5 -7l-142 -57q-14 -6 -17.5 16.5t9.5 28.5 q161 70 377 209q14 8 23.5 8t9.5 -10q-35 -98 -56 -176z" />
<glyph unicode="2" d="M209 180q-23 -20 -23 -31.5t27 -11.5h297q159 0 237 57q35 25 65 66q4 7 28.5 7t24.5 -19q0 -3 -1 -4l-158 -219q-24 -33 -61 -33q-122 8 -335 8t-343 -8q-34 0 -34 30q0 16 14 27q284 233 477.5 423.5t293.5 332t100 243.5q0 82 -46 120t-115 38q-146 0 -295 -182 q-5 -5 -18 -5t-23 12t-10 16.5t2 6.5q89 117 212 198t254 81q107 0 168.5 -65t61.5 -166q0 -142 -118.5 -295.5t-681.5 -626.5z" />
<glyph unicode="3" d="M864 524q0 -212 -182.5 -379.5t-410 -167.5t-227.5 125q0 47 37.5 73t69.5 26t79.5 -74t125.5 -74q127 0 228 146.5t101 283.5q0 207 -215 207q-66 0 -117 -16q-8 0 -8 22.5t11 40t18 17.5q164 0 295.5 91t131.5 240q0 71 -40.5 106.5t-101.5 35.5q-119 0 -244 -137 q-3 -3 -14 -3t-20.5 14.5t-9.5 19.5t3 10q190 202 380 202q97 0 152.5 -56.5t55.5 -143.5q0 -224 -265 -351q-40 -19 -40 -26.5t25 -13.5q182 -41 182 -218z" />
<glyph unicode="4" d="M683 127q-3 -11 -3 -21q0 -57 101 -57q10 0 10 -15.5t-4.5 -28.5t-20.5 -13q-85 8 -215 8t-215 -8q-10 0 -10 16t5 28.5t20 12.5q158 0 179 78l65 244q5 20 -15 20h-477q-59 0 -59 28.5t72 100.5l302 301q369 369 582 604q14 12 53.5 12t39.5 -24q0 -4 -1 -6l-887 -897 q-14 -14 -14 -23.5t23 -9.5h389q20 0 26 21l119 444q4 15 79 15t75 -15l-119 -444q-6 -21 15 -21h118q8 0 8 -23t-12 -43t-19 -20h-119q-20 0 -25 -20z" />
<glyph unicode="5" d="M882 606q0 -203 -186 -412.5t-448 -209.5q-84 0 -148 25t-64 75q0 55 38 82t72 27q33 0 88.5 -62.5t119.5 -62.5q140 0 253 151.5t113 300.5q0 223 -259 223q-56 0 -134 -19q-22 -5 -22 12q0 11 5 22l233 530q14 29 41 29h471q4 -1 4 -13.5t-31.5 -71t-45.5 -58.5h-383 q-29 0 -41 -27l-105 -234q-12 -26 8 -23q41 5 80 5q341 0 341 -289z" />
<glyph unicode="6" d="M903 510q0 -203 -157.5 -364.5t-358.5 -161.5q-270 0 -270 303q0 141 78.5 326t309.5 413t534 352q11 4 17.5 -4t6 -24.5t-10.5 -20.5q-159 -78 -283.5 -175t-223 -222t-177.5 -303q191 137 314 137q100 0 160.5 -71.5t60.5 -184.5zM731 440q0 213 -169 213 q-112 0 -228 -110q-58 -141 -58 -279q0 -201 156 -201q127 0 213 121.5t86 255.5z" />
<glyph unicode="7" d="M297 0q-11 -15 -81 -15t-70 13q0 1 32 40.5t146 199.5l638 901q17 26 17 34.5t-30 8.5h-214q-164 0 -216 -13.5t-98 -45t-82 -85.5q-9 -14 -37.5 -14t-21.5 14l119 248q15 31 48 31h682q33 0 33 -13.5t-17 -39.5z" />
<glyph unicode="8" d="M1018 1135q0 -273 -327 -424q179 -137 179 -305q0 -167 -151.5 -294.5t-315.5 -127.5q-153 0 -231 67t-78 172q0 266 380 445q-157 126 -157 256q0 166 137.5 287.5t283.5 121.5t213 -56.5t67 -141.5zM868 1085q0 82 -42.5 127t-117.5 45q-97 0 -174.5 -71.5 t-77.5 -159.5q0 -68 36 -123.5t156 -148.5q220 129 220 331zM707 338q0 133 -187 287q-133 -69 -198 -171.5t-65 -210.5q0 -87 51 -139.5t132 -52.5q110 0 188.5 88t78.5 199z" />
<glyph unicode="9" d="M1028 1037q0 -156 -82.5 -337.5t-298 -389t-525.5 -345.5h-9q-15 7 -16 32t8 30q286 145 432.5 302t238.5 357q-162 -135 -296 -135q-110 0 -175 74.5t-65 164.5q0 114 51 225t172 214.5t287 103.5q136 0 207 -81t71 -215zM867 1053q0 198 -161 198q-124 0 -208.5 -125.5 t-84.5 -254.5q0 -101 44.5 -155t118.5 -54q111 0 233 112q58 141 58 279z" />
<glyph unicode=":" horiz-adv-x="561" d="M356 85q0 -49 -34.5 -79t-91.5 -29.5t-87 37.5t-30 81t32.5 80t93 36t89 -38.5t28.5 -87.5zM530 725q0 -49 -34.5 -79t-91.5 -30t-87 37t-30 81t32.5 80t93 36t89 -38t28.5 -87z" />
<glyph unicode=";" horiz-adv-x="561" d="M381 104q0 -76 -48.5 -163.5t-149.5 -175t-208 -134.5q-2 -1 -5 -1q-9 0 -14 8.5t-5 15.5q0 5 4 8q84 62 155 133.5t93 147.5q3 11 3 32t-18 29q-83 39 -83 104q0 51 43.5 89.5t103.5 38.5q62 0 95.5 -43.5t33.5 -88.5zM499 725q0 -49 -34.5 -79t-91.5 -30t-87 37t-30 81 t32.5 80t93 36t89 -38t28.5 -87z" />
<glyph unicode="&#x3c;" horiz-adv-x="1024" d="M911 -2l-796 377v92l796 379v-119l-649 -303v-4l649 -305v-117z" />
<glyph unicode="=" horiz-adv-x="1024" d="M907 596h-788v100h788v-100zM907 330h-788v100h788v-100z" />
<glyph unicode="&#x3e;" horiz-adv-x="1024" d="M909 375l-796 -377v117l649 305v4l-649 303v119l796 -379v-92z" />
<glyph unicode="?" horiz-adv-x="678" d="M318 85.5q0 -48.5 -33.5 -79.5t-90.5 -31t-88 37t-31 80t32 81t92 38t89.5 -38.5t29.5 -87zM772 1059q0 -115 -52.5 -206t-98.5 -112l-191 -88q-88 -40 -100 -90q-16 -45 -17 -125q0 -13 -22.5 -17.5t-24.5 5.5q-24 88 -24 149q0 137 166 213l120 56q170 78 170 211 q0 139 -243 139q-16 0 -32.5 19.5t-16.5 46.5q0 44 36 73t76 29q103 0 178.5 -94t75.5 -209z" />
<glyph unicode="@" horiz-adv-x="1556" d="M1526 858q0 -212 -146 -356t-385 -144q-81 0 -102 15.5t-21 45.5t50 177l-9 4q-179 -239 -303 -239q-92 0 -92 126q0 157 128 342t278 185q55 0 99 -41l19 56q4 14 46 14q46 0 41 -18l-141 -492q-14 -47 -14 -75q0 -32 48 -32q178 0 297 114.5t119 315.5 q0 200 -151.5 329.5t-383.5 129.5q-294 0 -471.5 -208.5t-177.5 -504.5q0 -242 158 -402.5t452 -160.5q151 0 318 72q4 1 11 -6t8 -18.5t-3 -14.5q-167 -105 -395 -105q-279 0 -484.5 165t-205.5 468q0 348 239.5 566t569.5 218q280 0 442 -156.5t162 -369.5zM968 788 l34 114q-33 63 -98 63q-104 0 -189.5 -168t-85.5 -284q0 -70 44 -70q55 0 167 128q97 111 128 217z" />
<glyph unicode="A" horiz-adv-x="1108" d="M909 186q-1 -7 -1 -21q0 -96 144 -96q8 0 8 -21t-11.5 -38t-16.5 -17q-88 7 -213 7t-212 -7q-8 0 -7.5 20.5t11.5 38t18 17.5q81 0 109 30.5t35 86.5l37 310q4 35 -28 35h-310q-31 0 -48 -25l-210 -324q-23 -35 -23 -58q0 -55 132 -55q7 0 7 -21t-11 -38t-17 -17 q-86 7 -213 7t-213 -7q-8 0 -8 20t11 38t17 18q76 0 126 22t110 110l674 998q16 23 16 38q0 7 -8 18t-8 18q0 10 25 20q98 39 145.5 65.5t63.5 26.5q15 0 15 -18q0 -7 -8.5 -45t-20.5 -143zM824 629l62 530q1 9 -12 9q-12 0 -18 -9l-353 -530q-8 -10 -8 -19.5t19 -9.5h275 q32 0 35 29z" />
<glyph unicode="B" horiz-adv-x="1217" d="M1157 390q0 -162 -136 -279.5t-471 -117.5l-266 7q-136 0 -255 -7q-8 0 -8 20t11 38t17 18q106 0 150.5 23.5t64.5 93.5l283 986q5 17 5 37q0 47 -42 60t-120 13q-8 0 -8 21t11 38t17 17q160 -4 242 -4l252 4q172 1 262.5 -76t90.5 -187q0 -158 -87.5 -244.5 t-260.5 -117.5q-11 -2 -11 -7.5t11 -9.5q248 -83 248 -326zM1117 1074q0 231 -339 231q-50 0 -71 -75l-124 -435q-2 -10 -2 -12q0 -30 95 -30q199 0 320 92.5t121 228.5zM1005 422q0 134 -92 203.5t-250 69.5q-110 0 -127 -59l-102 -359q-21 -72 -21 -110q0 -110 141 -110 q206 0 328.5 94.5t122.5 270.5z" />
<glyph unicode="C" horiz-adv-x="1470" d="M1183 36q-34 -5 -82 -17q-174 -46 -389 -46t-356 130t-141 355q0 355 290.5 641t643.5 286q147 0 238.5 -21.5t185.5 -36.5q-15 -158 -59 -308q-8 -17 -39.5 -17t-30.5 12q8 60 8 78q0 222 -318 222t-537 -273t-219 -582q0 -176 102 -293.5t275 -117.5q175 0 293 55 t166 115.5t71 98.5q7 10 36 10t29 -19q0 -20 -71 -132t-96 -140z" />
<glyph unicode="D" horiz-adv-x="1514" d="M1566 904q0 -327 -266.5 -619t-627.5 -292q-272 7 -391 7t-252 -7q-8 0 -8 20t11 38t17 18q89 0 130 15q63 25 85 102l283 986q5 22 5 36q0 74 -162 74q-8 0 -8 21t11 38t17 17q133 -4 295.5 -4t311.5 4q247 0 398 -119t151 -335zM1404 880q0 182 -123.5 299t-365.5 117 q-95 0 -128 -7t-56 -33t-38 -77l-254 -881q-23 -78 -23 -121q0 -124 205 -124q306 0 544.5 264.5t238.5 562.5z" />
<glyph unicode="E" horiz-adv-x="1255" d="M1081 19q-8 -26 -28 -26l-293 3q-391 4 -494.5 4t-236.5 -7q-8 0 -8 18t11 38t17 20q95 0 135 18q56 24 78 99l283 986q4 14 4 33q0 77 -157 77q-8 0 -8 19.5t11 38t17 18.5q133 -4 241 -4l690 4q62 0 62 -22q0 -5 -3 -16l-88 -310q-4 -14 -43.5 -14t-36.5 14 q11 56 11 78q0 95 -64 142t-127 50q-213 9 -303 9q-29 0 -35 -22l-160 -554q-2 -9 -2 -15q0 -22 29 -22h192q69 0 91 12q35 18 51 76l27 100q4 15 40 15t33 -15q-88 -251 -123 -428q-4 -15 -37.5 -15t-29.5 16l25 90q7 25 7 39q0 41 -103 41h-198q-33 0 -40 -26l-81 -281 q-27 -94 -27 -140q0 -99 114 -99l240 8q233 8 328 275q5 14 46 14t37 -14z" />
<glyph unicode="F" horiz-adv-x="1217" d="M407 186q-6 -21 -6 -38q0 -79 164 -79q7 0 7 -21.5t-10.5 -38t-16.5 -16.5q-86 7 -247 7t-269 -7q-8 0 -8 18t11 38t17 20q95 0 135 18q57 24 78 99l283 986q4 16 4 33q0 77 -157 77q-8 0 -8 19.5t11 38t17 18.5q113 -4 234.5 -4t696.5 4q62 0 62 -22q0 -7 -3 -16 l-88 -310q-5 -14 -42.5 -14t-37.5 14q11 42 11 78q0 92 -64 140.5t-127 51.5q-213 9 -303 9q-29 0 -35 -22l-149 -514q-2 -7 -2 -19q0 -18 29 -18h155q120 0 157 130l32 117q4 14 37 14t31 -14q-28 -73 -87.5 -284.5t-74.5 -283.5q-4 -15 -39.5 -15t-31.5 15l35 117 q7 28 7 47q0 81 -87 81h-161q-33 0 -40 -27z" />
<glyph unicode="G" horiz-adv-x="1476" d="M1245 133q-6 -21 -6 -36.5t17.5 -18.5t17.5 -15q0 -32 -22 -32q-37 0 -177 -20l-205 -29t-149 -9q-221 0 -362.5 130.5t-141.5 350.5q0 342 286.5 636.5t626.5 294.5q170 0 298 -29t145 -29q0 -105 -59 -308q-5 -18 -38.5 -18t-31.5 13q5 31 5 62q0 238 -346 238 q-299 0 -511 -267.5t-212 -571.5q0 -173 103.5 -300t296.5 -127q305 0 340 125l53 190q9 32 9 49q0 42 -43 54t-161 12q-7 0 -7 20.5t11.5 38t18.5 17.5q75 -5 260 -5t246 5q8 0 8 -19.5t-12 -38t-19 -18.5q-94 0 -124 -21.5t-50 -93.5z" />
<glyph unicode="H" horiz-adv-x="1503" d="M1167 186q-6 -21 -6 -34q0 -83 157 -83q8 0 8 -18t-11 -38t-18 -20q-88 7 -247.5 7t-260.5 -7q-7 0 -7 19.5t11 38t17 18.5q107 0 150.5 27t61.5 90l126 441q4 15 4 25.5t-29 10.5h-547q-32 0 -42 -36l-127 -441q-6 -21 -6 -35q0 -82 157 -82q7 0 7 -21.5t-11 -38 t-18 -16.5q-85 7 -257 7t-250 -7q-8 0 -8 18t11 38t17 20q118 0 157.5 31t55.5 86l283 986q5 17 5 35q0 80 -156 80q-8 0 -8 19.5t11 38t17 18.5q46 -5 255 -5t255 5q8 0 8 -19.5t-11 -38t-17 -18.5q-117 0 -158 -29.5t-57 -85.5l-112 -392q-5 -19 -5 -30t28 -11h546 q34 0 46 41l113 392q5 17 5 35q0 80 -156 80q-8 0 -8 21.5t11 38t18 16.5q75 -5 253 -5t256 5q8 0 8 -21t-11 -38t-17 -17q-107 0 -152 -26t-63 -89z" />
<glyph unicode="I" horiz-adv-x="729" d="M407 186q-6 -20 -6 -34q0 -83 157 -83q7 0 7 -21.5t-11 -38t-18 -16.5q-86 7 -253.5 7t-253.5 -7q-8 0 -8 20t11 38t17 18q88 0 140 21.5t73 95.5l283 986q5 22 5 35q0 80 -156 80q-8 0 -8 21t11 38t17 17q46 -5 255 -5t255 5q8 0 8 -21t-11 -38t-17 -17 q-114 0 -156 -27.5t-59 -87.5z" />
<glyph unicode="J" horiz-adv-x="720" d="M409 160q-86 -289 -246.5 -434t-322.5 -145q-31 0 -68 21.5t-37 67t37 80t105 34.5q54 0 86.5 -34t32.5 -67q80 25 144.5 127.5t269.5 823.5l153 538q5 18 5 29q0 86 -161 86q-8 0 -8 21.5t11 38t18 16.5q47 -5 241.5 -5t266.5 5q8 0 8 -20.5t-11 -38t-18 -17.5 q-99 0 -143 -26.5t-63 -88.5z" />
<glyph unicode="K" horiz-adv-x="1301" d="M1012 173q32 -64 82.5 -84t145.5 -20q13 0 13 -22.5t-11 -38t-17 -15.5q-87 7 -239 7t-239 -7q-7 0 -7 21t11 38t17 17q102 0 102 47q0 25 -22 70l-170 353q-25 51 -61 78.5t-59 27.5t-27 -20l-124 -439q-7 -21 -7 -40q0 -77 150 -77q7 0 7 -22t-11 -38t-17 -16 q-87 7 -250.5 7t-249.5 -7q-8 0 -8 20t11 38t17 18q123 0 161 33t52 84l283 986q6 21 6 39q0 76 -159 76q-9 0 -9 22.5t10.5 38t16.5 15.5q48 -5 257 -5t255 5q8 0 8 -21t-11 -38t-17 -17q-120 0 -159 -30.5t-54 -84.5l-128 -443q-2 -6 -2 -11t10 -5q41 0 147 97l400 365 q62 57 62 87q0 25 -48 25q-7 0 -7 21.5t11 38t18 16.5q46 -5 192 -5t192 5q8 0 8 -20.5t-11 -38t-18 -17.5q-100 0 -162 -27.5t-154 -109.5l-446 -403q-10 -8 -10 -18.5t4 -19.5z" />
<glyph unicode="L" horiz-adv-x="1312" d="M1190 27q-7 -26 -18.5 -30t-72.5 -4q-643 7 -803 7t-267 -7q-8 0 -8 21.5t13 38t21 16.5q97 0 141.5 20.5t63.5 87.5l287 995q4 17 4 33q0 82 -159 82q-9 0 -9 22.5t10.5 38t16.5 15.5q48 -5 261 -5t261 5q7 0 7 -21t-11 -38t-17 -17q-103 0 -150.5 -20t-69.5 -95 l-257 -895q-22 -77 -22 -118q0 -97 122 -97l333 13q258 11 344 304q3 14 41.5 14t38.5 -14z" />
<glyph unicode="M" horiz-adv-x="1928" d="M1573 186q-5 -22 -5 -36q0 -81 138 -81q7 0 7 -21.5t-11.5 -38t-17.5 -16.5q-86 7 -223 7t-223 -7q-8 0 -8 20.5t11 38t18 17.5q137 0 172 117l242 853q1 3 1 7q0 12 -9.5 12t-20.5 -13l-798 -1041q-9 -12 -20.5 -12t-14.5 14l-170 1035q-5 30 -20.5 30t-26.5 -30 l-296 -855q-8 -22 -8 -39q0 -78 140 -78q8 0 8 -20.5t-11.5 -38t-17.5 -17.5q-87 7 -199 7t-199 -7q-7 0 -7 20.5t11 38t18 17.5q149 0 190 117l324 924q17 47 17 83q0 94 -155 94q-8 0 -8 21.5t11 38t18 16.5q46 -5 137.5 -5t109.5 -6q43 -12 52 -67l192 -1008 q4 -26 18.5 -26t32.5 24l780 1016q39 51 86 62q20 5 103 5t130 5q7 0 7 -21t-10.5 -37t-17.5 -18q-96 0 -138.5 -36.5t-74.5 -144.5z" />
<glyph unicode="N" horiz-adv-x="1539" d="M1232 4q-9 -33 -25.5 -33t-31.5 29l-539 1117q-9 20 -25.5 20t-23.5 -31l-262 -920q-8 -27 -8 -45q0 -72 133 -72q8 0 8 -21t-11 -38t-17 -17q-86 7 -200.5 7t-200.5 -7q-8 0 -8 20t11 38t17 18q90 0 138 21t69 96l264 928q14 50 14 98t-48 65q-30 10 -96 10q-8 0 -8 21 t11 38t17 17q48 -5 130.5 -5t111 -4.5t46.5 -41.5l490 -1024q14 -28 30 -28t23 30l257 882q7 24 7 44q0 71 -149 71q-7 0 -7 20t12 38t18 18q47 -5 193 -5t193 5q7 0 7 -21t-10 -37q-12 -18 -18 -18q-78 0 -117 -19.5t-61 -95.5z" />
<glyph unicode="O" horiz-adv-x="1478" d="M1534 886q0 -350 -275 -631.5t-587 -281.5q-177 0 -316 112t-139 356q0 361 276.5 652.5t585.5 291.5q219 0 337 -144.5t118 -354.5zM1371 906q0 173 -96.5 290t-243.5 118q-157 0 -314.5 -133t-247 -328.5t-89.5 -396.5q0 -179 100.5 -294.5t226.5 -115.5 q211 0 361.5 148t226.5 344t76 368z" />
<glyph unicode="P" horiz-adv-x="1184" d="M1327 1081q0 -213 -185.5 -352.5t-410.5 -139.5q-71 0 -179 13q-25 3 -31 -19l-112 -397q-6 -21 -6 -38q0 -79 157 -79q7 0 7 -21t-11 -38t-17 -17q-86 7 -254 7t-254 -7q-8 0 -8 21t11 38t17 17q90 0 141.5 24t71.5 93l283 986q4 14 4 29q0 81 -159 81q-8 0 -8 21t11 38 t17 17q100 -3 229 -3t328 3q159 0 258.5 -75t99.5 -202zM1165 1068q0 103 -76 165.5t-220 62.5t-153 -31l-162 -567q-6 -23 13 -27q64 -13 120 -13q205 0 341.5 114t136.5 296z" />
<glyph unicode="Q" horiz-adv-x="1478" d="M1534 886q0 -155 -69.5 -325t-216.5 -319.5t-304 -212.5q-8 -3 -8 -9t4 -11q52 -63 213 -150.5t364 -142.5q9 -3 9 -21.5t-17 -37t-27 -16.5q-272 57 -533 158t-431.5 184.5t-235.5 183.5t-65 276q0 353 275.5 647.5t586.5 294.5q216 0 335.5 -142t119.5 -357zM1371 886 q0 194 -94 310.5t-242 117.5q-157 0 -314 -130t-249 -332t-92 -404q0 -163 96.5 -282t230.5 -119q273 0 468.5 267.5t195.5 571.5z" />
<glyph unicode="R" horiz-adv-x="1358" d="M1361 1083q0 -130 -99 -261.5t-332 -196.5q-18 -5 -18 -20.5t5 -31.5q85 -277 229 -453q86 -105 197 -105q9 0 9 -10q0 -24 -21 -26q-41 -3 -79 -3q-113 0 -177.5 23.5t-129 101t-89.5 144.5l-92 242q-20 52 -50 87q-19 22 -67.5 22t-78.5 3.5t-37 -1.5q-8 -6 -10 -15 l-112 -397q-7 -25 -7 -43q0 -74 161 -74q7 0 7 -21.5t-10.5 -38t-16.5 -16.5q-87 7 -257.5 7t-256.5 -7q-8 0 -8 20t11 38t17 18q103 0 149.5 25t65.5 92l283 986q5 17 5 43q0 67 -162 67q-8 0 -8 21t11 38t17 17q100 -3 251.5 -3t322.5 3q163 0 270 -72.5t107 -202.5z M1199 1066q0 102 -84.5 166t-252.5 64q-94 0 -117.5 -7.5t-28.5 -23.5l-162 -567q-1 -4 -1 -13.5t17 -13.5q69 -13 117 -13q210 0 361 109t151 299z" />
<glyph unicode="S" horiz-adv-x="1042" d="M991 504q0 -201 -161.5 -366t-365.5 -165q-115 0 -178.5 20t-169.5 80l1 72q11 173 34 220q9 16 39 16t31 -7q-7 -38 -7 -67q0 -129 85 -194t223 -65q114 0 206.5 106.5t92.5 230.5q0 156 -153 222l-178 76q-152 64 -152 251q-1 186 153.5 318.5t347.5 132.5 q107 0 189 -20t105 -20q-2 -97 -35 -264q-5 -19 -37.5 -19t-34.5 17l-1 56q-18 183 -224 183q-131 0 -222 -95t-91 -227q0 -106 130 -163l242 -103q131 -56 131 -226z" />
<glyph unicode="T" horiz-adv-x="1589" d="M856 186q-5 -16 -5 -37q0 -80 157 -80q7 0 7 -21.5t-10.5 -38t-16.5 -16.5q-88 7 -264.5 7t-262.5 -7q-8 0 -8 21t11 38t17 17q116 0 165.5 28t66.5 89l301 1054q5 16 5 23q0 19 -37 19l-295 -10q-260 -7 -334 -266q-4 -14 -40 -14t-38 14l92 321q7 31 78 31 q413 -4 660.5 -4t682.5 4q72 0 72 -20l-97 -332q-5 -14 -42.5 -14t-37.5 14q15 56 15 98q0 162 -196 168l-291 10q-40 0 -52 -37z" />
<glyph unicode="U" horiz-adv-x="1482" d="M1456 890q-110 -387 -183 -544t-226 -265t-382 -108q-183 0 -276.5 69.5t-93.5 220.5q0 102 49 276l181 633q8 29 8 46q0 44 -35.5 56.5t-105.5 12.5q-9 0 -9 22.5t10.5 38t16.5 15.5q48 -5 245 -5t243 5q7 0 7 -21.5t-11 -38t-17 -16.5q-127 0 -159 -31t-47 -84 l-140 -485q-89 -316 -89 -419t70.5 -161t197.5 -58q199 0 328.5 104t195.5 334l197 685q6 22 6 41q0 74 -138 74q-7 0 -7 21t11 38t17 17q70 -5 228.5 -5t204.5 5q8 0 8 -21t-11 -37q-11 -18 -17 -18q-88 0 -132.5 -22t-64.5 -93z" />
<glyph unicode="V" horiz-adv-x="1206" d="M953 676l-466 -689q-17 -25 -32 -25t-18 44l-74 1166q-4 70 -35.5 92.5t-112.5 22.5q-7 0 -7 21.5t11 38t18 16.5q56 -5 219.5 -5t241.5 5q7 0 7 -20.5t-11 -38t-18 -17.5q-107 0 -139 -29.5t-29 -73.5l55 -903q2 -28 13 -28t27 24l335 498q53 78 245 388q31 50 31 79 q0 45 -104 45q-8 0 -8 19.5t11 38t17 18.5q43 -5 208.5 -5t220.5 5q7 0 7 -21t-11 -38t-17 -17q-149 -2 -213 -86q-153 -201 -372 -525z" />
<glyph unicode="W" horiz-adv-x="1944" d="M1703 686l-484 -699q-16 -23 -28.5 -23t-21.5 42l-107 505q-4 25 -11 25t-24 -25l-362 -524q-14 -23 -28.5 -23t-21.5 42l-247 1166q-15 73 -45.5 94t-100.5 21q-7 0 -7 19.5t11 38t17 18.5q46 -5 208.5 -5t235.5 5q8 0 8 -19.5t-11 -38t-17 -18.5q-161 0 -161 -78 q0 -19 4 -37l199 -920q6 -26 20.5 -26t32.5 24l240 340q24 34 24 62.5t-4 47.5l-100 472q-16 77 -39 96t-88 19q-8 0 -8 19.5t11 38t17 18.5q46 -5 205 -5t221 5q8 0 8 -21t-10.5 -37t-17.5 -18q-161 0 -161 -78q0 -18 4 -37l70 -325q6 -32 13 -32t26 32l206 316 q33 49 33 83q0 41 -105 41q-8 0 -8 19.5t11 38t17 18.5q47 -5 205.5 -5t222.5 5q8 0 8 -21t-10.5 -37t-17.5 -18q-151 0 -213 -86l-317 -438q-30 -41 -30 -71t3 -45l85 -395q6 -27 20 -27t33 25q186 244 617 913q33 54 33 83q0 41 -105 41q-8 0 -8 19.5t11 38t17 18.5 q47 -5 213 -5t215 5q8 0 8 -21t-11 -38t-17 -17q-147 0 -213 -86q-156 -201 -373 -515z" />
<glyph unicode="X" horiz-adv-x="1356" d="M1255 1092l-361 -343q-16 -15 -16 -32t4 -28l184 -503q42 -117 206 -117q7 0 7 -24t-11 -38t-17 -14q-89 7 -221.5 7t-236.5 -7q-8 0 -8 19.5t11 38t17 18.5q136 0 136 64q0 24 -13 58l-153 398q-7 19 -17.5 19t-27.5 -16l-302 -290q-137 -131 -137 -187q0 -46 93 -46 q7 0 7 -21.5t-11 -38t-18 -16.5q-82 7 -219 7t-233 -7q-8 0 -8 18t11 38t17 20q158 0 249 86l533 503q17 15 17 32t-6 32l-177 457q-26 66 -67 87t-126 21q-8 0 -8 21.5t11.5 38t17.5 16.5q78 -5 220 -5t280 5q7 0 7 -21.5t-10.5 -38t-16.5 -16.5q-162 0 -162 -74 q0 -19 9 -42l124 -347q7 -18 18 -18t28 16l355 341q65 62 65 93t-76 31q-8 0 -8 19.5t11 38t17 18.5q58 -5 192.5 -5t206.5 5q8 0 8 -21t-10.5 -37t-17.5 -18q-95 0 -170 -39.5t-197 -155.5z" />
<glyph unicode="Y" horiz-adv-x="1228" d="M642 186q-9 -32 -9 -60q0 -57 140 -57q8 0 8 -21t-11 -38t-17 -17q-87 7 -238.5 7t-237.5 -7q-7 0 -7 21t11 38t17 17q94 0 136.5 20t64.5 97l76 266q27 94 27 128.5t-23 108.5l-151 483q-24 78 -64.5 96.5t-92.5 18.5q-7 0 -7 21t11 38t17 17q46 -5 216 -5t218 5 q7 0 7 -21t-11 -38t-17 -17q-97 0 -120 -20t-23 -45q0 -21 9 -50l151 -483q6 -18 16 -18t24 15l445 477q50 54 50 84q0 40 -100 40q-7 0 -7 21.5t11 38t18 16.5q67 -5 193 -5t201 5q7 0 7 -20.5t-11 -38t-18 -17.5q-104 0 -172 -47q-38 -26 -183 -181l-381 -406 q-57 -61 -87 -166z" />
<glyph unicode="Z" horiz-adv-x="1199" d="M1048 -7q-9 -29 -24 -26l-52 12q-91 21 -655 21h-352q-20 0 -20 20t11 31l1236 1216q9 9 9 15.5t-20 6.5h-572q-43 0 -92 -35.5t-117 -128.5q-64 -87 -98 -151q-6 -12 -27 -5t-16 19q72 169 133 357q8 25 36 21l28 -4q82 -12 254.5 -11.5t332.5 3.5l374 8q17 0 17 -15 t-16 -31l-1217 -1205q-8 -8 -8 -25t22 -17q429 0 645 13q120 7 288 270q5 8 27 1t17 -17q-85 -161 -144 -343z" />
<glyph unicode="[" horiz-adv-x="725" d="M532 -354h-432q-17 0 -17 13q0 4 1 9l528 1843q4 19 27 19h420q7 0 7 -19t-13 -39t-21 -20h-276q-23 0 -29 -22l-479 -1678q-8 -28 6 -28h301q8 0 8 -22t-12 -39t-19 -17z" />
<glyph unicode="\" horiz-adv-x="717" d="M713 25q1 -2 1 -6q0 -22 -48 -36q-17 -5 -33.5 -5t-20.5 10l-608 1444q-2 6 -2 9q0 26 42 42q18 7 37 7t25 -15z" />
<glyph unicode="]" horiz-adv-x="725" d="M229 -332q-6 -22 -28 -22h-432q-9 0 -9 20.5t8 39t19 18.5h305q14 0 21 24l483 1682q6 22 -12 22h-279q-9 0 -9 23.5t11 39t17 15.5h419q16 0 16 -12q0 -3 -1 -7z" />
<glyph unicode="^" horiz-adv-x="1227" d="M1091 535h-136l-302 681l-302 -681h-138l387 837h106z" />
<glyph unicode="_" horiz-adv-x="1024" d="M1024 -256h-1024v102h1024v-102z" />
<glyph unicode="`" horiz-adv-x="569" d="M461 986q5 -12 5 -20q0 -37 -36 -37q-24 0 -41 27l-186 301q-2 2 -2 8q0 20 33 41t54 21t28 -16z" />
<glyph unicode="a" horiz-adv-x="918" d="M690 203q-10 -35 -10 -59q0 -41 32 -41q34 0 130 94q9 9 28 -11q14 -13 14 -22q0 -5 -3 -8q-66 -81 -145.5 -132t-139.5 -51q-61 0 -61 79q0 56 24 120l43 115l-12 4q-238 -318 -404 -318q-60 0 -91.5 48t-31.5 120q0 211 173.5 457t367.5 246q72 0 133 -56l24 70 q8 24 67 24q52 0 52 -19q0 -2 -1 -5zM664 543l45 151q-43 84 -131 84q-136 0 -251.5 -220t-115.5 -382q0 -94 59 -94q55 0 155 100.5t156.5 186.5t82.5 174z" />
<glyph unicode="b" horiz-adv-x="852" d="M850 659q0 -253 -180 -469.5t-428 -216.5q-145 0 -145 160q0 39 12 92l227 975q16 67 16 99q0 79 -78 79q-15 0 -15 26t15 26q55 0 137 27.5t95 27.5q14 0 12 -13l-2 -14l-199 -860l21 -6q198 260 346 260q166 0 166 -193zM707 602q0 152 -84 152q-97 0 -214 -160 t-149.5 -262.5t-32.5 -168.5q0 -118 99 -118q142 0 261.5 197.5t119.5 359.5z" />
<glyph unicode="c" horiz-adv-x="674" d="M584 113q-140 -140 -283 -140q-92 0 -147.5 79.5t-55.5 203.5q0 203 143.5 399.5t315.5 196.5q62 0 113 -29.5t51 -68.5q0 -32 -25 -54.5t-51 -22.5q-27 0 -37 19q-9 57 -15 66q-20 26 -89 26q-90 0 -180 -161.5t-91 -302.5q0 -121 37.5 -191t98.5 -70q62 0 100.5 21.5 t81.5 60.5q5 4 18 0.5t16.5 -15t-1.5 -17.5z" />
<glyph unicode="d" horiz-adv-x="958" d="M721 209q-7 -29 -7 -47q0 -49 25 -49q51 0 133 94q3 3 16 -2t21 -18t4 -17q-173 -197 -276 -197q-60 0 -60 107q0 26 7 55l40 178l-14 11q-102 -149 -213.5 -250t-210.5 -101q-60 0 -91.5 51.5t-31.5 120.5q0 213 173 460t368 247q80 0 131 -63l92 411q16 67 16 96 q0 82 -77 82q-15 0 -15 26t15 26q70 0 148 27.5t83 27.5q15 0 13 -13l-2 -12zM710 688q-44 98 -132 98q-136 0 -251.5 -223t-115.5 -383q0 -98 59 -98q70 0 199 144.5t199 277.5z" />
<glyph unicode="e" horiz-adv-x="696" d="M723 737q0 -135 -163.5 -244t-317.5 -137q-15 -75 -15 -118q0 -166 111 -166q40 0 84 21t141 104q7 6 18.5 0.5t13 -17t-2.5 -16.5q-156 -191 -293 -191q-203 0 -203 242q0 191 160 414t336 223q131 0 131 -115zM580 711q0 61 -54 61q-74 0 -146.5 -102.5t-119.5 -249.5 q123 26 221.5 104t98.5 187z" />
<glyph unicode="f" horiz-adv-x="479" d="M201 -111q-30 -156 -79.5 -254.5t-119.5 -142t-150 -43.5q-71 0 -114 36t-43 69q0 36 21 57.5t42 21.5q60 0 87 -50t73 -50q41 0 77 49.5t50 120.5l204 1060h-182q-7 0 -7 12q0 27 18 54q8 13 16 13h170q73 373 183.5 497.5t295.5 124.5q87 0 138 -47.5t51 -118.5 q0 -96 -66 -96q-34 0 -54.5 22.5t-20.5 49.5q0 121 -105 121q-102 0 -170 -111.5t-130 -441.5h282q7 0 7 -12q0 -25 -19 -53q-9 -14 -17 -14h-269z" />
<glyph unicode="g" horiz-adv-x="766" d="M890 786q0 -59 -23 -59q-89 0 -194 29q28 -47 28 -125.5t-42.5 -166.5t-117 -158t-193.5 -107q-26 -8 -38 -14q-62 -32 -62 -80.5t123 -114.5l194.5 -108t155.5 -201.5t-156.5 -177t-340.5 -62.5q-147 0 -244 58t-97 149.5t100.5 166t241.5 119.5q-92 44 -92 92 q0 58 106 161q-163 42 -163 214.5t138 311.5t316 139q24 0 62 -18t57 -20q57 -6 103 -6t121 5q17 1 17 -27zM587 720q0 71 -79 71q-107 0 -211 -161t-104 -309q0 -73 79 -73q114 0 214.5 163.5t100.5 308.5zM585 -352q0 63 -121 150t-193 87t-158.5 -67.5t-86.5 -145 t97 -120t193.5 -42.5t182.5 37.5t86 100.5z" />
<glyph unicode="h" horiz-adv-x="879" d="M870 618q0 -182 -107 -413.5t-267 -231.5q-48 0 -81.5 29.5t-33.5 58.5q0 54 19 77.5t44 23.5q63 0 74 -51.5t44 -51.5t71 70.5t69 202t31 237.5q0 174 -76 174q-117 0 -313 -282q-50 -72 -92 -240l-55 -221q-7 -27 -62 -27q-59 0 -59 23v4l279 1201q16 69 16 103 q0 73 -77 73q-15 0 -15 26t15 26q76 0 151.5 27.5t79.5 27.5q17 0 13 -18l-212 -921l10 -10q188 317 371 317q163 0 163 -234z" />
<glyph unicode="i" horiz-adv-x="528" d="M293 203q-11 -39 -11 -61q0 -40 28.5 -40t131.5 93q9 8 27 -9q14 -13 14 -22q0 -3 -2 -6q-20 -35 -117.5 -110t-168.5 -75q-54 0 -54 87q0 38 11 77l137 488q5 18 5 36q0 50 -24.5 50t-117.5 -88q-9 -9 -28 11q-13 14 -13 23q0 3 2 6q37 59 125.5 124t146.5 65 q56 0 56 -86q0 -37 -11 -76zM540 1135q0 -57 -33.5 -91t-78.5 -34q-87 0 -87 90q0 52 35 88.5t79 36.5q85 0 85 -90z" />
<glyph unicode="j" horiz-adv-x="420" d="M285 139q-26 -112 -78 -282.5t-161.5 -290t-276.5 -119.5q-32 0 -53 25.5t-21 50.5q0 29 26.5 44t55.5 15q31 0 59 -24.5t51 -24.5q69 0 118.5 66t66.5 141l202 883q5 22 5 36q0 43 -31 43t-105 -92q-2 -3 -6 -3q-17 0 -30 23q-7 12 -3 19q152 203 254 203q61 0 61 -97 q0 -30 -7 -61zM540 1135q0 -57 -33.5 -91t-78.5 -34q-87 0 -87 90q0 52 35 88.5t79 36.5q85 0 85 -90z" />
<glyph unicode="k" horiz-adv-x="893" d="M810 709q0 -81 -97.5 -174t-227.5 -158q-8 -4 -8 -10q0 -8 8 -19l148 -207q60 -84 115 -84q42 0 94 49q3 3 8 3q31 0 31 -30q0 -3 -2 -7q-83 -99 -162 -99q-76 0 -116.5 24.5t-84.5 96.5l-137 221q-15 25 -64 25q-32 0 -41 -39l-71 -305q-5 -23 -65.5 -23t-55.5 23 l277 1201q16 69 16 98q0 82 -77 82q-15 0 -15 26t15 26q70 0 149 27.5t84 27.5q17 0 14 -13l-193 -832l13 -6q68 100 156.5 159.5t160.5 59.5q68 0 98 -45t30 -98zM677 672q0 80 -67 80q-111 0 -252 -177q-33 -42 -41 -75l-20 -88q-2 -8 -2 -14q0 -11 22 -11q123 0 241.5 96 t118.5 189z" />
<glyph unicode="l" horiz-adv-x="496" d="M258 209q-7 -31 -7 -47q0 -49 25 -49q52 0 134 94q2 3 6 3q17 0 31 -21q10 -12 4 -19q-175 -197 -277 -197q-60 0 -60 107q0 24 7 55l243 1062q15 66 15 98q0 82 -77 82q-15 0 -15 26t15 26q73 0 149.5 27.5t82.5 27.5q16 0 12 -14z" />
<glyph unicode="m" horiz-adv-x="1507" d="M1276 203q-10 -35 -10 -56q0 -45 32 -45t123 93q8 8 21.5 -0.5t18.5 -21.5q3 -7 3 -11t-2 -6q-159 -183 -284 -183q-54 0 -54 88q0 37 11 76l125 445q32 114 32 147q0 43 -32 43q-51 0 -119.5 -71t-185 -246.5t-230.5 -452.5q-12 -29 -71 -29t-50 33l150 526 q41 144 41 193q0 47 -41 47q-45 0 -137 -95.5t-198 -279.5t-186 -395q-11 -29 -66 -29t-55 25q0 3 1 8l176 619q6 21 6 39q0 47 -28.5 47t-110.5 -86q-3 -3 -8 -3q-18 0 -31 22q-4 7 -4 12q0 4 2 6q154 190 268 190q59 0 59 -90q0 -38 -10 -72l-90 -307l8 -4 q88 199 217.5 336t237.5 137q110 0 110 -129q0 -57 -20 -127l-61 -213l12 -4q246 473 454 473q107 0 107 -125q0 -65 -27 -160z" />
<glyph unicode="n" horiz-adv-x="1008" d="M774 203q-10 -34 -10 -62q0 -39 34 -39t124 93q3 3 7 3q16 0 31 -22q5 -8 5 -14q0 -4 -2 -6q-161 -183 -285 -183q-56 0 -56 84q0 39 11 80l125 445q30 106 30 145q0 45 -30 45q-86 0 -244.5 -231t-280.5 -539q-11 -29 -66 -29t-55 26q0 3 1 7l176 619q6 21 6 39 q0 47 -32 47t-107 -86q-3 -3 -7 -3q-16 0 -31 21q-5 7 -5 13q0 4 2 6q154 190 268 190q57 0 57 -90q0 -42 -29 -138l-69 -241l8 -4q246 473 449 473q106 0 106 -125q0 -61 -28 -160z" />
<glyph unicode="o" horiz-adv-x="838" d="M819 537q0 -213 -137 -388.5t-344 -175.5q-123 0 -182.5 91.5t-59.5 240.5q0 195 151 371t331 176q120 0 180.5 -85t60.5 -230zM707 588q0 180 -129 180q-117 0 -241 -190.5t-124 -346.5q0 -163 133 -163q109 0 235 186.5t126 333.5z" />
<glyph unicode="p" horiz-adv-x="877" d="M864 510q0 -203 -167 -370t-365 -167q-36 0 -84 13l-94 -406q-4 -17 -4 -28q0 -56 124 -56q9 0 9 -13q0 -42 -27 -42q-90 8 -193.5 8t-193.5 -8q-9 0 -9 13q0 42 27 42q126 0 144 76l266 1133q-88 -45 -147 -99q-3 -3 -9 -3q-19 0 -36 21q-7 9 -7 16q0 5 4 9 q105 96 215 146l43 209q5 25 47 51t72 26q24 0 21 -13l-56 -239q38 13 119 13q132 0 216.5 -90t84.5 -242zM725 477q0 118 -60 198.5t-149 80.5q-47 0 -92 -13l-148 -626q-2 -14 -2 -19q0 -59 76 -59q146 0 260.5 135t114.5 303z" />
<glyph unicode="q" horiz-adv-x="952" d="M678 -387q-2 -9 -2 -19q0 -48 69 -48q19 0 41 3q11 2 11 -17q0 -42 -18 -42q-145 0 -390 -49q-11 0 -11 16q0 41 23 43q133 10 156 109l176 774l-10 -2q-80 -138 -228 -273t-268 -135q-61 0 -97 44t-36 116q0 225 183 472t430 247q91 0 122 -123l89 166q4 8 19 8 q45 0 39 -25l-85 -346zM756 643q0 145 -82 145q-138 0 -285 -246t-147 -401q0 -78 49 -78q46 0 163 95.5t201 216.5q101 148 101 268z" />
<glyph unicode="r" horiz-adv-x="754" d="M832 772q0 -36 -28 -62t-58 -26q-36 0 -53 14.5t-47 14.5q-60 0 -204.5 -237t-205.5 -472q-8 -31 -65.5 -31t-57.5 25q0 2 1 6l165 623q7 26 7 35q0 43 -24 43t-115 -91q-3 -3 -8 -3q-16 0 -28 20q-4 7 -4 13q0 5 2 7q123 134 176 167.5t96 33.5q54 0 54 -82 q0 -16 -34 -143l-45 -168l10 -2q209 395 373 395q93 0 93 -80z" />
<glyph unicode="s" horiz-adv-x="524" d="M543 731q0 -23 -19 -41t-37 -18q-52 0 -71.5 58t-81.5 58q-35 0 -57.5 -38t-22.5 -72q0 -70 97.5 -211t97.5 -231q0 -112 -87.5 -187.5t-203.5 -75.5q-54 0 -94.5 35.5t-40.5 73.5q0 80 55 80q66 0 92.5 -53.5t85.5 -53.5q82 0 82 121q0 64 -90 190t-90 226 q0 105 65 182.5t189 77.5q52 0 91.5 -40t39.5 -81z" />
<glyph unicode="t" horiz-adv-x="604" d="M276 225q-12 -42 -12 -71q0 -52 35 -52q63 0 223 199q2 3 6 3q16 0 28 -22q7 -13 1 -22q-116 -162 -192.5 -224.5t-156.5 -62.5q-40 0 -63 30.5t-23 72.5q0 44 8 72l168 582h-156q-12 0 -12 19q0 36 22 40l167 29l103 203q6 12 30 12q40 0 40 -19q0 -2 -1 -6l-49 -200 h224q8 0 8 -20.5t-11 -39t-18 -18.5h-224z" />
<glyph unicode="u" horiz-adv-x="991" d="M768 203q-12 -42 -12 -62q0 -39 34 -39t125 93q3 3 8 3q13 0 24 -12q12 -14 12 -22q0 -5 -3 -8q-164 -183 -284 -183q-58 0 -58 90q0 35 11 74l82 287q-244 -308 -334.5 -379.5t-146.5 -71.5q-84 0 -84 99q0 38 20 108l127 445q6 21 6 41q0 45 -28.5 45t-52.5 -27 q-26 -29 -56 -59q-3 -3 -8 -3q-18 0 -31 22q-4 7 -4 12q0 4 2 6q154 190 268 190q55 0 55 -82q0 -47 -25 -134l-87 -302q-41 -142 -41 -187t28 -45q44 0 159 122t228 317q58 100 121 288q8 23 60 23q70 0 62 -26z" />
<glyph unicode="v" horiz-adv-x="823" d="M831 705q0 -125 -79 -304t-220 -303.5t-274 -124.5q-58 0 -85 38.5t-27 73.5t6 56l137 484q6 21 6 37q0 49 -31.5 49t-107.5 -86q-3 -3 -12 -3t-20 13t-11 21q0 4 2 6q155 190 270 190q55 0 55 -84q0 -42 -11 -79l-136 -482q-10 -35 -10 -60q0 -71 81.5 -71t209.5 162.5 t128 345.5q0 119 -36 194q0 74 69 74q50 0 73 -49t23 -98z" />
<glyph unicode="w" horiz-adv-x="1239" d="M1247 705q0 -117 -78.5 -300.5t-220.5 -307.5t-274 -124q-112 0 -112 124q0 10 2 28q-164 -152 -306 -152q-57 0 -84.5 38t-27.5 79q0 30 6 51l137 484q6 21 6 37q0 49 -30.5 49t-108.5 -86q-3 -3 -9.5 -3t-20 14t-13.5 20q0 4 2 6q154 190 270 190q55 0 55 -84 q0 -45 -28 -143l-119 -418q-10 -35 -10 -60q0 -71 81 -71q48 0 102 46t96 100.5t68 146.5l126 448q10 35 66 35t56 -26q0 -5 -1 -9l-168 -610q-10 -36 -10 -60q0 -71 81.5 -71t209.5 162.5t128 345.5q0 119 -37 194q0 74 70 74q47 0 71.5 -45t24.5 -102z" />
<glyph unicode="x" horiz-adv-x="963" d="M973 754q0 -109 -68 -109q-31 0 -50 39t-36 39q-44 0 -102 -78l-156 -209l94 -200q56 -119 86 -119q41 0 88 125q3 8 15 8t22 -4.5t9 -12.5q-40 -260 -158 -260q-63 0 -135 144l-99 198l-137 -180q-123 -162 -211 -162q-40 0 -62 23.5t-22 48.5q0 55 23.5 97t53.5 42 q29 0 52.5 -37.5t32.5 -37.5q27 0 78 65l162 207l-146 299q-13 27 -31 27q-19 0 -41.5 -33t-41.5 -74q-2 -4 -14.5 -4t-23.5 13.5t-8 19.5q94 223 172 223q55 0 103 -107l110 -245l127 170q136 182 222 182q38 0 65 -29t27 -69z" />
<glyph unicode="y" horiz-adv-x="793" d="M793 788q0 -74 -44 -254.5t-155.5 -401.5t-161 -303.5t-177 -233t-253.5 -150.5q-52 0 -83.5 30.5t-31.5 65.5q0 40 17 64t58 24q40 0 60.5 -34.5t59.5 -34.5q65 0 139 92.5t105.5 204.5t31.5 278q0 228 -34 405t-84 177q-46 0 -111 -131q-4 -7 -18.5 -5.5t-23.5 8.5 t-5 15q104 248 221 248q85 0 129.5 -183t44.5 -442q0 -87 -8 -188h10q74 130 131.5 322.5t57.5 277.5q0 69 -19 145q0 68 72 68t72 -64z" />
<glyph unicode="z" horiz-adv-x="891" d="M283 162l2 -8l43 -3q61 -4 189.5 -57t166.5 -53q84 0 84 88q0 22 -27.5 46.5t-27.5 55.5q0 64 69 64q40 0 63 -33.5t23 -71.5q0 -106 -79 -177.5t-160 -71.5q-44 0 -107 22.5t-149 62.5t-125 40q-62 0 -142 -89q-4 -6 -14 -6q-24 0 -50 33q-9 13 -9 19q0 5 3 8l564 628 q9 10 9 18q0 16 -40 28q-132 40 -241 40q-90 0 -90 -57q0 -13 19 -38t19 -54q0 -64 -61 -64q-78 0 -78 80q0 68 78.5 149t204.5 81q62 0 152 -28t135 -28q52 0 75 25l41 45q5 5 14 5q22 0 35 -21q5 -8 5 -15q0 -5 -3 -8z" />
<glyph unicode="{" horiz-adv-x="573" d="M312 -291q6 -1 5 -18t-16 -19q-227 0 -227 164q0 96 93 307t93 295q0 85 -139 94q-7 1 -7 8q0 37 17 38q105 10 152.5 42t67 87.5t65.5 291t116 321.5q95 116 280 116q10 0 10 -17.5t-15 -19.5q-186 -27 -231 -203q-23 -88 -54 -274t-85.5 -261t-161.5 -102l-2 -8 q104 -26 104 -143q0 -63 -95 -275t-95 -283q0 -115 125 -141z" />
<glyph unicode="|" horiz-adv-x="537" d="M315 -313h-82v1747h82v-1747z" />
<glyph unicode="}" horiz-adv-x="598" d="M550 530q-106 -10 -155 -43.5t-66.5 -90.5t-63.5 -288t-116 -320q-93 -117 -280 -116q-10 0 -10 18q0 17 15 19q190 30 231 203q29 125 57 294t84 243t160 100l2 8q-104 26 -104 143q0 63 95 275t95 283q0 115 -125 141q-6 1 -6 19t17 18q227 0 227 -164q0 -96 -93 -307 t-93 -301q0 -79 139 -88q7 -1 7 -8q0 -37 -17 -38z" />
<glyph unicode="~" horiz-adv-x="676" d="M653 513q0 -43 -83.5 -103t-128.5 -60t-133 33.5t-142.5 33.5t-116.5 -65q-3 -3 -7 -3t-11.5 5t-7.5 11t1 7q100 151 178 151t165.5 -32t136 -32t120.5 72q2 2 5 2q24 0 24 -20z" />
<glyph unicode="&#xa2;" horiz-adv-x="866" d="M844 311q-130 -91 -320 -91h-18l-62 -212q-4 -14 -24 -14t-37 9.5t-14 19.5l61 208q-122 32 -195.5 135.5t-73.5 223.5q0 121 63.5 230.5t190.5 179t263 73.5l53 180q3 10 21.5 10t38 -7.5t16.5 -18.5l-50 -169q163 -24 183 -84q5 -15 5 -30q0 -27 -21 -52.5t-39 -25.5 q-14 0 -41 32.5t-47 53t-61 37.5l-202 -685q28 -7 76 -7q67 0 208 57q9 4 19.5 -12.5t10.5 -27t-4 -13.5zM463 342l197 669q-139 -6 -241 -126t-102 -262q0 -195 146 -281z" />
<glyph unicode="&#xa3;" horiz-adv-x="1081" d="M1103 1154q0 -34 -13.5 -62.5t-52.5 -28.5q-73 0 -75 82q-2 110 -113 110q-55 0 -116.5 -59.5t-109.5 -546.5h292q11 0 11 -17t-7 -32.5t-16 -15.5h-291q-53 -304 -276 -422v-4q90 0 226.5 -61.5t201.5 -61.5q51 0 69.5 23.5t18.5 117.5q0 74 47 74q35 0 55.5 -28 t20.5 -64q0 -98 -106.5 -154.5t-206.5 -56.5q-116 0 -227 57t-200 92q-41 -6 -71 -65.5t-101 -59.5t-71 49q0 54 74.5 92t160.5 51t145 117t76 304h-231q-8 0 -8 18.5t6 32.5t20 14h222q19 180 61 327.5t152 247t237 99.5q98 0 147 -47.5t49 -121.5z" />
<glyph unicode="&#xa4;" horiz-adv-x="1024" d="M946 668q0 -147 -88 -262l78 -79q2 -2 2 -5q0 -14 -32 -48t-47 -34q-4 0 -7 3l-78 79q-115 -88 -260 -88t-263 89l-79 -80q-3 -3 -7 -3q-14 0 -46.5 33.5t-32.5 47.5q0 4 2 6l79 80q-87 115 -87 260t87 261l-79 80q-2 2 -2 5q0 12 33 46.5t47 34.5q4 0 6 -2l79 -79 q115 88 261.5 88t261.5 -88l78 79q3 3 7 3q15 0 47 -33.5t32 -47.5q0 -4 -2 -6l-78 -78q88 -115 88 -262zM860 668q0 144 -101 245t-245.5 101t-245.5 -101t-101 -244.5t102 -245.5t245 -102t244.5 101.5t101.5 245.5z" />
<glyph unicode="&#xa5;" horiz-adv-x="1317" d="M688 199q-9 -31 -9 -53q0 -50 54 -65q24 -7 96 -7q8 0 8 -18.5t-10.5 -41t-19.5 -22.5q-66 8 -244 8t-266 -8q-8 0 -8 18.5t10.5 41t19.5 22.5q102 0 148 22t68 103l78 273h-330q-15 0 -15 50t15 50h356q13 64 -18 165h-277q-15 0 -15 51t15 51h246l-131 418 q-22 69 -60 96t-108 27q-8 0 -8 18.5t10.5 41t19.5 22.5q102 -6 218 -6t247 6q8 0 8 -18.5t-10 -41t-20 -22.5q-74 0 -103 -9q-50 -17 -50 -66q0 -21 9 -48l162 -518q6 -20 17 -20t26 16l477 512q54 59 54 90q0 43 -107 43q-8 0 -8 17.5t10.5 41t20.5 23.5q86 -6 214.5 -6 t207.5 6q8 0 8 -17.5t-10 -41t-21 -23.5q-114 0 -185 -50q-39 -27 -196 -195l-278 -296h231q15 0 15 -51t-15 -51h-325l-36 -37q-51 -52 -78 -128h378q15 0 15 -50t-15 -50h-408z" />
<glyph unicode="&#xa6;" horiz-adv-x="555" d="M432 1399v-582h-120v582h120zM432 590v-623h-120v623h120z" />
<glyph unicode="&#xa7;" horiz-adv-x="989" d="M862 384q0 -118 -61 -212q-90 -139 -281.5 -292.5t-327.5 -153.5q-73 0 -125.5 44.5t-52.5 114.5q0 39 35 39q10 0 87 -47t150 -47q74 0 126.5 47t52.5 127q0 132 -107.5 384t-107.5 388q0 137 112.5 288t275 264.5t257.5 113.5q58 0 101.5 -39.5t43.5 -95.5 q0 -80 -55 -80q-2 0 -48 59.5t-120 59.5t-126 -48.5t-52 -128.5q0 -137 111.5 -402t111.5 -383zM731 332q0 114 -100.5 365.5t-100.5 293.5q0 144 19 183l-8 4q-168 -158 -168 -312t101 -395t101 -328t-6 -133l4 -4q158 143 158 326z" />
<glyph unicode="&#xa9;" horiz-adv-x="1565" d="M1516 748q0 -299 -211 -510t-510 -211t-510 211t-211 510t211 509.5t510 210.5t510 -210.5t211 -509.5zM1255.5 286.5q189.5 189.5 189.5 460t-190.5 461t-459 190.5t-460 -191.5t-191.5 -459.5t191 -459t461 -191t459.5 189.5zM1042 560q1 6 17.5 6t18.5 -12 q-8 -82 -48 -144q-28 -6 -41 -10q-78 -24 -196 -24q-155 0 -259 105t-104 256q0 173 108 284.5t267 111.5q75 0 150 -15.5t86 -15.5q16 -35 16 -166q0 -8 -18 -8.5t-19 6.5q-17 161 -218 161q-115 0 -191.5 -102.5t-76.5 -223.5q2 -176 87.5 -264.5t178.5 -88.5 q196 0 242 144z" />
<glyph unicode="&#xad;" horiz-adv-x="827" d="M778 602q6 0 6 -18.5t-14.5 -57.5t-26.5 -39h-571q-6 0 -6 19t14 57.5t25 38.5h573z" />
<glyph unicode="&#xae;" horiz-adv-x="1565" d="M1516 748q0 -299 -211 -510t-510 -211t-510 211t-211 510t211 509.5t510 210.5t510 -210.5t211 -509.5zM1445 746.5q0 270.5 -190.5 461t-459 190.5t-460 -191.5t-191.5 -459.5t191 -459t461 -191t459.5 189.5t189.5 460zM1083 918q0 -144 -157 -187q-9 -2 -9 -9.5 t9 -21.5q75 -134 192 -245q60 -57 100 -57q8 0 8 -8.5t-8 -10.5q-112 -7 -173 32.5t-119 121.5l-80 118q-37 46 -45.5 52.5t-39.5 6.5t-50 1.5t-20 -11.5v-211q0 -62 104 -62q8 0 8 -20.5t-8 -20.5q-45 4 -145 4t-149 -4q-8 0 -8 20.5t8 20.5q96 0 96 62v530q0 58 -101 58 q-8 0 -8 20.5t8 20.5q70 -4 144 -4t165 3q128 0 203 -52.5t75 -146.5zM975 918q0 70 -56.5 118t-142 48t-85.5 -16v-300q0 -26 78 -26q206 0 206 176z" />
<glyph unicode="&#xb0;" horiz-adv-x="629" d="M489 1311q115 0 195 -73.5t80 -192.5t-78.5 -191t-196 -72t-196 72t-78.5 191t79.5 192.5t194.5 73.5zM649 1047q0 87 -46 139.5t-114.5 52.5t-113.5 -52.5t-45 -139.5t45 -140t114 -53t114.5 53t45.5 140z" />
<glyph unicode="&#xb1;" horiz-adv-x="1024" d="M907 596h-334v-371h-120v371h-334v100h334v336h120v-336h334v-100zM907 2h-788v100h788v-100z" />
<glyph unicode="&#xb4;" horiz-adv-x="918" d="M673 1258l-274 -303q-24 -26 -49 -26t-25 19t13 37l248 339q6 9 26 9t42 -27t22 -36t-3 -12z" />
<glyph unicode="&#xb6;" horiz-adv-x="997" d="M555 -283q-4 -16 -50.5 -16t-42.5 14l436 1609q3 11 3 24q0 50 -59 50q-88 0 -108 -74l-436 -1609q-4 -14 -50 -14t-42 14l263 962q-208 0 -295.5 80.5t-87.5 212.5q0 205 179 345.5t389 140.5q237 -4 323 -4t166 4q10 0 10 -13.5t-5 -29.5t-20 -15q-119 0 -139 -74z" />
<glyph unicode="&#xb7;" horiz-adv-x="520" d="M438 515q0 -52 -35 -84t-83 -32t-86.5 32t-38.5 84.5t33.5 87t88.5 34.5t88 -35t33 -87z" />
<glyph unicode="&#xc1;" horiz-adv-x="1108" d="M909 186q-1 -7 -1 -21q0 -96 144 -96q8 0 8 -21t-11.5 -38t-16.5 -17q-88 7 -213 7t-212 -7q-8 0 -7.5 20.5t11.5 38t18 17.5q81 0 109 30.5t35 86.5l37 310q4 35 -28 35h-310q-31 0 -48 -25l-210 -324q-23 -35 -23 -58q0 -55 132 -55q7 0 7 -21t-11 -38t-17 -17 q-86 7 -213 7t-213 -7q-8 0 -8 20t11 38t17 18q76 0 126 22t110 110l674 998q16 23 16 38q0 7 -8 18t-8 18q0 10 25 20q98 39 145.5 65.5t63.5 26.5q15 0 15 -18q0 -7 -8.5 -45t-20.5 -143zM824 629l62 530q1 9 -12 9q-12 0 -18 -9l-353 -530q-8 -10 -8 -19.5t19 -9.5h275 q32 0 35 29zM1207 1783l-274 -303q-24 -26 -49 -26t-25 19t13 37l248 339q6 9 26 9t42 -27t22 -36t-3 -12z" />
<glyph unicode="&#xc9;" horiz-adv-x="1255" d="M1081 19q-8 -26 -28 -26l-293 3q-391 4 -494.5 4t-236.5 -7q-8 0 -8 18t11 38t17 20q95 0 135 18q56 24 78 99l283 986q4 14 4 33q0 77 -157 77q-8 0 -8 19.5t11 38t17 18.5q133 -4 241 -4l690 4q62 0 62 -22q0 -5 -3 -16l-88 -310q-4 -14 -43.5 -14t-36.5 14 q11 56 11 78q0 95 -64 142t-127 50q-213 9 -303 9q-29 0 -35 -22l-160 -554q-2 -9 -2 -15q0 -22 29 -22h192q69 0 91 12q35 18 51 76l27 100q4 15 40 15t33 -15q-88 -251 -123 -428q-4 -15 -37.5 -15t-29.5 16l25 90q7 25 7 39q0 41 -103 41h-198q-33 0 -40 -26l-81 -281 q-27 -94 -27 -140q0 -99 114 -99l240 8q233 8 328 275q5 14 46 14t37 -14zM1283 1783l-274 -303q-24 -26 -49 -26t-25 19t13 37l248 339q6 9 26 9t42 -27t22 -36t-3 -12z" />
<glyph unicode="&#xcd;" horiz-adv-x="729" d="M407 186q-6 -20 -6 -34q0 -83 157 -83q7 0 7 -21.5t-11 -38t-18 -16.5q-86 7 -253.5 7t-253.5 -7q-8 0 -8 20t11 38t17 18q88 0 140 21.5t73 95.5l283 986q5 22 5 35q0 80 -156 80q-8 0 -8 21t11 38t17 17q46 -5 255 -5t255 5q8 0 8 -21t-11 -38t-17 -17 q-114 0 -156 -27.5t-59 -87.5zM1002 1783l-274 -303q-24 -26 -49 -26t-25 19t13 37l248 339q6 9 26 9t42 -27t22 -36t-3 -12z" />
<glyph unicode="&#xd3;" horiz-adv-x="1478" d="M1534 886q0 -350 -275 -631.5t-587 -281.5q-177 0 -316 112t-139 356q0 361 276.5 652.5t585.5 291.5q219 0 337 -144.5t118 -354.5zM1371 906q0 173 -96.5 290t-243.5 118q-157 0 -314.5 -133t-247 -328.5t-89.5 -396.5q0 -179 100.5 -294.5t226.5 -115.5 q211 0 361.5 148t226.5 344t76 368zM1377 1783l-274 -303q-24 -26 -49 -26t-25 19t13 37l248 339q6 9 26 9t42 -27t22 -36t-3 -12z" />
<glyph unicode="&#xda;" horiz-adv-x="1482" d="M1456 890q-110 -387 -183 -544t-226 -265t-382 -108q-183 0 -276.5 69.5t-93.5 220.5q0 102 49 276l181 633q8 29 8 46q0 44 -35.5 56.5t-105.5 12.5q-9 0 -9 22.5t10.5 38t16.5 15.5q48 -5 245 -5t243 5q7 0 7 -21.5t-11 -38t-17 -16.5q-127 0 -159 -31t-47 -84 l-140 -485q-89 -316 -89 -419t70.5 -161t197.5 -58q199 0 328.5 104t195.5 334l197 685q6 22 6 41q0 74 -138 74q-7 0 -7 21t11 38t17 17q70 -5 228.5 -5t204.5 5q8 0 8 -21t-11 -37q-11 -18 -17 -18q-88 0 -132.5 -22t-64.5 -93zM1400 1783l-274 -303q-24 -26 -49 -26 t-25 19t13 37l248 339q6 9 26 9t42 -27t22 -36t-3 -12z" />
<glyph unicode="&#xe1;" horiz-adv-x="918" d="M690 203q-10 -35 -10 -59q0 -41 32 -41q34 0 130 94q9 9 28 -11q14 -13 14 -22q0 -5 -3 -8q-66 -81 -145.5 -132t-139.5 -51q-61 0 -61 79q0 56 24 120l43 115l-12 4q-238 -318 -404 -318q-60 0 -91.5 48t-31.5 120q0 211 173.5 457t367.5 246q72 0 133 -56l24 70 q8 24 67 24q52 0 52 -19q0 -2 -1 -5zM664 543l45 151q-43 84 -131 84q-136 0 -251.5 -220t-115.5 -382q0 -94 59 -94q55 0 155 100.5t156.5 186.5t82.5 174zM873 1258l-274 -303q-24 -26 -49 -26t-25 19t13 37l248 339q6 9 26 9t42 -27t22 -36t-3 -12z" />
<glyph unicode="&#xe6;" horiz-adv-x="1004" d="M1030 737q0 -137 -164.5 -245t-316.5 -136q-14 -73 -14 -118q0 -166 110 -166q37 0 73.5 16t149.5 109q4 3 8 3q26 0 26 -28q0 -5 -3 -8q-149 -191 -293 -191q-132 0 -178 103q-130 -103 -274 -103q-58 0 -90.5 47.5t-32.5 120.5q0 255 296.5 483t567.5 228 q135 0 135 -115zM887 711q0 61 -53 61q-73 0 -148.5 -105t-118.5 -247q119 25 219.5 102.5t100.5 188.5zM403 215q0 116 71.5 262t178.5 250l-6 6q-190 -84 -329.5 -249.5t-139.5 -307.5q0 -94 60 -94q81 0 170 65q-5 62 -5 68z" />
<glyph unicode="&#xe9;" horiz-adv-x="696" d="M723 737q0 -135 -163.5 -244t-317.5 -137q-15 -75 -15 -118q0 -166 111 -166q40 0 84 21t141 104q7 6 18.5 0.5t13 -17t-2.5 -16.5q-156 -191 -293 -191q-203 0 -203 242q0 191 160 414t336 223q131 0 131 -115zM580 711q0 61 -54 61q-74 0 -146.5 -102.5t-119.5 -249.5 q123 26 221.5 104t98.5 187zM853 1258l-274 -303q-24 -26 -49 -26t-25 19t13 37l248 339q6 9 26 9t42 -27t22 -36t-3 -12z" />
<glyph unicode="&#xed;" horiz-adv-x="528" d="M293 203q-11 -39 -11 -61q0 -40 28.5 -40t131.5 93q9 8 27 -9q14 -13 14 -22q0 -3 -2 -6q-20 -35 -117.5 -110t-168.5 -75q-54 0 -54 87q0 38 11 77l137 488q5 18 5 36q0 50 -24.5 50t-117.5 -88q-9 -9 -28 11q-13 14 -13 23q0 3 2 6q37 59 125.5 124t146.5 65 q56 0 56 -86q0 -37 -11 -76zM656 1258l-274 -303q-24 -26 -49 -26t-25 19t13 37l248 339q6 9 26 9t42 -27t22 -36t-3 -12z" />
<glyph unicode="&#xf3;" horiz-adv-x="838" d="M819 537q0 -213 -137 -388.5t-344 -175.5q-123 0 -182.5 91.5t-59.5 240.5q0 195 151 371t331 176q120 0 180.5 -85t60.5 -230zM707 588q0 180 -129 180q-117 0 -241 -190.5t-124 -346.5q0 -163 133 -163q109 0 235 186.5t126 333.5zM873 1258l-274 -303q-24 -26 -49 -26 t-25 19t13 37l248 339q6 9 26 9t42 -27t22 -36t-3 -12z" />
<glyph unicode="&#xfa;" horiz-adv-x="991" d="M768 203q-12 -42 -12 -62q0 -39 34 -39t125 93q3 3 8 3q13 0 24 -12q12 -14 12 -22q0 -5 -3 -8q-164 -183 -284 -183q-58 0 -58 90q0 35 11 74l82 287q-244 -308 -334.5 -379.5t-146.5 -71.5q-84 0 -84 99q0 38 20 108l127 445q6 21 6 41q0 45 -28.5 45t-52.5 -27 q-26 -29 -56 -59q-3 -3 -8 -3q-18 0 -31 22q-4 7 -4 12q0 4 2 6q154 190 268 190q55 0 55 -82q0 -47 -25 -134l-87 -302q-41 -142 -41 -187t28 -45q44 0 159 122t228 317q58 100 121 288q8 23 60 23q70 0 62 -26zM903 1258l-274 -303q-24 -26 -49 -26t-25 19t13 37l248 339 q6 9 26 9t42 -27t22 -36t-3 -12z" />
<glyph unicode="&#x104;" horiz-adv-x="1108" d="M909 186q-1 -7 -1 -21q0 -96 144 -96q8 0 8 -21t-11.5 -38t-16.5 -17q-88 7 -213 7t-212 -7q-8 0 -7.5 20.5t11.5 38t18 17.5q81 0 109 30.5t35 86.5l37 310q4 35 -28 35h-310q-31 0 -48 -25l-210 -324q-23 -35 -23 -58q0 -55 132 -55q7 0 7 -21t-11 -38t-17 -17 q-86 7 -213 7t-213 -7q-8 0 -8 20t11 38t17 18q76 0 126 22t110 110l674 998q16 23 16 38q0 7 -8 18t-8 18q0 10 25 20q98 39 145.5 65.5t63.5 26.5q15 0 15 -18q0 -7 -8.5 -45t-20.5 -143zM824 629l62 530q1 9 -12 9q-12 0 -18 -9l-353 -530q-8 -10 -8 -19.5t19 -9.5h275 q32 0 35 29zM922 -343q-64 -78 -180 -78q-156 0 -156 154q0 128 229 270h74q-186 -123 -186 -236q0 -114 110 -114q40 0 97 26q13 -3 13 -15q0 -5 -1 -7z" />
<glyph unicode="&#x105;" horiz-adv-x="918" d="M682 -346q-64 -78 -180 -78q-156 0 -156 154q0 128 229 270h74q-186 -123 -186 -236q0 -114 110 -114q40 0 97 26q13 -3 13 -15q0 -5 -1 -7zM690 203q-10 -35 -10 -59q0 -41 32 -41q34 0 130 94q9 9 28 -11q14 -13 14 -22q0 -5 -3 -8q-66 -81 -145.5 -132t-139.5 -51 q-61 0 -61 79q0 56 24 120l43 115l-12 4q-238 -318 -404 -318q-60 0 -91.5 48t-31.5 120q0 211 173.5 457t367.5 246q72 0 133 -56l24 70q8 24 67 24q52 0 52 -19q0 -2 -1 -5zM664 543l45 151q-43 84 -131 84q-136 0 -251.5 -220t-115.5 -382q0 -94 59 -94q55 0 155 100.5 t156.5 186.5t82.5 174z" />
<glyph unicode="&#x10c;" horiz-adv-x="1470" d="M1183 36q-34 -5 -82 -17q-174 -46 -389 -46t-356 130t-141 355q0 355 290.5 641t643.5 286q147 0 238.5 -21.5t185.5 -36.5q-15 -158 -59 -308q-8 -17 -39.5 -17t-30.5 12q8 60 8 78q0 222 -318 222t-537 -273t-219 -582q0 -176 102 -293.5t275 -117.5q175 0 293 55 t166 115.5t71 98.5q7 10 36 10t29 -19q0 -20 -71 -132t-96 -140zM1513 1867l-260 -354q-26 -35 -49 -35q-22 0 -37 41l-125 352q6 23 29 23q5 0 12 -1l123 -215q17 -30 27 -30q7 0 33 26l211 224l16 -1q12 -3 17 -17q2 -6 3 -13z" />
<glyph unicode="&#x10d;" horiz-adv-x="674" d="M584 113q-140 -140 -283 -140q-92 0 -147.5 79.5t-55.5 203.5q0 203 143.5 399.5t315.5 196.5q62 0 113 -29.5t51 -68.5q0 -32 -25 -54.5t-51 -22.5q-27 0 -37 19q-9 57 -15 66q-20 26 -89 26q-90 0 -180 -161.5t-91 -302.5q0 -121 37.5 -191t98.5 -70q62 0 100.5 21.5 t81.5 60.5q5 4 18 0.5t16.5 -15t-1.5 -17.5zM885 1342l-260 -354q-26 -35 -49 -35q-22 0 -37 41l-125 352q6 23 29 23q5 0 12 -1l123 -215q17 -30 27 -30q7 0 33 26l211 224l16 -1q12 -3 17 -17q2 -6 3 -13z" />
<glyph unicode="&#x12e;" horiz-adv-x="729" d="M407 186q-6 -20 -6 -34q0 -83 157 -83q7 0 7 -21.5t-11 -38t-18 -16.5q-86 7 -253.5 7t-253.5 -7q-8 0 -8 20t11 38t17 18q88 0 140 21.5t73 95.5l283 986q5 22 5 35q0 80 -156 80q-8 0 -8 21t11 38t17 17q46 -5 255 -5t255 5q8 0 8 -21t-11 -38t-17 -17 q-114 0 -156 -27.5t-59 -87.5zM325 -342q-64 -78 -180 -78q-156 0 -156 154q0 128 229 270h74q-186 -123 -186 -236q0 -114 110 -114q40 0 97 26q13 -3 13 -15q0 -5 -1 -7z" />
<glyph unicode="&#x12f;" horiz-adv-x="528" d="M295 -346q-64 -78 -180 -78q-156 0 -156 154q0 128 229 270h74q-186 -123 -186 -236q0 -114 110 -114q40 0 97 26q13 -3 13 -15q0 -5 -1 -7zM293 203q-11 -39 -11 -61q0 -40 28.5 -40t131.5 93q9 8 27 -9q14 -13 14 -22q0 -3 -2 -6q-20 -35 -117.5 -110t-168.5 -75 q-54 0 -54 87q0 38 11 77l137 488q5 18 5 36q0 50 -24.5 50t-117.5 -88q-9 -9 -28 11q-13 14 -13 23q0 3 2 6q37 59 125.5 124t146.5 65q56 0 56 -86q0 -37 -11 -76zM540 1135q0 -57 -33.5 -91t-78.5 -34q-87 0 -87 90q0 52 35 88.5t79 36.5q85 0 85 -90z" />
<glyph unicode="&#x131;" horiz-adv-x="528" d="M293 203q-11 -39 -11 -61q0 -40 28.5 -40t131.5 93q9 8 27 -9q14 -13 14 -22q0 -3 -2 -6q-20 -35 -117.5 -110t-168.5 -75q-54 0 -54 87q0 38 11 77l137 488q5 18 5 36q0 50 -24.5 50t-117.5 -88q-9 -9 -28 11q-13 14 -13 23q0 3 2 6q37 59 125.5 124t146.5 65 q56 0 56 -86q0 -37 -11 -76z" />
<glyph unicode="&#x147;" horiz-adv-x="1539" d="M1232 4q-9 -33 -25.5 -33t-31.5 29l-539 1117q-9 20 -25.5 20t-23.5 -31l-262 -920q-8 -27 -8 -45q0 -72 133 -72q8 0 8 -21t-11 -38t-17 -17q-86 7 -200.5 7t-200.5 -7q-8 0 -8 20t11 38t17 18q90 0 138 21t69 96l264 928q14 50 14 98t-48 65q-30 10 -96 10q-8 0 -8 21 t11 38t17 17q48 -5 130.5 -5t111 -4.5t46.5 -41.5l490 -1024q14 -28 30 -28t23 30l257 882q7 24 7 44q0 71 -149 71q-7 0 -7 20t12 38t18 18q47 -5 193 -5t193 5q7 0 7 -21t-10 -37q-12 -18 -18 -18q-78 0 -117 -19.5t-61 -95.5zM1395 1867l-260 -354q-26 -35 -49 -35 q-22 0 -37 41l-125 352q6 23 29 23q5 0 12 -1l123 -215q17 -30 27 -30q7 0 33 26l211 224l16 -1q12 -3 17 -17q2 -6 3 -13z" />
<glyph unicode="&#x148;" horiz-adv-x="1008" d="M774 203q-10 -34 -10 -62q0 -39 34 -39t124 93q3 3 7 3q16 0 31 -22q5 -8 5 -14q0 -4 -2 -6q-161 -183 -285 -183q-56 0 -56 84q0 39 11 80l125 445q30 106 30 145q0 45 -30 45q-86 0 -244.5 -231t-280.5 -539q-11 -29 -66 -29t-55 26q0 3 1 7l176 619q6 21 6 39 q0 47 -32 47t-107 -86q-3 -3 -7 -3q-16 0 -31 21q-5 7 -5 13q0 4 2 6q154 190 268 190q57 0 57 -90q0 -42 -29 -138l-69 -241l8 -4q246 473 449 473q106 0 106 -125q0 -61 -28 -160zM965 1342l-260 -354q-26 -35 -49 -35q-22 0 -37 41l-125 352q6 23 29 23q5 0 12 -1 l123 -215q17 -30 27 -30q7 0 33 26l211 224l16 -1q12 -3 17 -17q2 -6 3 -13z" />
<glyph unicode="&#x14a;" horiz-adv-x="1539" d="M1232 4q-42 -145 -97.5 -250.5t-141 -178.5t-251.5 -73q-24 0 -44 21t-20 54q0 19 22 34.5t51 15.5q28 0 60.5 -26t46.5 -25q73 0 150.5 91.5t112.5 208.5l26 87q10 33 10 52t-22 68l-499 1034q-10 20 -26 20q-14 0 -23 -31l-262 -920q-8 -28 -8 -45q0 -72 133 -72 q8 0 8 -21t-11 -38t-17 -17q-86 7 -200.5 7t-200.5 -7q-8 0 -8 20t11 38t17 18q90 0 138 21t69 96l264 928q14 49 14 98q0 48 -48 65q-30 10 -96 10q-8 0 -8 21t11 38t17 17q17 0 130 -5q103 -4 112 -4q26 -1 46 -42l490 -1024q13 -28 30 -28q14 0 23 30l257 882q7 24 7 44 q0 71 -149 71q-7 0 -7 20t12 38t18 18q47 -5 193 -5t193 5q7 0 7 -21t-10 -37q-12 -18 -18 -18q-78 0 -117 -19.5t-61 -95.5z" />
<glyph unicode="&#x14b;" horiz-adv-x="1008" d="M755 129q-80 -287 -154.5 -419t-168.5 -191t-223 -59q-70 0 -70 72q0 30 25.5 46.5t54.5 16.5q33 0 61 -27t52 -27q70 0 121.5 62t71.5 137l233 842q30 108 30 145q0 45 -30 45q-86 0 -250 -239.5t-275 -530.5q-11 -29 -63 -29q-58 0 -58 26q0 3 1 7l176 619q6 21 6 39 q0 47 -31.5 47t-107.5 -86q-3 -3 -7 -3q-16 0 -31 21q-5 7 -5 13q0 4 2 6q154 190 268 190q57 0 57 -90q0 -37 -29 -138l-69 -241l8 -4q246 473 449 473q106 0 106 -125q0 -59 -28 -160z" />
<glyph unicode="&#x160;" horiz-adv-x="1042" d="M991 504q0 -201 -161.5 -366t-365.5 -165q-115 0 -178.5 20t-169.5 80l1 72q11 173 34 220q9 16 39 16t31 -7q-7 -38 -7 -67q0 -129 85 -194t223 -65q114 0 206.5 106.5t92.5 230.5q0 156 -153 222l-178 76q-152 64 -152 251q-1 186 153.5 318.5t347.5 132.5 q107 0 189 -20t105 -20q-2 -97 -35 -264q-5 -19 -37.5 -19t-34.5 17l-1 56q-18 183 -224 183q-131 0 -222 -95t-91 -227q0 -106 130 -163l242 -103q131 -56 131 -226zM1187 1867l-260 -354q-26 -35 -49 -35q-22 0 -37 41l-125 352q6 23 29 23q5 0 12 -1l123 -215 q17 -30 27 -30q7 0 33 26l211 224l16 -1q12 -3 17 -17q2 -6 3 -13z" />
<glyph unicode="&#x161;" horiz-adv-x="524" d="M543 731q0 -23 -19 -41t-37 -18q-52 0 -71.5 58t-81.5 58q-35 0 -57.5 -38t-22.5 -72q0 -70 97.5 -211t97.5 -231q0 -112 -87.5 -187.5t-203.5 -75.5q-54 0 -94.5 35.5t-40.5 73.5q0 80 55 80q66 0 92.5 -53.5t85.5 -53.5q82 0 82 121q0 64 -90 190t-90 226 q0 105 65 182.5t189 77.5q52 0 91.5 -40t39.5 -81zM724 1342l-260 -354q-26 -35 -49 -35q-22 0 -37 41l-125 352q6 23 29 23q5 0 12 -1l123 -215q17 -30 27 -30q7 0 33 26l211 224l16 -1q12 -3 17 -17q2 -6 3 -13z" />
<glyph unicode="&#x172;" horiz-adv-x="1482" d="M1456 890q-110 -387 -183 -544t-226 -265t-382 -108q-183 0 -276.5 69.5t-93.5 220.5q0 102 49 276l181 633q8 29 8 46q0 44 -35.5 56.5t-105.5 12.5q-9 0 -9 22.5t10.5 38t16.5 15.5q48 -5 245 -5t243 5q7 0 7 -21.5t-11 -38t-17 -16.5q-127 0 -159 -31t-47 -84 l-140 -485q-89 -316 -89 -419t70.5 -161t197.5 -58q199 0 328.5 104t195.5 334l197 685q6 22 6 41q0 74 -138 74q-7 0 -7 21t11 38t17 17q70 -5 228.5 -5t204.5 5q8 0 8 -21t-11 -37q-11 -18 -17 -18q-88 0 -132.5 -22t-64.5 -93zM832 -346q-64 -78 -180 -78 q-156 0 -156 154q0 128 229 270h74q-186 -123 -186 -236q0 -114 110 -114q40 0 97 26q13 -3 13 -15q0 -5 -1 -7z" />
<glyph unicode="&#x173;" horiz-adv-x="991" d="M768 203q-12 -42 -12 -62q0 -39 34 -39t125 93q3 3 8 3q13 0 24 -12q12 -14 12 -22q0 -5 -3 -8q-164 -183 -284 -183q-58 0 -58 90q0 35 11 74l82 287q-244 -308 -334.5 -379.5t-146.5 -71.5q-84 0 -84 99q0 38 20 108l127 445q6 21 6 41q0 45 -28.5 45t-52.5 -27 q-26 -29 -56 -59q-3 -3 -8 -3q-18 0 -31 22q-4 7 -4 12q0 4 2 6q154 190 268 190q55 0 55 -82q0 -47 -25 -134l-87 -302q-41 -142 -41 -187t28 -45q44 0 159 122t228 317q58 100 121 288q8 23 60 23q70 0 62 -26zM742 -346q-64 -78 -180 -78q-156 0 -156 154q0 128 229 270 h74q-186 -123 -186 -236q0 -114 110 -114q40 0 97 26q13 -3 13 -15q0 -5 -1 -7z" />
<glyph unicode="&#x17d;" horiz-adv-x="1199" d="M1048 -7q-9 -29 -24 -26l-52 12q-91 21 -655 21h-352q-20 0 -20 20t11 31l1236 1216q9 9 9 15.5t-20 6.5h-572q-43 0 -92 -35.5t-117 -128.5q-64 -87 -98 -151q-6 -12 -27 -5t-16 19q72 169 133 357q8 25 36 21l28 -4q82 -12 254.5 -11.5t332.5 3.5l374 8q17 0 17 -15 t-16 -31l-1217 -1205q-8 -8 -8 -25t22 -17q429 0 645 13q120 7 288 270q5 8 27 1t17 -17q-85 -161 -144 -343zM1213 1867l-260 -354q-26 -35 -49 -35q-22 0 -37 41l-125 352q6 23 29 23q5 0 12 -1l123 -215q17 -30 27 -30q7 0 33 26l211 224l16 -1q12 -3 17 -17q2 -6 3 -13z " />
<glyph unicode="&#x17e;" horiz-adv-x="891" d="M283 162l2 -8l43 -3q61 -4 189.5 -57t166.5 -53q84 0 84 88q0 22 -27.5 46.5t-27.5 55.5q0 64 69 64q40 0 63 -33.5t23 -71.5q0 -106 -79 -177.5t-160 -71.5q-44 0 -107 22.5t-149 62.5t-125 40q-62 0 -142 -89q-4 -6 -14 -6q-24 0 -50 33q-9 13 -9 19q0 5 3 8l564 628 q9 10 9 18q0 16 -40 28q-132 40 -241 40q-90 0 -90 -57q0 -13 19 -38t19 -54q0 -64 -61 -64q-78 0 -78 80q0 68 78.5 149t204.5 81q62 0 152 -28t135 -28q52 0 75 25l41 45q5 5 14 5q22 0 35 -21q5 -8 5 -15q0 -5 -3 -8zM885 1342l-260 -354q-26 -35 -49 -35q-22 0 -37 41 l-125 352q6 23 29 23q5 0 12 -1l123 -215q17 -30 27 -30q7 0 33 26l211 224l16 -1q12 -3 17 -17q2 -6 3 -13z" />
<glyph unicode="&#x1dd;" horiz-adv-x="838" d="M574 299q56 0 56 160t-78 237q-59 58 -152.5 58t-208.5 -62q-2 -2 -10 -2q-24 0 -24 21q0 12 7 18q182 139 347 139q129 0 204.5 -105.5t75.5 -243.5q0 -240 -185 -413q-138 -129 -278.5 -129t-216.5 109q-50 66 -50 130q5 80 65 83h448zM223 231q-19 0 -19 -47.5 t43.5 -97t91.5 -49.5q127 0 220 166q7 11 7 15q0 13 -21 13h-322z" />
<glyph unicode="&#x1e6;" horiz-adv-x="1476" d="M1473 1867l-260 -354q-26 -35 -49 -35q-22 0 -37 41l-125 352q6 23 29 23q5 0 12 -1l123 -215q17 -30 27 -30q7 0 33 26l211 224l16 -1q12 -3 17 -17q2 -6 3 -13zM1245 133q-6 -21 -6 -36.5t17.5 -18.5t17.5 -15q0 -32 -22 -32q-37 0 -177 -20l-205 -29t-149 -9 q-221 0 -362.5 130.5t-141.5 350.5q0 342 286.5 636.5t626.5 294.5q170 0 298 -29t145 -29q0 -105 -59 -308q-5 -18 -38.5 -18t-31.5 13q5 31 5 62q0 238 -346 238q-299 0 -511 -267.5t-212 -571.5q0 -173 103.5 -300t296.5 -127q305 0 340 125l53 190q9 32 9 49 q0 42 -43 54t-161 12q-7 0 -7 20.5t11.5 38t18.5 17.5q75 -5 260 -5t246 5q8 0 8 -19.5t-12 -38t-19 -18.5q-94 0 -124 -21.5t-50 -93.5z" />
<glyph unicode="&#x1e7;" horiz-adv-x="766" d="M848 1342l-260 -354q-26 -35 -49 -35q-22 0 -37 41l-125 352q6 23 29 23q5 0 12 -1l123 -215q17 -30 27 -30q7 0 33 26l211 224l16 -1q12 -3 17 -17q2 -6 3 -13zM890 786q0 -59 -23 -59q-89 0 -194 29q28 -47 28 -125.5t-42.5 -166.5t-117 -158t-193.5 -107 q-26 -8 -38 -14q-62 -32 -62 -80.5t123 -114.5l194.5 -108t155.5 -201.5t-156.5 -177t-340.5 -62.5q-147 0 -244 58t-97 149.5t100.5 166t241.5 119.5q-92 44 -92 92q0 58 106 161q-163 42 -163 214.5t138 311.5t316 139q24 0 62 -18t57 -20q57 -6 103 -6t121 5q17 1 17 -27 zM587 720q0 71 -79 71q-107 0 -211 -161t-104 -309q0 -73 79 -73q114 0 214.5 163.5t100.5 308.5zM585 -352q0 63 -121 150t-193 87t-158.5 -67.5t-86.5 -145t97 -120t193.5 -42.5t182.5 37.5t86 100.5z" />
<glyph unicode="&#x1f0;" horiz-adv-x="420" d="M285 139q-26 -112 -78 -282.5t-161.5 -290t-276.5 -119.5q-32 0 -53 25.5t-21 50.5q0 29 26.5 44t55.5 15q31 0 59 -24.5t51 -24.5q69 0 118.5 66t66.5 141l202 883q5 22 5 36q0 43 -31 43t-105 -92q-2 -3 -6 -3q-17 0 -30 23q-7 12 -3 19q152 203 254 203q61 0 61 -97 q0 -30 -7 -61zM684 1342l-260 -354q-26 -35 -49 -35q-22 0 -37 41l-125 352q6 23 29 23q5 0 12 -1l123 -215q17 -30 27 -30q7 0 33 26l211 224l16 -1q12 -3 17 -17q2 -6 3 -13z" />
<glyph unicode="&#x21e;" horiz-adv-x="1503" d="M1384 1867l-260 -354q-26 -35 -49 -35q-22 0 -37 41l-125 352q6 23 29 23q5 0 12 -1l123 -215q17 -30 27 -30q7 0 33 26l211 224l16 -1q12 -3 17 -17q2 -6 3 -13zM1167 186q-6 -21 -6 -34q0 -83 157 -83q8 0 8 -18t-11 -38t-18 -20q-88 7 -247.5 7t-260.5 -7 q-7 0 -7 19.5t11 38t17 18.5q107 0 150.5 27t61.5 90l126 441q4 15 4 25.5t-29 10.5h-547q-32 0 -42 -36l-127 -441q-6 -21 -6 -35q0 -82 157 -82q7 0 7 -21.5t-11 -38t-18 -16.5q-85 7 -257 7t-250 -7q-8 0 -8 18t11 38t17 20q118 0 157.5 31t55.5 86l283 986q5 17 5 35 q0 80 -156 80q-8 0 -8 19.5t11 38t17 18.5q46 -5 255 -5t255 5q8 0 8 -19.5t-11 -38t-17 -18.5q-117 0 -158 -29.5t-57 -85.5l-112 -392q-5 -19 -5 -30t28 -11h546q34 0 46 41l113 392q5 17 5 35q0 80 -156 80q-8 0 -8 21.5t11 38t18 16.5q75 -5 253 -5t256 5q8 0 8 -21 t-11 -38t-17 -17q-107 0 -152 -26t-63 -89z" />
<glyph unicode="&#x21f;" horiz-adv-x="879" d="M795 1942l-260 -354q-26 -35 -49 -35q-22 0 -37 41l-125 352q6 23 29 23q5 0 12 -1l123 -215q17 -30 27 -30q7 0 33 26l211 224l16 -1q12 -3 17 -17q2 -6 3 -13zM870 618q0 -182 -107 -413.5t-267 -231.5q-48 0 -81.5 29.5t-33.5 58.5q0 54 19 77.5t44 23.5 q63 0 74 -51.5t44 -51.5t71 70.5t69 202t31 237.5q0 174 -76 174q-117 0 -313 -282q-50 -72 -92 -240l-55 -221q-7 -27 -62 -27q-59 0 -59 23v4l279 1201q16 69 16 103q0 73 -77 73q-15 0 -15 26t15 26q76 0 151.5 27.5t79.5 27.5q17 0 13 -18l-212 -921l10 -10 q188 317 371 317q163 0 163 -234z" />
<glyph unicode="&#x2bc;" horiz-adv-x="422" d="M424 944h-68q23 180 68 451q24 86 119 86q76 0 76 -55q0 -11 -5 -29q-73 -163 -190 -453z" />
<glyph unicode="&#x2c7;" horiz-adv-x="737" d="M885 1342l-260 -354q-26 -35 -49 -35q-22 0 -37 41l-125 352q6 23 29 23q5 0 12 -1l123 -215q17 -30 27 -30q7 0 33 26l211 224l16 -1q12 -3 17 -17q2 -6 3 -13z" />
<glyph unicode="&#x2db;" horiz-adv-x="737" d="M422 -346q-64 -78 -180 -78q-156 0 -156 154q0 128 229 270h74q-186 -123 -186 -236q0 -114 110 -114q40 0 97 26q13 -3 13 -15q0 -5 -1 -7z" />
<glyph unicode="&#x2013;" horiz-adv-x="1024" d="M1033 473h-962q-16 0 -16 21.5t9 56.5t29 35h962q16 0 16 -21t-9 -56.5t-29 -35.5z" />
<glyph unicode="&#x2014;" horiz-adv-x="2048" d="M2102 586q16 0 16 -21.5t-9 -56.5t-29 -35h-1987q-16 0 -16 22.5t9 56.5t29 34h1987z" />
<glyph unicode="&#x2018;" horiz-adv-x="430" d="M462 1062q0 -51 -40 -85.5t-88 -34.5q-49 0 -86 34t-37 91q0 64 57 156t137.5 153.5t165.5 106.5q1 1 7 1t11 -9t5 -13t-2 -6q-224 -173 -224 -268q0 -32 24 -42.5t47 -31t23 -52.5z" />
<glyph unicode="&#x2019;" horiz-adv-x="430" d="M568 1356q0 -64 -57 -156t-137.5 -153.5t-165.5 -106.5q-1 -1 -7 -1t-11 9t-5 13t2 6q224 173 224 268q0 32 -24 42.5t-47 31t-23 51.5q0 52 40 86.5t89 34.5q48 0 85 -34t37 -91z" />
<glyph unicode="&#x201a;" horiz-adv-x="430" d="M224 113q0 -64 -57 -156t-137.5 -153.5t-165.5 -106.5q0 -1 -6 -1t-11 9t-5 13t2 6q224 173 224 268q0 32 -24 42.5t-47 31t-23 52.5q0 51 40 85.5t88 34.5t85 -34t37 -91z" />
<glyph unicode="&#x201c;" horiz-adv-x="727" d="M431 1062q0 -51 -40 -85.5t-88 -34.5q-49 0 -86 34t-37 91q0 64 57 156t137.5 153.5t165.5 106.5q1 1 7 1t11 -9t5 -13t-2 -6q-224 -173 -224 -268q0 -32 24 -42.5t47 -31t23 -52.5zM765 1062q0 -51 -40 -85.5t-88 -34.5q-49 0 -86 34t-37 91q0 64 57 156t137.5 153.5 t165.5 106.5q1 1 7 1t11 -9t5 -13t-2 -6q-224 -173 -224 -268q0 -32 24 -42.5t47 -31t23 -52.5z" />
<glyph unicode="&#x201d;" horiz-adv-x="727" d="M533 1356q0 -64 -57 -156t-137.5 -153.5t-165.5 -106.5q-1 -1 -7 -1t-11 9t-5 13t2 6q224 173 224 268q0 32 -24 42.5t-47 31t-23 51.5q0 52 40 86.5t89 34.5q48 0 85 -34t37 -91zM871 1356q0 -64 -57 -156t-137.5 -153.5t-165.5 -106.5q-1 -1 -7 -1t-11 9t-5 13t2 6 q224 173 224 268q0 32 -24 42.5t-47 31t-23 51.5q0 52 40 86.5t89 34.5q48 0 85 -34t37 -91z" />
<glyph unicode="&#x201e;" horiz-adv-x="727" d="M224 113q0 -64 -57 -156t-137.5 -153.5t-165.5 -106.5q0 -1 -6 -1t-11 9t-5 13t2 6q224 173 224 268q0 32 -24 42.5t-47 31t-23 52.5q0 51 40 85.5t88 34.5t85 -34t37 -91zM564 113q0 -64 -57 -156t-137.5 -153.5t-165.5 -106.5q0 -1 -6 -1t-11 9t-5 13t2 6 q224 173 224 268q0 32 -24 42.5t-47 31t-23 52.5q0 51 40 85.5t88 34.5t85 -34t37 -91z" />
<glyph unicode="&#x2020;" d="M981 926q0 -36 -33 -60t-68 -24q-36 0 -119 29.5t-140 29.5q-56 -189 -56 -252.5t21 -105.5q-135 -228 -221 -523l-82 -282h-70l82 282q82 280 82 523q99 87 178 358q-59 0 -147 -29.5t-119 -29.5q-82 0 -82 94q0 82 111 82q31 0 109 -30t143 -30q29 98 34 165v145 q0 55 33.5 93t85.5 38q76 0 76 -76q0 -33 -42 -103l-63 -104q-29 -56 -59 -158q65 0 152.5 30t120.5 30q73 0 73 -92z" />
<glyph unicode="&#x2021;" horiz-adv-x="963" d="M1022 958q0 -44 -30 -74t-72 -30t-126.5 30.5t-137.5 30.5q-47 -161 -47 -223t24 -98q-89 -65 -170 -342q59 0 151 31.5t126 31.5q71 0 71 -96q0 -33 -33.5 -55.5t-70.5 -22.5t-121 31t-137 31q-39 -135 -39 -328q0 -54 -30 -92.5t-85 -38.5q-78 0 -78 72q0 33 44 115 l66 117q29 59 56 155q-51 0 -140 -31t-134 -31q-72 0 -72 88q0 35 36.5 60.5t70.5 25.5q33 0 115.5 -31.5t138.5 -31.5q55 201 55 254t-29 88q64 49 97.5 125t68.5 196q-53 0 -142.5 -30.5t-131.5 -30.5q-72 0 -72 90q0 36 36 60t70 24t116 -30.5t139 -30.5q36 127 36 310 q0 50 33 86t82 36q74 0 74 -76q0 -29 -41 -97l-61 -100q-27 -53 -58 -159q56 0 147 30.5t130 30.5q75 0 75 -70z" />
<glyph unicode="&#x2022;" horiz-adv-x="815" d="M674 746q0 -114 -73.5 -185.5t-180.5 -71.5t-192 71t-85 186t74.5 190.5t193.5 75.5t191 -76t72 -190z" />
<glyph unicode="&#x2026;" horiz-adv-x="2048" d="M315 85.5q0 -48.5 -33.5 -79.5t-90.5 -31t-88 37t-31 80t32 81t92 38t89.5 -38.5t29.5 -87zM1011 85.5q0 -48.5 -33.5 -79.5t-90.5 -31t-88 37t-31 80t32 81t92 38t89.5 -38.5t29.5 -87zM1698 85.5q0 -48.5 -33.5 -79.5t-90.5 -31t-88 37t-31 80t32 81t92 38t89.5 -38.5 t29.5 -87z" />
<glyph unicode="&#x20ac;" horiz-adv-x="1470" d="M1183 168q-145 -97 -261 -147t-264 -50q-164 0 -305 116.5t-141 342.5q0 59 10 120h-133q-22 0 -22 52.5t22 52.5h157q13 45 35 103h-131q-21 0 -21 52.5t21 52.5h178q116 219 323 370.5t434 151.5q99 0 200.5 -33.5t148 -80t46.5 -93.5q0 -37 -37 -66t-79 -29 q-41 0 -57 29q-63 110 -112 156t-136 46q-181 0 -333.5 -129t-248.5 -322h626q22 0 22 -52.5t-22 -52.5h-669q-8 -19 -28 -103h636q21 0 21 -52.5t-21 -52.5h-659q-9 -56 -9 -94q0 -177 98.5 -272.5t255.5 -95.5q115 0 206 29t225 103q6 3 12 3q25 0 25 -30q0 -15 -13 -25z " />
</font>
</defs>
</svg>
