<?xml version="1.0" standalone="no"?>
<!DOCTYPE svg PUBLIC "-//W3C//DTD SVG 1.1//EN" "http://www.w3.org/Graphics/SVG/1.1/DTD/svg11.dtd" >
<svg xmlns="http://www.w3.org/2000/svg">
<metadata>
This is a custom SVG webfont generated by Font Squirrel.
Designer    : Peter S Baker
Foundry     : Lakota Language Consortium
Foundry URL : httpwwwlakhotaorg
</metadata>
<defs>
<font id="webfontxI7qBdUX" horiz-adv-x="956" >
<font-face units-per-em="2048" ascent="1638" descent="-410" />
<missing-glyph horiz-adv-x="559" />
<glyph unicode=" "  horiz-adv-x="559" />
<glyph unicode="&#x09;" horiz-adv-x="559" />
<glyph unicode="&#xa0;" horiz-adv-x="559" />
<glyph unicode="!" horiz-adv-x="569" d="M699.5 1230.5q-15.5 -40.5 -158.5 -377.5t-172 -411q-9 -20 -51.5 -20t-45.5 24l139 719q15 77 30 119.5t62.5 78.5t94.5 36q117 0 117 -92q0 -36 -15.5 -76.5zM385 123q-1 -66 -50.5 -108t-114.5 -42t-108.5 49t-43.5 113.5t50 108.5t115.5 44t108.5 -49.5t43 -115.5z " />
<glyph unicode="&#x22;" horiz-adv-x="794" d="M856 944h-88q4 29 20.5 221.5t24.5 214.5q36 100 152 100t116 -68q0 -20 -8 -45t-99.5 -195.5t-117.5 -227.5zM454 944h-88q4 29 20.5 221.5t24.5 214.5q36 100 152 100t116 -68q0 -20 -8 -45t-99.5 -195.5t-117.5 -227.5z" />
<glyph unicode="#" horiz-adv-x="1015" d="M551 10h-135l164 371h-181l-163 -371h-136l164 371h-192l22 133h230l127 289h-195l25 131h229l137 315h135l-139 -315h180l140 315h135l-140 -315h179l-23 -131h-213l-127 -289h178l-22 -133h-215zM639 514l127 289h-180l-127 -289h180z" />
<glyph unicode="$" horiz-adv-x="995" d="M1047 1303q0 -129 -23 -261q-5 -29 -49.5 -29t-46.5 16l-2 41q-7 136 -133 171l-119 -444q155 -49 218.5 -114t63.5 -169q0 -94 -42 -198t-158 -210t-299 -122l-37 -134q-4 -15 -66.5 -15t-58.5 15l37 136q-100 9 -190 56l-66 34l-2 60q-3 100 30 239q6 25 52.5 25 t42.5 -22q-5 -30 -5 -53q0 -94 46.5 -154t117.5 -83l134 492q-162 69 -205 130.5t-43 153.5q0 175 129 309t319 156l37 137q4 16 66.5 16t58.5 -16l-37 -137q97 -5 132 -16.5t58 -11.5t40 2zM670 1245q-90 -20 -149.5 -107.5t-59.5 -165.5q0 -85 100 -132zM481 74 q106 12 175 107t69 193q0 99 -121 158z" />
<glyph unicode="%" horiz-adv-x="1816" d="M1778 524q0 -143 -88.5 -294t-192.5 -213t-207 -62q-145 0 -224 84t-79 243q0 88 85 216.5t211.5 198t236.5 69.5q130 0 194 -67t64 -175zM1077 1178q265 0 488 243h137l-1258 -1542h-165l1030 1256q-97 -43 -217 -43q-49 0 -107 10q-3 -138 -87 -286.5t-207 -221.5 q-92 -55 -193 -55q-187 0 -263 137q-40 73 -40 172q0 132 109 268t255 197q86 36 166 36q171 0 232 -118l15 -37q0 -2 1 -4q49 -12 104 -12zM1665 532q0 71 -30 109.5t-85 38.5q-69 0 -164 -112.5t-143.5 -214.5t-48.5 -163q0 -70 33.5 -109.5t81.5 -39.5q97 0 183 95.5 t129.5 206t43.5 189.5zM872 1116q0 12 -2 26v1q-88 42 -137 114q-73 -20 -162 -135t-129 -206t-40 -142q0 -70 31 -109.5t81 -39.5q95 0 180.5 90t131.5 204t46 197z" />
<glyph unicode="&#x26;" horiz-adv-x="1658" d="M1796 827q0 -93 -62 -126l-36 -14l-99 -25l-83 -33l-23 -4q-33 0 -59 30q-35 45 -121 125q10 -58 10 -102q0 -125 -45 -234q-86 -212 -265 -341q-184 -132 -409 -132q-241 0 -377 126q-123 113 -123 304q0 103 46 217q46 119 159 231q146 146 296 165q19 2 38 2 q71 0 114 -60q15 -21 21 -45q111 88 209 215q111 144 111 228q0 18 -22 43q-25 29 -25 59q0 59 48 94q31 23 70 23q88 0 120 -78l10 -34q2 -14 2 -29q0 -237 -557 -671q-185 -144 -429 -306q0 -159 118 -241q87 -61 218 -61q208 0 374 163q142 139 197 340q22 82 25 163 q-25 23 -94 23q-54 0 -106 -38q-36 -27 -36 -52q0 -24 32 -44q36 -24 45 -37q13 -18 13 -44q0 -61 -61 -83q-21 -7 -43 -7q-65 0 -102 47q-23 29 -23 67q0 105 101 206q93 94 206 120q32 8 62 8q127 0 231 -108q14 -15 27 -31l61 -89q17 -20 29 -20q22 0 23 28v26 q0 17 -20 60q-11 22 -11 36q0 52 58 76q23 10 44 10q70 0 100 -76q13 -34 13 -70zM590 817q0 49 -41 68q-12 6 -23 6q-78 0 -146 -138q-53 -106 -64 -204q-1 -9 -1 -17q71 49 256 205q19 47 19 80z" />
<glyph unicode="'" horiz-adv-x="581" d="M662 1257q-64 -191 -379 -346l-12 -3l-11 5q-14 9 -14 25q0 8 6 12q90 65 153 152q34 48 48 92l2 16q-2 15 -21 23q-45 12 -69 49q-15 22 -15 50q0 11 2 22q15 75 82 110q37 19 80 19q62 0 111 -49l20 -24q27 -41 27 -91q0 -30 -10 -62z" />
<glyph unicode="(" horiz-adv-x="694" d="M932 1479q-123 -70 -252 -233q-60 -75 -107 -156q-202 -350 -216 -749v-111q0 -14 1 -29q12 -215 86 -393q29 -70 62 -115l2 -10q-2 -18 -26 -31q-9 -5 -16 -4l-7 2q-153 133 -236 374q-54 153 -61 306l-2 100q8 340 181 621q60 97 136 178q169 179 378 277q13 7 38 18 l10 1q19 -4 31 -25l4 -13l-4 -6z" />
<glyph unicode=")" horiz-adv-x="694" d="M649 844l2 -103q-8 -347 -180 -625q-59 -95 -133 -173q-139 -148 -285 -229l-131 -68l-11 -2q-19 3 -33 26q-4 7 -4 13l2 8q1 1 3 2q177 101 322 322l39 63q198 341 217 730l2 111l-2 52q-17 299 -150 508l-2 10q2 18 25 31q8 5 15 5q6 0 9 -3q172 -155 250 -417 q39 -129 45 -261z" />
<glyph unicode="*" horiz-adv-x="829" d="M733 872l-76 -96l-211 139l-59 -274h-111l60 274l-266 -137l-35 96l266 138l-207 135l76 96l207 -135l59 276h111l-60 -276l271 139l35 -96l-271 -139z" />
<glyph unicode="+" horiz-adv-x="1064" d="M944 362h-320v-362h-180v362h-321v147h321v327h180v-327h320v-147z" />
<glyph unicode="," horiz-adv-x="557" d="M428 168q0 -151 -197 -319q-112 -96 -215 -144q-10 -5 -18 -8l-10 -1q-17 3 -27 29l-2 17q0 9 6 14q108 86 159 148q48 58 64 110l2 20q-2 16 -16 21q-62 37 -75 98q-3 13 -3 27q0 66 60 113q49 39 112 39q96 0 138 -72q22 -38 22 -92z" />
<glyph unicode="-" horiz-adv-x="864" d="M815 610q15 0 15 -32q0 -46 -23 -80q-7 -11 -15 -16q-6 -3 -12 -3h-608q-18 0 -18 36q0 48 25 80q12 15 26 15h610z" />
<glyph unicode="." horiz-adv-x="557" d="M405 119q0 -79 -63 -121q-38 -25 -86 -25q-74 0 -122 47q-42 42 -42 113q0 52 38 95q44 50 126 50q75 0 119 -59q30 -42 30 -100z" />
<glyph unicode="/" horiz-adv-x="530" d="M793 1425l-615 -1441q-3 -8 -19 -8q-29 0 -68 19q-42 21 -43 39q0 3 1 5l615 1442q4 9 22 10l30 -5q54 -13 73 -40l5 -12z" />
<glyph unicode="0" d="M1014 643q-56 -207 -172 -377q-186 -272 -433 -282h-18q-239 0 -293 233q-14 61 -14 137q0 149 47 314q62 234 187 408q184 257 436 257q231 0 288 -224l12 -62l5 -73v-16q0 -150 -45 -315zM760 633q78 285 78 457q0 139 -87 152l-20 1q-155 0 -283 -346 q-34 -93 -67 -217q-64 -241 -72 -366q-2 -26 -2 -50q0 -119 50 -166q23 -22 57 -22q194 0 328 488z" />
<glyph unicode="1" d="M692 -8q-80 8 -280 8q-207 0 -287 -8q-9 0 -9 15l5 27q10 34 24 34q111 0 161 52q43 44 75 161l215 806q7 26 7 39q0 11 -4 15l-9 3l-15 -3l-163 -60h-10q-14 6 -15 29q0 10 5 19q5 8 14 12q144 56 344 175l61 38q32 20 47 20q30 0 38 -24v-17l-3 -12q-27 -70 -49 -160 l-236 -878q-21 -79 -21 -120q0 -72 66 -89q25 -6 60 -6q8 0 8 -15q0 -28 -15 -50q-7 -11 -14 -11z" />
<glyph unicode="2" d="M885 260l-160 -229q-29 -39 -90 -39l-243 8h-81q-95 0 -306 -7q-21 -1 -38 -1q-34 0 -41 27v17q5 23 31 44q192 148 411 366q98 97 175 185q150 174 200 283q35 76 35 135q0 89 -65 121q-27 14 -62 14q-148 0 -286 -164q-7 -9 -19 -9l-17 3q-24 10 -24 29l3 10l1 2 q149 187 318 251q74 28 145 28q152 0 224 -101q44 -62 44 -146q0 -180 -210 -399l-78 -78q-120 -115 -383 -322l-119 -95h295q115 0 163 19q54 21 99 79q8 10 25 10q31 0 49 -19q6 -6 7 -13z" />
<glyph unicode="3" d="M283 -23q-151 0 -224 54q-47 34 -47 86q0 65 66 102q38 21 80 21q48 0 79 -51l39 -65q33 -47 86 -47q97 0 185 127q75 107 97 227q5 29 5 54q0 128 -93 171q-38 17 -91 18q-57 0 -111 -17q-17 0 -17 28q0 39 21 67q10 12 19 12q165 0 276 94q17 13 31 29q78 84 78 192 q0 87 -60 115l-27 8q-11 2 -22 2q-92 0 -186 -79q-35 -29 -80 -76q-7 -8 -18 -8q-22 0 -36 23q-5 8 -5 16t6 14q142 148 249 199q83 40 171 40q132 0 197 -90q42 -58 42 -135q0 -173 -173 -298q-38 -27 -83 -50q154 -49 165 -207q1 -11 1 -23q0 -183 -146 -337 q-127 -135 -307 -190q-85 -26 -167 -26z" />
<glyph unicode="4" d="M821 504h123q7 0 6 -16q0 -43 -22 -93l-11 -19l-7 -5h-1h-123l-59 -215q-6 -22 -6 -38l3 -21q10 -27 69 -29h14t8 -15q0 -28 -15 -50q-7 -11 -14 -11q-80 8 -227 8q-160 0 -244 -8q-8 0 -8 15q0 28 15 50q7 11 14 11q108 0 144 46q13 17 20 42l59 215h-461q-74 0 -75 42 l4 22q15 47 84 116l393 383q224 220 325 330l132 149q21 17 50 17l25 -4q39 -11 41 -43l-2 -18q-1 -2 -2 -5l-833 -815q-19 -19 -19 -30t17 -11h356l106 399q6 20 108 22l68 -3q52 -5 52 -19z" />
<glyph unicode="5" d="M1085 1316q3 0 3 -6l-6 -28q-23 -71 -60 -130q-15 -22 -21 -22h-415q-30 0 -41 -16l-8 -14l-70 -154l-5 -21l2 -9q3 -4 9 -4l8 1l66 5q241 0 331 -137q43 -65 43 -150q0 -150 -98 -310q-21 -35 -45 -65q-133 -171 -328 -238q-99 -34 -202 -34q-183 0 -230 73 q-14 21 -14 49q0 66 64 104q39 22 82 22h4q46 -1 84 -50l41 -52q34 -38 81 -38q112 0 214 113q89 100 115 220q7 34 7 64q0 125 -100 180q-42 23 -96 30q-23 3 -49 3q-66 0 -144 -20q-17 -5 -28 -5q-21 0 -24 15l1 18q2 10 8 23l236 529q25 54 84 54h501z" />
<glyph unicode="6" d="M1065 1321q-285 -136 -493 -411q-83 -109 -140 -224q86 81 192 104q29 7 56 7q159 0 227 -125q36 -67 36 -156q0 -175 -128 -324q-117 -136 -282 -186q-74 -22 -146 -22q-225 0 -284 187q-19 60 -19 134q0 78 25 170q67 255 312 502q220 223 496 353q63 30 125 52l11 2 q14 -3 21 -21l3 -19q0 -17 -12 -23zM707 451q0 98 -55 154l-22 18l-26 13q-21 7 -45 7q-89 0 -174 -71q-4 -4 -8 -7q-54 -132 -64 -265q-2 -21 -2 -40q0 -172 127 -172q115 0 196 123q66 102 72 221q1 10 1 19z" />
<glyph unicode="7" d="M1135 1219l-811 -1219q-15 -22 -100 -22q-92 0 -123 22q-6 5 -7 10l3 9l1 1q123 147 201 254l647 867h-297q-116 0 -182 -29q-71 -32 -119 -100q-10 -17 -45 -17q-33 0 -42 13l-2 8q1 1 1 2l117 242q18 40 30 48q13 9 39 9h682q48 0 49 -24q0 -8 -5 -18l-18 -30z" />
<glyph unicode="8" d="M1048 1100q0 -170 -165 -298q-61 -49 -138 -83q121 -87 155 -207q12 -40 12 -80q0 -164 -138 -292l-43 -37q-135 -102 -297 -117q-22 -2 -43 -2q-171 0 -262 90q-68 68 -68 172q0 217 250 355q49 27 111 54q-146 111 -146 252q0 153 125 276q111 110 263 141q45 9 88 9 q198 0 266 -113q30 -50 30 -120zM829 1083q0 119 -86 144q-19 6 -43 6q-80 0 -147 -71q-64 -69 -64 -148q0 -117 181 -232q128 88 154 237q5 31 5 64zM674 342q0 128 -176 254q-117 -62 -170 -190q-31 -74 -31 -152q0 -104 63 -151q36 -27 86 -27q92 0 163 90q64 81 65 176z " />
<glyph unicode="9" d="M752 377q-233 -238 -576 -395q-26 -12 -53 -23h-10q-18 6 -22 44l1 24q3 12 10 16q245 119 390 274q109 115 219 310q-65 -51 -158 -79q-43 -13 -76 -13q-150 0 -226 103q-50 68 -50 159q0 142 100 287q43 62 94 108q159 141 363 141q196 0 268 -152l18 -45 q17 -56 17 -122q0 -258 -215 -530q-43 -55 -94 -107zM834 1063q0 140 -100 161q-16 3 -34 3q-106 0 -182 -127q-62 -102 -70 -217q-1 -12 -1 -23q0 -108 57 -158q32 -28 76 -28q95 0 176 59q52 99 72 249q6 45 6 81z" />
<glyph unicode=":" horiz-adv-x="593" d="M632 707q0 -74 -59 -122q-42 -34 -96 -34q-75 0 -124 60q-34 43 -34 96q0 75 61 123q43 34 97 34q76 0 122 -61q33 -42 33 -96zM463 131q0 -76 -59 -124q-43 -34 -97 -34q-76 0 -123 62q-32 43 -32 96q0 75 60 122q42 33 95 33q76 0 123 -61q33 -42 33 -94z" />
<glyph unicode=";" horiz-adv-x="593" d="M600 711q0 -74 -61 -119q-41 -31 -93 -31q-77 0 -121 60q-30 40 -30 90q0 76 59 122q41 31 92 31q74 0 121 -59q33 -41 33 -94zM484 176q0 -151 -197 -320q-113 -95 -217 -144q-9 -4 -17 -7l-10 -1q-19 6 -27 32l-2 17q1 7 6 11q80 68 90 77q108 100 134 184l2 18 q-1 16 -15 23q-37 15 -60 57q-17 31 -17 67q0 67 61 114q47 36 109 36q97 0 138 -73q22 -38 22 -91z" />
<glyph unicode="&#x3c;" horiz-adv-x="1024" d="M344 422l604 -260v-185l-870 379v129l870 381v-184z" />
<glyph unicode="=" horiz-adv-x="1064" d="M948 575h-829v141h829v-141zM948 268h-829v141h829v-141z" />
<glyph unicode="&#x3e;" horiz-adv-x="1024" d="M946 356l-870 -379v185l604 260l-604 260v184l870 -381v-129z" />
<glyph unicode="?" horiz-adv-x="694" d="M809 1026q0 -146 -73 -250q-40 -57 -89 -78l-176 -75q-88 -39 -102 -72q-16 -31 -19 -100v-9q0 -16 -31 -24l-21 -1q-13 1 -15 9q-29 107 -29 158q0 126 93 191q29 20 71 38l121 53q135 59 166 138q8 19 8 38q0 103 -230 103q-28 0 -57 30q-29 29 -29 68q0 48 46 91 q45 42 104 42q115 0 191 -107q71 -102 71 -243zM375 125q0 -82 -63 -126q-39 -26 -91 -26q-76 0 -121 57q-32 40 -32 95q0 86 63 133q40 30 92 30q83 0 126 -69q26 -42 26 -94z" />
<glyph unicode="@" horiz-adv-x="1597" d="M991 983l21 51q7 19 53 19q21 0 48 -17q16 -10 16 -20l-1 -6l-141 -478q-9 -32 -9 -61l3 -24q5 -17 20 -17q161 0 273 108q116 111 123 284v18q0 186 -130 313t-332 143q-26 2 -52 2q-252 0 -425 -173q-150 -150 -191 -379q-13 -70 -13 -142q0 -181 96 -322 q146 -214 456 -226q19 -1 38 -1q135 0 295 61l28 11l11 1q14 -4 21 -22l4 -15l-3 -10l-6 -5q-159 -98 -375 -108q-19 -1 -37 -1q-240 0 -426 115q-214 131 -268 369q-16 72 -16 151q0 297 189 508q163 182 414 246q111 28 226 28q280 0 454 -156q142 -127 166 -312 q5 -34 5 -68q0 -174 -115 -309q-127 -150 -338 -180q-48 -7 -98 -7q-102 0 -130 37q-14 19 -14 47q0 27 19 82l-10 6q-151 -166 -250 -166q-83 0 -106 85q-7 24 -7 51q0 116 79 258q86 155 205 223q69 39 138 39q62 0 92 -31zM883 967q-80 0 -159 -145q-68 -123 -90 -250 q-5 -31 -5 -54q0 -55 21 -68q4 -2 9 -2q53 0 166 132q59 67 99 192l43 148q-18 41 -72 46q-6 1 -12 1z" />
<glyph unicode="A" horiz-adv-x="1164" d="M1076 1313l-29 -140q-2 -12 -3 -24l-117 -947l-1 -39q5 -62 71 -73q21 -4 54 -4q8 0 8 -18q0 -33 -16 -63q-6 -12 -12 -12q-140 7 -226 7q-103 0 -236 -7q-8 0 -8 18q0 15 5 34q11 41 24 41q69 0 94 26q24 26 32 90l36 283l-1 20q-2 11 -14 15q-8 3 -21 3h-246 q-31 0 -48 -29l-189 -294q-23 -36 -24 -60l3 -18q15 -36 118 -36q8 0 8 -18q0 -37 -18 -65q-6 -10 -11 -10q-133 7 -234 7q-86 0 -226 -7q-8 0 -7 18q0 37 17 65q6 10 11 10q85 0 126 18q63 27 120 113l655 974q10 13 10 21l-4 13q-1 2 -3 4q-14 20 -14 30q0 18 49 35l6 2 q67 24 161 70q34 20 60 20q40 0 42 -48zM821 1062l-2 10l-5 4l-8 -4l-8 -9l-283 -426q-5 -7 -5 -14l3 -9q5 -7 15 -7h203q30 0 38 23q3 8 4 19z" />
<glyph unicode="B" horiz-adv-x="1244" d="M1284 1091q0 -134 -122 -250l-43 -36q-46 -34 -94 -55q-20 -9 -20 -18l3 -9q4 -6 15 -13q83 -47 129 -133q33 -59 33 -118q0 -148 -97 -267q-31 -38 -70 -70l-48 -36l-10 -6q-119 -76 -362 -85q-27 -1 -54 -1l-273 6h-4q-68 0 -284 -7q-7 0 -7 14l5 32q12 47 26 47 q78 0 104 9q63 20 89 107l287 953q7 24 7 41q0 32 -22 48q-28 20 -126 20q-7 0 -7 14l5 30q12 47 28 50q168 -7 267 -7l285 7h3q217 0 308 -115q49 -64 49 -152zM1049 1091q0 105 -56 146q-58 42 -199 42q-33 0 -44 -29q-1 -4 -3 -11l-135 -443l-2 -19q3 -18 27 -18h24 q193 0 301 108q87 88 87 224zM933 479q0 123 -101 168q-77 34 -229 34q-27 0 -34 -27l-132 -442q-5 -17 -5 -37q0 -75 59 -95q18 -6 41 -6q276 0 364 203q37 85 37 202z" />
<glyph unicode="C" horiz-adv-x="1468" d="M1582 1328q0 -112 -47 -288q-8 -31 -14 -46q-5 -16 -47 -16q-20 0 -34 4l-12 7q-4 3 -4 9q9 52 9 75q0 109 -109 174q-87 51 -202 51q-250 0 -443 -196l-46 -51q-146 -176 -196 -406q-20 -90 -20 -175q0 -178 89 -292q91 -116 250 -116q277 0 447 194q34 39 68 90 q9 13 47 13q24 0 37 -6q11 -4 11 -11q0 -50 -101 -212q-45 -71 -66 -94q-51 -7 -90 -19q-177 -44 -389 -44q-239 0 -388 130q-155 136 -155 365q0 255 171 488q152 209 386 326q204 102 413 102q121 0 309 -39l41 -9q48 -8 85 -8z" />
<glyph unicode="D" horiz-adv-x="1553" d="M1608 891q0 -217 -139 -435q-124 -194 -317 -317q-229 -146 -487 -146l-329 7h-82q-55 0 -264 -7h-5q-8 0 -7 18q0 37 17 65q6 10 11 10q89 0 123 17q49 24 71 99l287 951q8 27 8 46q0 46 -54 58l-48 6l-45 1q-8 0 -8 18q0 33 16 63q6 12 12 12q120 -5 284 -5l348 5h7 q297 0 459 -141q142 -122 142 -325zM1348 869q0 166 -97 278q-115 132 -327 132q-106 0 -134 -11q-27 -10 -42 -41q-8 -15 -15 -38l-283 -925q-13 -45 -13 -77q0 -59 43 -88q44 -28 134 -28q214 0 412 168q168 143 257 347q65 148 65 283z" />
<glyph unicode="E" horiz-adv-x="1255" d="M1401 1300l-84 -289q-6 -18 -50 -18q-18 0 -31 4q-12 4 -12 12q6 31 6 60q0 110 -78 160l-29 15l-35 10l-25 2l-269 8q-32 0 -42 -20l-5 -13l-159 -508l-3 -19q2 -14 24 -14h179q70 0 90 27q6 9 11 22l49 145q6 18 45 18l27 -3q17 -5 17 -15q-21 -57 -78 -247 q-49 -167 -60 -219q-4 -17 -41 -17l-27 3l-14 7l-2 6v1l35 128l2 20q-4 31 -71 31h-201q-20 0 -28 -27l-103 -346q-11 -36 -11 -64q0 -23 7 -40q19 -42 82 -42h10l290 11q102 4 189 131q48 71 78 162q5 17 53 17q19 0 31 -4t12 -13l-102 -361q-7 -27 -57 -28h-50l-562 7 h-130q-76 0 -294 -7q-8 0 -7 18q0 37 17 65q6 10 11 10q108 0 147 35q29 26 51 96l283 940q7 23 7 41l-3 21q-7 21 -30 31q-29 12 -115 12q-7 0 -8 16l5 32q11 47 25 47q120 -5 269 -5q76 0 676 5h29q55 0 62 -18l2 -17z" />
<glyph unicode="F" horiz-adv-x="1234" d="M1401 1298l-86 -287q-7 -16 -51 -16l-28 3l-11 6l-1 6v1q9 32 9 62q0 78 -56 131q-51 48 -114 52q-198 8 -290 8q-19 0 -29 -30q0 -2 -1 -5l-144 -473l-1 -16q2 -15 23 -15h124q98 0 137 94q6 16 11 34q22 69 32 113q4 14 50 14q23 0 36 -4q9 -4 9 -10q-55 -159 -95 -288 l-74 -273q-2 -8 -4 -14q-3 -14 -46 -14q-39 0 -40 14l41 136q4 15 4 29q0 52 -49 70l-27 6h-7h-135q-25 0 -34 -35l-119 -395q-10 -31 -10 -51q0 -46 54 -58q30 -7 93 -7q8 0 8 -18q0 -33 -16 -63q-6 -12 -12 -12q-140 7 -271 7q-163 0 -296 -7q-8 0 -7 18q0 37 17 65 q6 10 11 10q95 0 132 22q42 26 62 94l287 953q7 24 7 42q0 42 -40 56q-30 11 -106 11q-8 0 -8 18q0 33 16 63q6 12 12 12q120 -5 271 -5q65 0 668 5h33q56 0 64 -16l3 -15q-1 -11 -6 -28z" />
<glyph unicode="G" horiz-adv-x="1475" d="M1581 1328l-2 -56q-11 -122 -51 -257l-7 -22q-5 -15 -49 -15q-43 0 -46 20l6 60q0 151 -152 210q-77 30 -177 30q-218 0 -404 -181q-158 -152 -234 -371q-48 -137 -48 -263q0 -195 92 -310q89 -111 247 -111q145 0 239 57q59 35 74 85l53 182q6 20 6 33q0 29 -36 36 q-21 4 -139 4q-8 0 -8 19q0 22 9 48q9 28 19 28q60 -6 304 -6q170 0 227 6q7 0 7 -17q1 -15 -4 -35l-11 -30l-8 -11q-3 -2 -5 -2q-86 0 -112 -28q-16 -16 -29 -63l-69 -235l-4 -27q0 -20 21 -20q8 0 8 -12l-4 -20q-8 -25 -21 -25q-28 0 -133 -10l-291 -39q-70 -7 -129 -7 q-187 0 -327 85q-36 22 -65 49q-151 138 -151 357q0 288 236 560q52 59 112 114q242 222 541 244q31 2 62 2q138 0 327 -40q16 -3 40 -8q51 -8 86 -8z" />
<glyph unicode="H" horiz-adv-x="1539" d="M1725 1363q7 0 7 -14l-5 -30l-12 -33q-9 -17 -16 -17q-96 0 -133 -19q-49 -26 -69 -97l-273 -951q-7 -26 -7 -44q-1 -23 11 -38q26 -34 136 -34q8 0 8 -17l-5 -31q-11 -45 -25 -45q-133 7 -273 7q-164 0 -304 -7q-6 0 -6 14q0 34 17 66q8 13 14 13q107 0 149 33 q34 26 50 83l118 419l3 18q-1 9 -11 12q-6 1 -17 1h-477q-30 0 -38 -17q-3 -5 -6 -14l-120 -419q-7 -25 -7 -44q-1 -14 4 -25q16 -44 123 -47h21q7 0 7 -17q0 -36 -18 -65q-6 -11 -12 -11q-126 7 -273 7q-170 0 -303 -7q-7 0 -7 14l5 32q12 47 26 47q107 0 149 33 q34 26 50 83l271 951q9 31 9 51q0 37 -31 51q-30 14 -109 14q-7 0 -7 14l5 30q12 47 28 50q57 -6 280 -6q234 0 291 6q7 0 7 -14q0 -34 -19 -67l-10 -11q-3 -2 -5 -2q-95 0 -132 -19q-49 -26 -70 -97l-105 -368l-4 -22q1 -16 27 -16h477q29 0 38 16q4 7 8 22l105 368 q8 31 8 51q0 45 -49 57l-44 7q-20 1 -47 1q-6 0 -6 13l4 30q13 48 29 51q57 -6 280 -6q233 0 290 6z" />
<glyph unicode="I" horiz-adv-x="753" d="M943 1363q7 0 7 -14q0 -34 -19 -67l-10 -11q-3 -2 -5 -2q-95 0 -132 -19q-49 -26 -70 -97l-273 -951q-7 -25 -7 -44q-1 -14 4 -25q16 -44 123 -47h21q7 0 7 -17q0 -36 -18 -65q-6 -11 -12 -11q-126 7 -273 7q-170 0 -303 -7q-7 0 -7 14l5 32q12 47 26 47q107 0 149 33 q34 26 50 83l271 951q9 31 9 51q0 37 -31 51q-30 14 -109 14q-7 0 -7 14l5 30q12 47 28 50q57 -6 280 -6q234 0 291 6z" />
<glyph unicode="J" horiz-adv-x="657" d="M909 1362q7 0 7 -15q0 -23 -11 -51q-10 -27 -20 -27q-93 0 -130 -26q-16 -11 -28 -28l-16 -28q-7 -15 -12 -34l-155 -534q-39 -136 -138 -429l-9 -28q-67 -229 -175 -343q-109 -117 -191 -168q-112 -69 -228 -69q-74 0 -114 45q-26 30 -26 76q0 59 64 94q41 22 89 22 q79 0 119 -60q18 -28 21 -63q85 57 135 192q1 4 2 7q59 158 209 695q8 30 13 47l149 516q6 21 6 38q0 78 -124 78q-7 0 -7 15q0 21 9 48q12 30 22 30q50 -5 267 -5q222 0 272 5z" />
<glyph unicode="K" horiz-adv-x="1341" d="M1539 1362q5 0 6 -10l-4 -29q-12 -48 -29 -54q-96 0 -158 -33l-48 -30q-41 -25 -398 -338l-105 -91q-15 -13 -15 -24l3 -16q1 -3 9 -19l280 -527q48 -92 146 -103q20 -2 49 -2q10 0 10 -23q0 -17 -5 -37q-9 -33 -20 -33q-70 7 -289 7q-175 0 -242 -7q-8 0 -7 18 q0 37 17 65q6 10 11 10q63 0 77 21q7 10 7 25q-1 27 -23 72l-175 359q-25 50 -51 61l-12 1q-12 -2 -18 -24l-116 -399q-7 -25 -8 -44q0 -19 7 -32q21 -40 125 -40q7 0 7 -14l-5 -32q-12 -47 -26 -47q-70 7 -255 7q-105 0 -301 -7q-7 0 -7 14l5 32q12 47 26 47q92 0 127 17 q48 24 70 99l277 951q7 24 7 43l-3 23q-15 48 -125 50h-12q-7 0 -7 15q0 21 9 48q12 30 22 30q48 -5 271 -5q229 0 277 5q6 0 6 -13l-4 -30l-13 -33q-9 -17 -16 -17q-87 0 -120 -21q-18 -11 -31 -30l-16 -32q-7 -14 -12 -33l-115 -395l-1 -14q1 -4 6 -4q8 0 22 10 q39 26 82 65l374 342q62 56 62 85q0 19 -23 24l-25 3q-7 0 -7 13q0 28 18 61q9 19 17 19q50 -5 200 -5q165 0 215 5z" />
<glyph unicode="L" horiz-adv-x="1316" d="M1302 382l-96 -334q-11 -38 -16 -44q-10 -11 -69 -11h-21l-738 7h-80q-135 0 -301 -7q-6 0 -6 11l5 28q13 48 31 54q87 0 120 14q53 22 75 97l275 956q7 25 7 44q0 54 -67 67q-28 5 -75 5q-7 0 -7 14l5 30q12 47 28 50q57 -6 291 -6q239 0 293 6q7 0 7 -14q0 -15 -7 -37 l-12 -29q-8 -14 -15 -14q-88 0 -113 -6q-62 -16 -89 -88q-4 -10 -7 -22l-266 -913q-14 -51 -14 -83q0 -68 72 -77l38 -2l317 13q237 11 324 252q7 19 13 39q4 16 53 16q45 0 45 -16z" />
<glyph unicode="M" horiz-adv-x="1927" d="M2109 1362q7 0 7 -14q0 -33 -19 -66l-9 -11q-3 -2 -6 -2q-98 0 -133 -26q-10 -8 -19 -19l-17 -28q-11 -23 -24 -64l-17 -56l-261 -877q-6 -22 -7 -39l4 -23q14 -47 117 -51h25q7 0 7 -17q0 -36 -18 -65q-4 -8 -12 -11q-133 7 -270 7q-144 0 -277 -7q-7 0 -7 14 q0 29 17 62q9 17 16 17q102 0 145 60q19 27 33 71l193 644l2 19q-2 11 -9 11l-10 -4q-5 -4 -10 -11l-707 -870q-17 -23 -40 -23q-9 0 -16 4q-14 10 -20 38l-168 873q-4 27 -14 27l-8 -4l-10 -17l-2 -5l-256 -700q-11 -30 -11 -51q0 -17 7 -29q21 -33 113 -33q7 0 7 -14 l-5 -32q-12 -47 -27 -47q-133 7 -194 7q-87 0 -220 -7q-7 0 -7 14l5 32q12 47 27 47q93 0 132 26q43 29 72 108l324 880q20 52 20 86q0 66 -81 79q-23 4 -55 4q-6 0 -6 12t5 30q13 46 30 51q47 -5 176 -5q69 0 86 -7q24 -9 37 -36l12 -35q2 -8 4 -17l179 -901q5 -26 20 -26 q12 0 28 20l748 926q49 62 108 72q21 4 95 4q124 0 171 5z" />
<glyph unicode="N" horiz-adv-x="1477" d="M1729 1363q7 0 6 -14q0 -34 -18 -67l-9 -11l-5 -2q-77 0 -105 -11q-45 -16 -69 -68l-14 -37l-324 -1126q-11 -40 -47 -51q-9 -3 -18 -3q-33 0 -50 29l-504 1005q-10 20 -20 21l-9 -3l-7 -10l-4 -9l-228 -804q-8 -27 -8 -47l3 -24q13 -42 90 -45h29q7 0 7 -14l-5 -32 q-12 -47 -27 -47q-133 7 -196 7q-85 0 -218 -7q-7 0 -7 14l5 32q12 47 27 47q90 0 128 21q47 27 67 95l253 894q19 66 19 100q0 52 -46 65q-28 8 -88 8q-6 0 -6 12q0 32 21 68q8 14 14 14q60 -6 159 -6q83 0 102 -5q39 -11 62 -56l445 -901q15 -30 30 -30l9 3q11 7 18 31 l222 754q6 23 6 41q0 69 -103 74l-24 1q-6 0 -6 12l5 29q13 48 30 53q57 -6 196 -6q155 0 212 6z" />
<glyph unicode="O" horiz-adv-x="1511" d="M1567 874q0 -221 -118 -429q-66 -117 -165 -214q-263 -258 -612 -258q-128 0 -250 63q-198 101 -236 313q-9 48 -9 101q0 269 150 495q74 109 181 208q221 204 481 227q41 4 89 4q222 0 347 -131q12 -12 23 -26q119 -141 119 -353zM1330 874q0 181 -89 308 q-74 106 -172 115q-8 1 -16 1h-56q-112 -9 -236 -103q-194 -146 -286 -411q-56 -161 -56 -311q0 -204 106 -322q79 -88 181 -88q263 0 440 254q121 174 167 406q17 85 17 151z" />
<glyph unicode="P" horiz-adv-x="1219" d="M1367 1062q0 -165 -139 -295q-141 -131 -360 -167q-69 -12 -141 -12q-75 0 -133 9h-19l-16 -7q-11 -9 -15 -23l-107 -365q-6 -22 -7 -39l4 -24q14 -48 114 -52q15 -1 40 -1q7 0 7 -14l-5 -32q-12 -47 -27 -47q-133 7 -286 7q-161 0 -294 -7q-7 0 -7 14l5 32q12 47 26 47 q92 0 126 18q47 24 69 98l285 955q7 23 7 39q0 49 -65 62q-31 6 -83 6q-7 0 -7 15q0 21 9 48q12 30 22 30q120 -5 277 -5l300 5h4q214 0 328 -100l28 -28q60 -70 60 -167zM1105 1048q0 106 -72 170l-28 21q-60 38 -148 38q-75 0 -90 -5q-14 -5 -17 -14l-156 -531l-2 -18 l5 -15q9 -14 27 -16q19 -4 59 -4q159 0 277 89q43 32 71 71q74 104 74 214z" />
<glyph unicode="Q" horiz-adv-x="1548" d="M1567 874q0 -221 -118 -429q-66 -117 -165 -214q-121 -119 -261 -183q-23 -11 -23 -24q0 -9 11 -20q162 -154 371 -238q66 -26 132 -43q8 -2 9 -14l-5 -22q-12 -36 -33 -45l-10 -1q-412 83 -934 321l-91 42q-115 52 -190 164q-83 123 -83 282q0 269 150 495 q74 109 181 208q221 204 481 227q41 4 89 4q222 0 347 -131q12 -12 23 -26q119 -141 119 -353zM1330 874q0 181 -89 308q-74 106 -172 115q-8 1 -16 1h-56q-112 -9 -236 -103q-194 -146 -286 -411q-56 -161 -56 -311q0 -204 106 -322q79 -88 181 -88q263 0 440 254 q121 174 167 406q17 85 17 151z" />
<glyph unicode="R" horiz-adv-x="1383" d="M1400 1063q0 -166 -139 -293q-112 -102 -280 -144q-19 -4 -20 -29l1 -11q64 -200 130 -321q23 -42 50 -85q69 -110 134 -137q26 -10 54 -10q15 0 15 -23q0 -27 -21 -31l-92 -4l-77 4l-64 10q-68 16 -104 44q-108 83 -166 212q-6 13 -59 150q-19 50 -37 88l-33 69 q-14 23 -31 30q-8 4 -18 4q-42 0 -69 4l-11 -2q-9 -4 -15 -14q-2 -4 -4 -9l-111 -363q-8 -26 -8 -45q0 -50 63 -63q34 -8 94 -8q7 0 7 -14l-5 -32q-12 -47 -27 -47q-126 7 -278 7q-163 0 -296 -7q-7 0 -7 14l5 32q12 47 26 47q93 0 129 21q43 24 64 95l287 955q7 22 7 39 q0 15 -5 26q-16 40 -107 42h-36q-7 0 -7 15q0 21 9 48q12 30 22 30q120 -5 269 -5l298 5h10q273 0 388 -123q65 -70 65 -171zM1136 1046q0 95 -73 161l-30 23l-38 20q-62 27 -142 27q-74 0 -88 -7q-11 -5 -15 -16l-168 -551l-2 -15q2 -10 19 -14q45 -10 80 -10 q179 0 323 116l27 23q53 48 87 141q20 56 20 102z" />
<glyph unicode="S" horiz-adv-x="1041" d="M1144 1353l-3 -94q-8 -102 -28 -190q-3 -18 -53 -19l-31 2l-13 6q-3 3 -3 7v51q-9 141 -137 175q-35 9 -78 9q-102 0 -186 -92q-76 -85 -85 -185q-1 -11 -1 -21q0 -108 189 -168l6 -2q155 -47 220 -97q28 -22 47 -48q13 -17 22 -35q26 -52 26 -120q0 -193 -132 -349 q-120 -142 -294 -190q-71 -20 -142 -20q-142 0 -232 35q-43 16 -131 63v65q6 150 32 233q2 9 5 15q9 23 56 24l26 -3q16 -5 16 -17q-6 -31 -6 -62q0 -124 82 -197q73 -66 196 -66q97 0 183 93q80 87 93 191q2 16 2 31q0 102 -111 164l-60 28q-14 5 -31 12q-168 62 -234 138 q-59 69 -59 164q0 239 226 406q130 94 319 94q122 0 206 -21q51 -11 59 -12l37 2h2z" />
<glyph unicode="T" horiz-adv-x="1621" d="M1861 1309l-89 -302q-6 -16 -54 -16l-31 4q-15 3 -15 12q16 51 16 92q0 42 -16 73q-39 80 -173 84q-60 1 -275 8q-24 0 -33 -29l-304 -1033q-6 -21 -6 -39q0 -28 16 -45q33 -32 132 -32q7 0 7 -14l-5 -32q-12 -47 -27 -47q-133 7 -281 7q-166 0 -299 -7q-7 0 -7 15 q0 35 19 66q6 12 12 12q87 0 125 16q60 25 81 100l302 1027l3 18q-2 17 -28 17q-227 -6 -261 -8q-255 -10 -326 -249q-6 -16 -56 -17l-31 4q-13 3 -15 13l94 312q8 26 23 32q16 6 78 6l623 -5h45q68 0 660 5h31q66 0 70 -20l-2 -18z" />
<glyph unicode="U" horiz-adv-x="1486" d="M1767 1363q7 0 7 -15q0 -34 -18 -67q-7 -12 -13 -12q-78 0 -111 -15q-40 -18 -63 -62l-15 -38v-1l-86 -283q-104 -338 -135 -418q-67 -172 -142 -261q-49 -57 -116 -103q-170 -115 -412 -115q-153 0 -255 42q-127 54 -157 167q-11 43 -11 102v4q2 90 46 252q3 10 4 14 l182 601q8 28 8 48q0 32 -21 48l-21 10l-35 6q-20 2 -57 2q-7 0 -7 15l4 32q13 47 27 47q60 -6 269 -6q226 0 283 6q7 0 7 -15q0 -34 -18 -66l-8 -11q-3 -2 -5 -2q-80 0 -102 -6l-26 -11l-19 -15l-18 -22q-15 -24 -27 -62l-143 -475l-67 -248q-24 -90 -25 -167q0 -48 12 -76 q37 -91 161 -117q36 -7 74 -7q175 0 298 94q120 93 194 331l6 18l194 647q7 22 7 40l-3 24q-9 27 -39 39q-18 8 -45 11q-20 2 -57 2q-6 0 -6 13l4 30q13 48 29 51q57 -6 235 -6q175 0 232 6z" />
<glyph unicode="V" horiz-adv-x="1348" d="M1639 1362q7 0 7 -14q0 -29 -17 -62l-9 -14q-4 -3 -7 -3q-94 0 -124 -9q-49 -16 -101 -86l-6 -8l-371 -509l-440 -636q-15 -20 -17 -23q-32 -36 -54 -36q-34 0 -48 49q-3 11 -4 23l-74 1119q-6 85 -42 105q-21 11 -84 11q-8 0 -8 20l4 33q9 40 22 40q45 -5 251 -5 q213 0 260 5q8 0 8 -21q0 -42 -16 -65q-5 -7 -9 -7q-86 0 -116 -18q-39 -23 -40 -82q0 -8 1 -16l49 -771q2 -22 12 -22q7 0 17 14q146 199 279 400q6 10 9 14l239 357q35 52 36 82l-4 16q-4 10 -16 16q-18 10 -66 10q-6 0 -6 13q0 34 19 67q8 13 14 13q47 -5 214 -5 q193 0 238 5z" />
<glyph unicode="W" horiz-adv-x="1992" d="M2298 1363q7 0 7 -14q0 -34 -19 -67q-8 -13 -15 -13q-100 0 -135 -17q-34 -16 -80 -78l-6 -8l-866 -1168q-27 -36 -54 -36q-39 0 -52 72l-72 472l-376 -508q-26 -36 -54 -36q-40 0 -51 72l-170 1119q-12 79 -38 99q-22 17 -88 17q-8 0 -8 21q0 41 16 66q4 7 9 7 q60 -6 229 -6q159 0 216 6q8 0 8 -19l-4 -34l-9 -29q-6 -12 -12 -12q-69 0 -85 -23l-6 -17l-2 -32q1 -17 5 -44l122 -802q4 -23 20 -23l13 3q10 6 20 20l224 303l-76 499q-13 85 -46 104l-22 9l-38 3h-5q-8 0 -8 21q0 41 16 66q4 7 9 7q57 -6 218 -6q162 0 219 6q8 0 8 -21 q0 -41 -16 -66q-4 -7 -9 -7q-76 0 -92 -28q-8 -13 -8 -37l5 -51l36 -237l168 229q54 73 54 97l-2 12l-9 7q-15 8 -66 8q-7 0 -7 14q0 34 19 67q8 13 15 13q54 -6 206 -6q143 0 200 6q7 0 7 -14q0 -15 -7 -37l-12 -29q-8 -14 -15 -14q-94 0 -125 -11q-48 -16 -102 -87 q-1 -3 -3 -5l-298 -401l63 -414q3 -23 19 -23l13 3q10 6 21 20l583 794q45 62 45 89q0 23 -29 30l-38 5h-19q-6 0 -6 13l4 30q13 48 29 51q57 -6 205 -6q152 0 209 6z" />
<glyph unicode="X" horiz-adv-x="1375" d="M1639 1363q7 0 7 -15l-4 -32l-12 -32l-9 -12l-6 -3q-104 0 -164 -29q-61 -29 -179 -140l-24 -22l-324 -305q-22 -20 -22 -37l5 -21l2 -5q49 -114 185 -490q31 -83 68 -108q37 -26 138 -26q8 0 7 -18q0 -37 -17 -65q-4 -8 -11 -10q-133 7 -268 7q-140 0 -266 -7 q-8 0 -8 18q0 33 16 63q6 12 12 12q101 0 119 23q7 10 7 24q0 22 -19 69l-138 339q-8 19 -17 19l-10 -4q-3 -1 -6 -4l-269 -257q-135 -126 -135 -172q0 -21 28 -30q22 -7 65 -7q7 0 7 -17l-4 -33q-11 -43 -25 -43q-126 7 -246 7q-107 0 -240 -7q-8 0 -7 18q0 37 17 65 q6 10 11 10q121 0 180 30q38 19 88 66l344 325l148 136q14 14 14 31q0 9 -5 23l-178 433q-35 85 -81 113q-43 26 -118 26q-7 0 -7 19q-1 31 12 59q8 16 15 16q57 -6 281 -6q240 0 297 6q7 0 7 -18q1 -38 -17 -66q-4 -8 -11 -10q-124 0 -142 -43l-4 -20l4 -30l9 -27l103 -277 q5 -14 16 -14l14 3q6 4 12 9l296 281q70 67 70 93q0 25 -68 25q-7 0 -7 15l4 32q13 47 27 47q60 -6 218 -6q161 0 215 6z" />
<glyph unicode="Y" horiz-adv-x="1266" d="M1577 1363q7 0 7 -16q0 -36 -18 -67q-6 -11 -12 -11q-89 0 -136 -23q-52 -26 -152 -129l-69 -73l-378 -403q-35 -37 -56 -102l-9 -31l-89 -308q-9 -27 -9 -47l3 -22q15 -43 112 -45h12q7 0 7 -14l-5 -32q-12 -47 -27 -47q-133 7 -262 7q-132 0 -265 -7q-7 0 -7 14l5 32 q12 47 26 47q88 0 122 26q35 27 58 105l77 256q24 80 24 112q0 29 -21 93l-151 460q-28 86 -62 110q-30 21 -96 21q-7 0 -7 18q-1 38 17 66q6 10 11 10q57 -6 245 -6q204 0 261 6q7 0 7 -18q1 -38 -17 -66q-4 -8 -11 -10q-96 0 -115 -29l-6 -16v-25l9 -40l1 -2l132 -403 q7 -21 20 -23l12 2q10 5 22 17l385 407q48 50 48 76q0 24 -40 32q-21 4 -54 4q-7 0 -7 15q0 33 17 65q8 14 15 14q57 -6 213 -6q153 0 213 6z" />
<glyph unicode="Z" horiz-adv-x="1313" d="M1535 1260l-1198 -1130q-13 -12 -13 -24l3 -10q8 -10 30 -10q349 0 596 13q124 5 247 197l33 57q5 7 19 7q26 0 41 -15l3 -8l-1 -3q-38 -62 -77 -159q-7 -17 -51 -143l-9 -23q-15 -36 -26 -39l-16 -1l-54 10q-135 16 -570 21h-80h-389q-40 0 -51 37l-2 22q2 26 21 44 l1200 1124q17 15 17 28l-2 8l-9 6q-7 2 -17 2h-531q-37 0 -95 -33l-12 -7q-49 -32 -138 -148q-54 -71 -70 -107q-5 -12 -25 -13l-19 3l-12 7q-4 4 -4 8l1 6l65 166l46 142q5 15 11 28q18 42 63 42q18 0 39 -6q77 -8 610 -8l399 8h4q47 0 48 -40l-4 -23l-11 -24 q-5 -7 -10 -12z" />
<glyph unicode="[" horiz-adv-x="724" d="M1104 1530q6 0 6 -12t-5 -31l-14 -33q-11 -20 -20 -20h-276q-19 0 -25 -17l-2 -6l-471 -1640l-4 -23q1 -6 10 -6h301q7 0 8 -15l-5 -30l-12 -33q-9 -18 -17 -18h-506q-20 0 -20 13q0 4 1 9l531 1843q5 19 24 19h496z" />
<glyph unicode="\" horiz-adv-x="716" d="M748 55l-1 -8q-4 -8 -18 -18q-43 -31 -88 -39h-19l-7 4l-1 2l-626 1409l-1 10q5 24 58 46q30 12 52 12q18 0 22 -9z" />
<glyph unicode="]" horiz-adv-x="724" d="M831 1511l-528 -1843q-6 -22 -27 -22h-507q-8 0 -8 17q0 37 19 68q7 11 13 11h305q14 0 21 25l471 1644l2 16q-2 5 -6 6l-6 1h-281q-7 0 -8 16q0 13 5 32q12 48 28 48h493q15 0 16 -9z" />
<glyph unicode="^" horiz-adv-x="1024" d="M1014 549h-164l-293 616h-12l-295 -616h-156l426 854h68z" />
<glyph unicode="_" horiz-adv-x="1024" d="M1061 -266h-1098v121h1098v-121z" />
<glyph unicode="`" horiz-adv-x="569" d="M461 988q4 -11 4 -21q0 -16 -10 -27q-9 -10 -22 -10l-17 3q-15 7 -27 25l-231 289q-4 6 -4 14q0 31 56 66q50 32 89 32q26 0 33 -18z" />
<glyph unicode="a" horiz-adv-x="966" d="M631 -27q-79 0 -79 91q1 62 44 151l-12 6q-96 -119 -198 -183.5t-163 -64.5q-76 0 -118 56t-42 137q0 140 100 318.5t231 269t247 90.5q62 0 107 -31l20 49q9 22 93 22t91 -42l-200 -662q-3 -10 -3 -19q1 -20 23 -20q44 0 102 66q12 12 40.5 -12t15.5 -37 q-158 -185 -299 -185zM715 713q-32 47 -101 47q-79 0 -148.5 -84t-125 -230t-55.5 -219q0 -80 17.5 -98.5t29.5 -18.5q68 0 179 145q109 146 155 298z" />
<glyph unicode="b" horiz-adv-x="929" d="M915 608q0 -196 -123 -365q-123 -170 -316 -236q-100 -34 -206 -34q-150 0 -177 135q-5 26 -5 57q0 46 12 97l228 952q8 34 8 63q0 83 -62 83q-18 0 -19 33l3 22q5 17 16 17q91 0 223 40q49 15 64 15q22 0 22 -19l-3 -20l-189 -795l17 -8q150 186 268 204q16 3 35 3 q104 0 161 -84l19 -34q15 -34 21 -75q3 -24 3 -51zM696 618q0 101 -54 112q-5 1 -11 1q-74 0 -173 -131q-95 -125 -139 -265l-6 -18q-24 -84 -24 -148q0 -106 71 -106q117 0 213 146q90 134 116 312q7 51 7 97z" />
<glyph unicode="c" horiz-adv-x="743" d="M780 737q0 -46 -47 -76q-27 -18 -55 -18q-41 0 -60 31q-11 58 -31 77q-19 19 -50 19q-89 0 -159 -131q-66 -123 -76 -273q-1 -18 -1 -36q0 -138 53 -203q31 -37 74 -37q68 0 136 55l18 13l10 3q18 -1 34 -23q6 -9 6 -16q0 -6 -3 -9q-46 -46 -48 -47q-104 -93 -247 -93 q-119 0 -187 96q-55 79 -55 195q0 160 105 325q98 151 231 221q81 42 160 42q102 0 159 -50q33 -29 33 -65z" />
<glyph unicode="d" horiz-adv-x="985" d="M1085 1448l-303 -1268l-3 -22q2 -17 22 -17q24 0 70 59l22 27q3 4 8 4l15 -4q25 -12 33 -33v-11q0 -2 -1 -3q-98 -136 -196 -186q-41 -21 -78 -21q-77 0 -92 78q-4 23 -4 59q0 25 16 98q1 4 2 7l-12 6q-186 -218 -326 -245q-18 -3 -35 -3q-106 0 -145 109q-15 43 -15 90 q0 132 95 306q101 186 244 289q117 85 231 85q57 0 108 -31l93 389q9 41 9 70q0 80 -61 80q-18 0 -19 33l3 22q5 17 16 17q92 0 224 40q47 15 61 15q21 0 21 -18zM715 711q-43 59 -101 59q-103 0 -201 -164q-84 -139 -117 -303q-11 -56 -11 -98q0 -70 30 -90q8 -5 17 -5 q56 0 155 105q96 101 164 229z" />
<glyph unicode="e" horiz-adv-x="751" d="M778 713q0 -164 -259 -282q-102 -46 -220 -75q-16 -75 -16 -104q0 -148 92 -148q63 0 159 72l41 31l10 1q21 -2 37 -24q5 -8 5 -14l-2 -6q-147 -191 -308 -191q-217 0 -237 212q-2 22 -2 46q0 133 99 299t235 255q102 67 198 67q152 0 167 -116q1 -11 1 -23zM573 688 q0 52 -26 64q-6 2 -12 2q-93 0 -189 -250q-10 -26 -20 -55q101 32 175 99q72 66 72 140z" />
<glyph unicode="f" horiz-adv-x="624" d="M1026 1268q0 -94 -65 -115l-27 -4h-2q-55 0 -84 37q-19 23 -19 57q0 68 -2 80q-10 49 -57 57l-22 2q-67 0 -127 -85l-13 -19q-56 -88 -93 -275l-30 -160h256q6 0 6 -13l-5 -30q-14 -52 -31 -62q-2 -1 -4 -1h-244l-168 -833q-32 -155 -96 -279q-24 -47 -43 -65 q-120 -111 -252 -111q-111 0 -165 65q-26 31 -26 62q0 62 48 92q21 13 44 13q59 0 86 -56q26 -50 38 -61q13 -11 28 -11q58 0 86 95q6 20 23 102l200 987h-180q-6 0 -6 13l5 31q14 54 34 62h168q50 228 82 313q30 78 69 130q132 178 361 178q126 0 189 -81q38 -49 38 -115z " />
<glyph unicode="g" horiz-adv-x="868" d="M973 754q0 -56 -30 -80q-13 -10 -30 -10q-33 0 -110 29q-20 8 -33 12q14 -37 14 -91q0 -149 -95 -269q-96 -120 -247 -152q-23 -5 -59 -5q-24 -14 -43 -53q-9 -17 -9 -29q0 -25 85 -68l165 -80q182 -97 216 -201q8 -25 8 -52q0 -131 -205 -206q-144 -53 -310 -58h-20 q-148 0 -256 58q-120 64 -120 179q0 95 177 178q27 13 167 68q-68 37 -89 82q-6 14 -6 27q0 57 117 141q17 13 33 23q-122 29 -176 116q-31 49 -31 111q0 165 126 286q120 115 295 137q36 5 71 5q41 0 106 -26q11 -5 18 -7l56 -23q12 -3 24 -3q15 0 91 15q29 6 47 6 q44 0 52 -45zM606 715q0 29 -25 38q-7 3 -16 3q-73 0 -160 -105q-91 -109 -124 -240q-13 -50 -13 -92q0 -29 33 -39q9 -2 18 -2q80 0 166 114q84 111 112 244q9 42 9 79zM596 -324q0 60 -148 142q-62 35 -124 59q-69 0 -141 -62q-69 -59 -72 -120q0 -79 128 -120 q77 -25 154 -25q194 0 203 115v11z" />
<glyph unicode="h" horiz-adv-x="942" d="M932 610q0 -137 -67 -295l-34 -77q-95 -211 -240 -255q-34 -10 -69 -10q-75 0 -118 53q-25 31 -25 66q0 75 52 102q20 10 46 10q73 0 94 -81q8 -33 33 -33q33 0 73 136q12 42 19 81q33 160 33 281q0 65 -33 107q-21 26 -49 26q-95 0 -246 -225q-38 -57 -84 -239 q0 -1 -4 -17l-61 -244q-6 -23 -72 -23q-74 0 -111 22q-12 7 -12 19l289 1203q8 33 8 62q0 81 -61 81q-19 0 -19 33l3 22q5 17 16 17q95 0 228 41q47 14 61 14q18 0 19 -19l-3 -20l-188 -799l16 -10q141 197 281 212q12 1 24 1q155 0 191 -152q10 -40 10 -90z" />
<glyph unicode="i" horiz-adv-x="534" d="M662 1319q0 -74 -59 -116q-36 -25 -81 -25q-75 0 -116 59q-25 36 -25 82q0 72 57 114q37 26 84 26q72 0 113 -57l15 -26q12 -27 12 -57zM498 174q-145 -168 -245 -195q-23 -6 -44 -6q-65 0 -84 74q-7 24 -6 52q0 36 10 69l147 479l3 20q-1 21 -19 21q-23 0 -96 -82 q-3 -3 -8 -3q-19 0 -39 27q-8 11 -8 19q0 4 2 6q140 164 242 191q24 6 46 6q64 0 84 -72q5 -18 6 -40l-2 -43q-3 -18 -8 -35l-147 -482l-4 -21l4 -12q4 -6 12 -6q28 0 83 63q11 13 15 17q4 3 10 3q20 0 40 -26q7 -10 8 -18z" />
<glyph unicode="j" horiz-adv-x="491" d="M581 1298q0 -64 -54 -102q-34 -25 -76 -25q-67 0 -107 53q-25 34 -25 74q0 66 54 105q35 26 78 26q66 0 105 -54q25 -35 25 -77zM465 666l-123 -523q-44 -185 -69 -257q-65 -187 -173 -306q-118 -127 -295 -133h-14q-56 0 -86 40q-16 22 -16 52q0 57 56 82q23 10 48 10 q32 0 67 -36q31 -33 47 -38q8 -3 17 -3q44 0 86 86q26 53 45 131l209 876l2 22q-2 19 -18 19q-27 0 -81 -64l-17 -20q-3 -3 -7 -3l-14 4q-23 12 -33 32l-2 11q1 2 2 3q167 198 285 201q75 0 89 -85l3 -41q-1 -29 -8 -60z" />
<glyph unicode="k" horiz-adv-x="929" d="M950 86q-35 -42 -91 -77q-59 -36 -111 -36q-98 0 -149 38q-37 28 -83 98l-137 210q-16 19 -35 21q-10 0 -15 -22l-1 -5l-76 -319q-6 -21 -66 -21q-70 0 -113 21q-16 8 -16 18l291 1202q7 32 7 60q0 85 -62 86q-19 0 -19 33l3 22q5 17 16 17q93 0 227 41q48 14 62 14 q19 0 19 -18l-3 -21l-174 -731l16 -8q68 80 166 120q54 23 101 23q91 0 133 -57l14 -24q12 -28 12 -64q0 -118 -202 -251q-54 -36 -111 -65l141 -196q48 -64 97 -93q20 -12 34 -12q38 0 74 41l8 3q18 -1 37 -25q8 -9 8 -16zM659 684q0 46 -28 54l-8 1q-98 0 -203 -129 q-30 -35 -37 -63l-37 -154q183 19 268 152q45 71 45 139z" />
<glyph unicode="l" horiz-adv-x="497" d="M592 1448l-299 -1268l-1 -20q2 -19 19 -19q34 0 92 86q3 5 9 5l15 -4q23 -11 33 -32l2 -11l-1 -3q-160 -209 -281 -209q-70 0 -89 79q-5 23 -5 48q0 28 6 56l248 1054q10 41 10 72q0 78 -61 78q-19 0 -19 33l3 22q5 17 16 17q92 0 222 40q48 15 62 15q22 0 22 -19z" />
<glyph unicode="m" horiz-adv-x="1525" d="M1489 178q-173 -204 -299 -205q-65 0 -85 75q-6 22 -5 49q0 37 10 71l127 412q25 84 25 122q0 41 -27 41q-73 0 -212 -216q-27 -42 -52 -85q-72 -123 -182 -386q-23 -54 -27 -64q-10 -19 -68 -19q-79 0 -112 24q-11 8 -12 17l1 6l158 515q42 138 43 172q0 36 -24 36 q-75 0 -230 -239q-6 -9 -12 -19q-79 -127 -214 -438q-16 -36 -22 -51q-12 -23 -67 -23q-64 0 -106 25q-17 10 -18 21q0 2 1 4l184 591q12 45 12 50q0 24 -18 24q-23 0 -82 -68l-12 -14q-3 -3 -8 -3q-19 0 -39 27q-8 11 -8 19q0 4 2 6q117 137 196 176q43 21 84 21 q77 0 88 -83q2 -12 2 -26q0 -34 -10 -67l-51 -172l10 -4q105 189 226 285q85 67 159 67q133 0 133 -133q0 -70 -43 -215l10 -4q93 178 218 277q95 75 180 75q142 0 142 -141q0 -68 -30 -164l-112 -371l-4 -22l3 -10q4 -5 11 -5q38 0 101 74q10 11 12 14q3 3 7 4l14 -4 q24 -12 32 -34l2 -11z" />
<glyph unicode="n" horiz-adv-x="1024" d="M987 176q-120 -151 -233 -191q-34 -12 -64 -12q-64 0 -84 75q-6 23 -6 51q0 36 10 69l125 412q31 99 31 131t-18 32q-85 0 -228 -230l-37 -62q-117 -206 -211 -455q-9 -23 -63 -23q-72 0 -111 24q-16 10 -17 21l1 5l186 598q11 39 11 45q0 19 -19 22q-25 0 -84 -69 l-12 -13q-3 -3 -8 -3q-19 0 -39 27q-8 11 -8 19q0 4 2 6q124 145 210 181q37 16 72 16q67 0 84 -66l5 -33v-5q0 -34 -17 -82l-57 -162l12 -4q103 194 231 289q85 63 160 63q133 0 142 -123l1 -18q0 -70 -28 -164l-111 -367l-3 -20q1 -19 17 -19q25 0 98 79l5 5q3 3 7 3 l13 -3q23 -12 34 -33l3 -12z" />
<glyph unicode="o" horiz-adv-x="948" d="M909 528q0 -159 -92 -307q-103 -166 -272 -223q-73 -25 -154 -25q-169 0 -239 148q-39 82 -39 194q0 153 110 301q105 141 250 202q80 34 158 34q179 0 246 -151q32 -74 32 -173zM731 618q0 104 -48 123l-26 6l-16 1q-84 0 -187 -144q-94 -132 -139 -284 q-20 -69 -20 -117q0 -106 81 -116q7 -1 15 -1q77 0 179 142q95 133 140 279q21 67 21 111z" />
<glyph unicode="p" horiz-adv-x="911" d="M901 516q0 -172 -130 -324q-116 -136 -278 -192q-80 -27 -157 -27q-21 0 -57 4l-93 -378l-4 -32l4 -20q13 -29 88 -32h25q8 0 8 -14l-4 -26l-10 -23q-7 -11 -14 -11q-84 8 -209 8q-136 0 -220 -8q-8 0 -8 13q0 24 15 48q9 13 16 13q64 0 90 25q19 18 27 50l262 1080 q-36 -19 -115 -82l-8 -3q-18 2 -36 29q-7 11 -8 18l3 7q73 70 162 123q13 8 24 14l52 236q6 30 85 53q45 13 82 13q44 0 44 -20q1 -3 0 -5l-50 -213q54 4 68 4q155 0 253 -95q93 -89 93 -233zM686 481q0 189 -95 242l-29 12l-34 6h-12q-25 0 -55 -6l-158 -649v-12 q5 -19 37 -19q128 0 231 123q89 107 110 244q5 30 5 59z" />
<glyph unicode="q" horiz-adv-x="980" d="M1016 840q-18 -45 -86 -324l-213 -885l-4 -29q1 -38 56 -38q18 0 44 4l6 -2l4 -11l-1 -27q-7 -37 -21 -38q-85 0 -195 -12q-107 -13 -229 -37l-6 2q-4 5 -4 16q0 26 13 48q6 11 13 12q77 8 106 54q13 21 21 54l152 631l-10 8q-240 -269 -399 -291q-15 -2 -30 -2 q-112 0 -153 100q-17 40 -17 87q0 136 85 301q103 200 267 305q136 86 290 86q51 0 96 -38q20 -17 28 -34l62 107q9 16 38 16q44 0 74 -26q15 -13 15 -27q0 -5 -2 -10zM739 627q0 143 -84 143q-110 0 -223 -191q-89 -150 -132 -323q-16 -66 -16 -106q0 -44 33 -51 q7 -1 17 -1q47 0 145 84q131 112 204 249q56 106 56 196z" />
<glyph unicode="r" horiz-adv-x="768" d="M850 739q0 -78 -57 -98q-15 -6 -33 -6q-46 0 -78 29q-25 23 -41 27q-7 1 -14 1q-35 0 -106 -117q-47 -78 -91 -178q-62 -149 -111 -339q-8 -34 -14 -62q-6 -23 -67 -23q-76 0 -116 23q-13 8 -13 18l122 584q13 55 13 66q0 24 -17 24q-28 0 -78 -68l-18 -24q-3 -4 -9 -4 l-16 4q-25 13 -34 32l-1 9l1 2q158 213 286 213q76 0 84 -78q1 -9 1 -18q0 -34 -9 -72l-26 -117l12 -4q143 289 293 289q71 0 111 -46l15 -21q11 -21 11 -46z" />
<glyph unicode="s" horiz-adv-x="618" d="M637 707q0 -38 -35 -69q-23 -20 -45 -20q-66 0 -115 62l-8 10q-22 32 -27 37l-17 10l-24 7q-9 1 -20 1q-34 0 -47 -32q-4 -9 -4 -19q0 -34 33 -77l89 -109q10 -12 19 -25q74 -97 93 -150q14 -40 14 -83q0 -113 -103 -201q-82 -71 -209 -76h-16q-86 0 -141 62 q-33 37 -33 74q0 53 33 84q24 22 59 22q54 0 97 -41l28 -29q30 -31 39 -36q21 -13 61 -13q42 0 49 49q1 8 1 15q0 35 -65 109q-56 63 -67 77q-90 122 -99 218q-1 8 -1 14q0 74 22 118q19 38 58 78q66 71 196 77h15q79 0 134 -63q36 -41 36 -81z" />
<glyph unicode="t" horiz-adv-x="604" d="M707 713h-248l-148 -480q-14 -45 -14 -71q0 -34 27 -37q48 0 153 113l74 79q3 3 7 3q19 0 37 -26q8 -11 9 -19l-2 -9q-128 -176 -223 -239q-82 -54 -170 -54q-75 0 -110 68q-15 31 -15 63q0 43 10 76l166 533h-160q-12 0 -12 24l4 24q8 27 27 32l176 36l139 197q5 7 27 7 t45 -6q39 -11 40 -28q0 -2 -1 -4l-56 -176h240q8 0 8 -21q0 -42 -18 -74l-8 -10q-2 -1 -4 -1z" />
<glyph unicode="u" horiz-adv-x="1019" d="M1004 817l-181 -586q-20 -60 -20 -69q0 -21 22 -21q28 0 80 57q19 21 25 27q3 3 7 3q18 -1 39 -27q9 -12 9 -20q0 -3 -2 -5q-99 -130 -208 -180q-49 -23 -91 -23q-63 0 -85 69q-7 24 -7 52q0 36 12 76l45 152q-129 -175 -256 -276q-93 -73 -149 -73q-114 0 -124 104 q-1 9 -1 19q0 47 20 113l127 407l15 45v3q0 21 -21 24q-25 0 -87 -72q-8 -9 -11 -12q-4 -4 -10 -4q-18 1 -37 26q-8 11 -8 19q0 4 2 6q134 173 255 197q18 4 35 4q71 0 87 -82q4 -20 4 -43q0 -35 -17 -88l-96 -307q-37 -114 -37 -158q0 -41 22 -41q61 0 201 201 q69 99 125 201q50 89 115 277q4 11 6 17q5 20 83 23h11q69 0 95 -20l6 -9v-6z" />
<glyph unicode="v" horiz-adv-x="843" d="M868 707q0 -159 -97 -346q-78 -148 -179 -236q-174 -152 -320 -152q-102 0 -138 83q-13 31 -13 66q0 28 8 52l127 408q21 67 22 74q1 6 1 10q0 22 -17 22q-27 0 -87 -69l-11 -13q-3 -3 -8 -3q-19 0 -39 27q-8 11 -8 19q0 4 2 6q140 164 242 191q24 6 46 6q68 0 86 -78 q4 -21 4 -45q0 -36 -10 -67l-139 -447q-9 -28 -9 -55q0 -20 5 -35q12 -37 51 -37q68 0 170 123l4 4q85 101 123 251q14 58 14 101q0 83 -43 171l-6 12q0 87 76 100q11 2 23 2q82 0 110 -82l8 -36q2 -14 2 -27z" />
<glyph unicode="w" horiz-adv-x="1259" d="M1284 707q0 -124 -79 -298q-85 -188 -201 -286q-173 -148 -316 -150q-102 0 -137 85l-6 18q-148 -103 -273 -103q-108 0 -142 75q-11 25 -11 56q0 34 12 70l125 406q23 69 23 92q0 13 -17 16q-27 0 -92 -76l-6 -6q-3 -3 -8 -3l-14 4q-24 13 -31 35l-1 12q1 3 3 5 q122 141 211 177q39 16 75 16q73 0 87 -85q3 -16 3 -34q0 -39 -10 -74l-139 -446q-8 -24 -8 -55q0 -69 53 -70q67 0 135 101q17 26 39 65q31 61 51 127l133 442q6 16 65 25q21 4 42 4q60 0 85 -19q5 -4 5 -10l-188 -612q-8 -26 -8 -50q-1 -22 6 -39q14 -34 49 -34 q54 0 130 75q33 33 64 77q87 120 113 259q6 34 6 62q0 97 -49 182q0 109 102 109q88 0 112 -93q7 -25 7 -52z" />
<glyph unicode="x" horiz-adv-x="901" d="M954 743q0 -82 -44 -108q-14 -8 -31 -8q-44 0 -62 36q-15 30 -18 33l-11 7q-5 2 -12 2q-40 0 -90 -70l-131 -178l98 -193q38 -75 45 -85q14 -18 25 -18q31 0 76 99l2 4q4 9 19 10l20 -4q20 -7 20 -20q-41 -225 -136 -268l-26 -8q-8 -1 -16 -1q-75 0 -139 98 q-15 23 -31 54l-86 158l-98 -136q-129 -174 -228 -174q-92 9 -96 88q0 73 42 115q22 22 46 22q37 0 61 -43l15 -25q5 -5 10 -5q34 0 67 46l7 9l133 182l-111 216q-37 73 -45 82q-8 10 -14 10q-19 0 -48 -57l-17 -33q-3 -5 -11 -5q-22 0 -43 20q-9 9 -8 19q59 143 127 205 q37 33 70 33q76 0 135 -121l96 -194l90 125q116 160 202 185q19 5 38 5q90 0 105 -80z" />
<glyph unicode="y" horiz-adv-x="782" d="M809 768q0 -70 -46 -226q-56 -192 -155 -382l-127 -246q-70 -127 -155 -244q-166 -225 -330 -225q-80 0 -124 48q-24 27 -24 61q0 82 64 103q17 5 37 5q39 0 63 -36q22 -35 28 -41q19 -17 48 -17q31 0 82 45q111 98 137 281q3 22 6 55q4 66 4 123q0 509 -71 598 q-14 16 -29 16q-37 0 -77 -70l-23 -43q-3 -6 -13 -6q-22 0 -42 18q-10 8 -9 19q112 248 244 248q97 0 155 -172q52 -155 52 -371q0 -98 -10 -190l12 -4q44 83 91 244q6 20 9 34q41 153 41 252q0 48 -21 97q-5 12 -5 18q0 66 60 86q16 6 32 6q55 0 82 -37l10 -19l4 -25v-3z " />
<glyph unicode="z" horiz-adv-x="917" d="M940 770l-522 -543q-11 -12 -11 -23q0 -15 19 -18q83 -13 152 -39q14 -5 85 -46q52 -29 76 -29q38 0 49 34q3 10 3 21q0 20 -23 41q-29 28 -35 59q-2 12 -2 27q0 47 47 66q19 8 41 8q68 0 95 -62q10 -24 10 -51q0 -85 -60 -165q-10 -14 -22 -27q-78 -81 -176 -82 q-62 0 -200 62q-120 54 -158 61q-13 2 -23 2q-57 0 -118 -64q-17 -20 -20 -22q-4 -5 -12 -5l-16 4q-35 15 -65 59q-17 24 -17 40q0 9 6 14l95 85l28 28l395 413q10 13 11 23l-3 11q-5 7 -16 12q-88 32 -193 32h-20q-53 -3 -53 -22q0 -10 24 -31q41 -36 42 -76q0 -49 -45 -72 q-23 -12 -52 -12q-63 0 -91 53q-11 21 -11 44q0 98 67 163q100 93 228 98h10q53 0 160 -31q82 -24 124 -24q54 0 88 40l25 28q5 5 14 5q10 0 23 -7q26 -15 42 -42q10 -16 10 -27l-3 -11z" />
<glyph unicode="{" horiz-adv-x="784" d="M1114 1493q7 0 7 -14l-4 -28l-11 -24l-8 -9l-4 -1q-134 0 -197 -38q-79 -50 -119 -195l-63 -234q-39 -143 -70 -199q-42 -75 -120 -121l-27 -14q74 -53 74 -145q0 -43 -14 -108q-6 -25 -15 -58l-72 -266q-28 -106 -28 -161q0 -79 60 -104q44 -18 146 -18q9 0 9 -16 q0 -30 -18 -52q-6 -7 -11 -7q-176 0 -236 10q-126 23 -153 113q-9 29 -9 67q0 57 21 135l113 424q10 39 10 66q0 76 -83 88q-17 2 -38 2q-10 0 -10 15q1 27 17 42q4 4 9 4q119 0 167 84q15 27 26 66l88 325q58 218 160 297q78 60 230 70q54 4 173 4z" />
<glyph unicode="|" horiz-adv-x="536" d="M197 -334v1767h195v-1767h-195z" />
<glyph unicode="}" horiz-adv-x="784" d="M870 647q10 0 10 -15q-1 -27 -17 -42q-4 -4 -9 -4q-118 0 -166 -84l-18 -38l-11 -34l-114 -424q-57 -211 -194 -280q-86 -42 -256 -45h-101q-9 0 -9 16q0 30 18 52q6 7 11 7q139 0 200 39q66 42 107 167q12 33 23 77l70 266q38 150 94 218q44 55 117 93q-74 50 -74 140 q0 54 37 194l61 234q17 64 17 107q0 32 -9 54q-13 36 -52 53q-44 19 -146 19q-7 0 -7 14q-1 17 8 38q9 24 19 24q195 0 262 -16q101 -24 124 -105q8 -29 8 -67q0 -72 -29 -183l-86 -325q-9 -36 -9 -62q-1 -23 7 -40q21 -48 114 -48z" />
<glyph unicode="~" horiz-adv-x="743" d="M735 518l-77 -87q-84 -85 -177 -85q-52 0 -145 44q-89 42 -129 47q-10 1 -19 1q-46 0 -112 -56l-16 -14l-1 -1q-4 -4 -11 -4l-14 3q-23 11 -30 33l-1 12q1 3 3 5l63 72q83 85 191 85q52 0 148 -45q86 -41 122 -44q6 -1 11 -1q46 0 95 42q35 30 44 36l11 2q23 -2 40 -24 l7 -12l-2 -8z" />
<glyph unicode="&#xa2;" horiz-adv-x="880" d="M975 1030l-3 -30q-12 -63 -57 -95q-44 -35 -74 -35l-17 3q-16 6 -29 26q-2 3 -15 46q-13 41 -37 59l-276 -625q39 -21 72 -21q117 0 200 50l23 14l11 2q16 -1 27 -27q7 -16 7 -33l-4 -17l-6 -8q-1 0 -2 -1l-101 -55q-131 -64 -278 -64h-21l-84 -190q-3 -6 -23 -6 q-44 0 -74 16q-9 4 -9 10l86 195q-112 49 -153 165q-19 52 -19 113q0 157 118 321q30 44 66 81q143 147 317 185q30 6 60 9l84 193q3 6 22 7q19 0 43 -6q40 -10 41 -22l-77 -174q117 -13 165 -60q13 -12 17 -26zM635 1018q-95 -29 -178 -156q-79 -122 -90 -241 q-2 -15 -2 -29q0 -65 26 -125z" />
<glyph unicode="&#xa3;" horiz-adv-x="1081" d="M1139 1167q0 -30 -27 -72q-18 -28 -39 -40q-15 -8 -31 -8q-26 0 -49 47l-35 70q-27 44 -61 61q-24 12 -55 12q-139 0 -174 -447l-9 -127h289q10 0 10 -23q0 -34 -14 -58q-6 -11 -12 -11h-287q-22 -144 -148 -281q-49 -53 -104 -93l42 2q77 -4 183 -69q83 -50 106 -59 t42 -9q50 0 50 95l-1 52q0 73 52 91q14 5 32 5q71 0 101 -68q12 -27 12 -55q0 -122 -151 -190q-102 -45 -208 -45q-98 0 -231 63l-141 67q-25 11 -48 19q-42 -9 -63 -50q-20 -41 -24 -46q-25 -31 -83 -31q-56 0 -89 34q-19 21 -19 48q0 81 173 129q50 14 99 21 q93 13 148 189q27 88 35 181h-217q-8 0 -8 18q0 36 18 64q6 10 12 10h207q28 230 76 349q41 103 106 172q132 139 303 139q169 0 216 -88q16 -29 16 -68z" />
<glyph unicode="&#xa4;" horiz-adv-x="1024" d="M946 668q0 -145 -88 -262l78 -78l1 -7q-4 -22 -44 -57l-24 -18l-13 -4q-2 0 -4 2l-78 78q-118 -89 -260 -89q-145 0 -262 91l-80 -80l-7 -2q-21 4 -57 45q-21 24 -22 36q0 3 2 5l80 80q-88 114 -88 260q0 145 88 260l-80 80l-1 7q4 21 44 57q25 21 36 22q3 0 5 -2l80 -80 q118 90 260 90q144 0 262 -88l78 78l7 1q21 -4 57 -44l17 -24l5 -14l-2 -3l-78 -78q88 -118 88 -262zM825 668q0 130 -92 221q-91 90 -221 90q-129 0 -221 -92l-28 -32q-62 -83 -62 -187q0 -129 91 -221q91 -91 220 -91q131 0 222 92q91 91 91 220z" />
<glyph unicode="&#xa5;" horiz-adv-x="1359" d="M1692 1462q7 0 8 -17l-5 -33q-12 -50 -28 -50q-95 0 -147 -26q-58 -30 -165 -141l-71 -75l-190 -204l202 2q7 0 7 -16q0 -38 -21 -79l-11 -15l-5 -3h-277l-110 -117q-33 -32 -48 -79l383 1q6 0 7 -12l-3 -30q-5 -22 -13 -42q-12 -27 -21 -28h-389l-82 -283 q-10 -31 -10 -53l3 -24q14 -40 97 -45q16 -1 37 -1q7 0 7 -16q0 -19 -9 -46q-12 -38 -25 -38q-80 8 -270 8q-215 0 -295 -8q-7 0 -8 16l5 32q12 49 29 52q105 0 147 47q27 30 46 94l80 265l-377 2q-7 0 -7 15q0 23 12 56q14 38 26 38h377q-4 56 -25 118l-27 78l-274 2 q-7 0 -7 15l5 32q13 54 33 62h206l-98 305q-28 90 -79 120q-36 21 -91 21q-8 0 -8 19q0 40 18 70q7 11 13 11q60 -6 272 -6q210 0 270 6q8 0 8 -19q0 -40 -18 -70q-6 -11 -12 -11q-101 0 -122 -30q-9 -13 -9 -33q0 -22 12 -58l141 -432q9 -24 24 -25l14 4q9 5 20 17l413 436 q52 54 52 82l-3 14q-3 6 -10 10l-21 9l-40 5l-27 1q-7 0 -7 16q0 19 9 46q12 38 25 38q60 -6 229 -6q165 0 228 6z" />
<glyph unicode="&#xa6;" horiz-adv-x="581" d="M467 795h-195v577h195v-577zM467 109h-195v579h195v-579z" />
<glyph unicode="&#xa7;" horiz-adv-x="1048" d="M1075 1278q0 -86 -58 -107q-15 -6 -34 -6q-30 0 -52 49l-31 71q-20 37 -48 49q-13 5 -29 5q-123 0 -147 -101q-8 -31 -8 -75q0 -86 41 -207q19 -60 93 -227q77 -172 91 -277q4 -32 4 -63q0 -119 -68 -219q-72 -109 -215 -231q-207 -177 -369 -208q-29 -5 -55 -5 q-96 0 -160 60q-55 52 -55 128q0 48 39 66q15 6 33 6q30 0 73 -47q49 -54 65 -68q45 -36 96 -36q131 0 154 117q5 23 5 50q0 60 -41 188q-20 65 -92 227q-76 171 -91 273q-5 36 -5 70q0 183 185 383q90 98 198 170q197 128 299 128q80 0 136 -55q46 -46 46 -108zM692 342 q0 106 -88 320l-57 137q-39 101 -46 171q-1 6 -1 9q0 119 14 174q-106 -134 -106 -307q0 -126 78 -307l78 -181q46 -117 46 -200q0 -81 -24 -140q106 114 106 324z" />
<glyph unicode="&#xa9;" horiz-adv-x="1611" d="M1532 748q0 -244 -148 -438q-59 -76 -134 -134q-194 -149 -439 -149q-244 0 -437 148q-179 137 -249 350q-35 108 -35 223q0 243 148 437q137 178 350 248q108 35 223 35q243 0 437 -148q179 -137 249 -349q35 -108 35 -223zM1430 748q0 218 -137 388q-128 158 -324 210 q-77 20 -158 20q-218 0 -388 -136q-159 -128 -211 -324q-20 -77 -20 -158q0 -218 137 -388q128 -159 324 -211q77 -20 158 -20q218 0 388 137q159 128 211 324q20 77 20 158zM1108 561q-3 -37 -34 -109l-18 -38l-3 -4q-32 -7 -47 -11q-90 -24 -191 -24q-163 0 -274 105 q-105 100 -111 242v15q0 167 107 279q112 116 288 116q71 0 197 -26q10 -2 43 -2q17 -37 22 -162v-14q0 -11 -28 -12l-18 3q-4 2 -5 5q-15 154 -197 161h-16q-126 0 -195 -113q-53 -86 -53 -204q0 -195 114 -290q63 -52 132 -52q186 0 236 149q2 6 13 6q23 0 35 -13z" />
<glyph unicode="&#xad;" horiz-adv-x="4194" />
<glyph unicode="&#xae;" horiz-adv-x="1611" d="M1532 748q0 -244 -148 -438q-59 -76 -134 -134q-194 -149 -439 -149q-244 0 -437 148q-179 137 -249 350q-35 108 -35 223q0 243 148 437q137 178 350 248q108 35 223 35q243 0 437 -148q179 -137 249 -349q35 -108 35 -223zM1430 748q0 218 -137 388q-213 230 -482 230 q-235 0 -388 -136q-231 -206 -231 -482q0 -218 137 -388q211 -231 482 -231q225 0 388 137q231 194 231 482zM1091 922q0 -121 -151 -181q-12 -5 -10 -11l3 -11q18 -67 177 -230q55 -57 96 -63q15 -2 15 -18q0 -17 -13 -17l-65 -1q-66 -1 -111 28q-80 50 -153 157l-58 82 q-40 56 -68 58q-30 2 -42 2q-13 0 -13 -12v-195q0 -50 42 -58q16 -3 40 -3q10 0 10 -27q0 -25 -7 -25q-82 4 -138 4q-83 0 -164 -4q-9 0 -9 25q0 24 7 24q88 0 88 64v510q0 53 -65 58q-12 1 -27 1q-7 0 -7 24q0 25 7 25q77 -2 156 -2q40 0 162 4q176 0 253 -87 q45 -50 45 -121zM954 922q0 66 -62 121q-52 44 -149 44q-45 0 -45 -19v-284q0 -17 13 -20q29 -6 47 -6q113 0 158 53q38 43 38 111z" />
<glyph unicode="&#xb0;" horiz-adv-x="735" d="M807 1047q0 -137 -102 -212q-73 -53 -173 -53q-127 0 -205 82q-69 72 -69 183q0 127 95 203q76 60 179 60q122 0 202 -81q73 -73 73 -182zM662 1047q0 96 -63 139q-30 20 -67 20q-67 0 -104 -61q-25 -41 -25 -98q0 -96 61 -139q31 -22 68 -22q67 0 105 61q25 42 25 100z " />
<glyph unicode="&#xb1;" horiz-adv-x="1134" d="M993 629h-299v-342h-180v342h-301v147h301v305h180v-305h299v-147zM993 -6h-780v147h780v-147z" />
<glyph unicode="&#xb4;" horiz-adv-x="917" d="M724 1259l-323 -306q-23 -22 -47 -23l-17 3q-16 8 -17 28l4 19q5 13 16 27l251 348q15 18 39 19l24 -4q43 -14 68 -54q12 -18 12 -33q0 -14 -10 -24z" />
<glyph unicode="&#xb6;" horiz-adv-x="1153" d="M1298 1473q9 0 9 -17l-4 -26l-10 -22q-6 -11 -13 -11q-61 0 -88 -12q-39 -18 -51 -62l-430 -1606q-4 -15 -83 -15l-50 3l-18 5q-3 2 -3 5l432 1608l4 25q-1 41 -47 48q-7 1 -14 1q-81 0 -104 -63l-3 -11l-434 -1608q-4 -13 -79 -13q-62 -1 -72 13l262 979h-25l-69 3 q-193 20 -259 153q-30 59 -30 137q0 181 148 319q127 118 303 155q59 12 116 12q42 0 338 -7q46 -1 84 -1q137 0 190 8z" />
<glyph unicode="&#xb7;" horiz-adv-x="571" d="M492 522q0 -75 -61 -123q-44 -34 -99 -34q-78 0 -125 61q-33 43 -33 96q0 78 61 126q42 34 97 34q77 0 125 -61q35 -43 35 -99z" />
<glyph unicode="&#xc1;" horiz-adv-x="1164" d="M1277 1784l-323 -306q-23 -22 -47 -23l-17 3q-16 8 -17 28l4 19q5 13 16 27l251 348q15 18 39 19l24 -4q43 -14 68 -54q12 -18 12 -33q0 -14 -10 -24zM1076 1313l-29 -140q-2 -12 -3 -24l-117 -947l-1 -39q5 -62 71 -73q21 -4 54 -4q8 0 8 -18q0 -33 -16 -63 q-6 -12 -12 -12q-140 7 -226 7q-103 0 -236 -7q-8 0 -8 18q0 15 5 34q11 41 24 41q69 0 94 26q24 26 32 90l36 283l-1 20q-2 11 -14 15q-8 3 -21 3h-246q-31 0 -48 -29l-189 -294q-23 -36 -24 -60l3 -18q15 -36 118 -36q8 0 8 -18q0 -37 -18 -65q-6 -10 -11 -10 q-133 7 -234 7q-86 0 -226 -7q-8 0 -7 18q0 37 17 65q6 10 11 10q85 0 126 18q63 27 120 113l655 974q10 13 10 21l-4 13q-1 2 -3 4q-14 20 -14 30q0 18 49 35l6 2q67 24 161 70q34 20 60 20q40 0 42 -48zM821 1062l-2 10l-5 4l-8 -4l-8 -9l-283 -426q-5 -7 -5 -14l3 -9 q5 -7 15 -7h203q30 0 38 23q3 8 4 19z" />
<glyph unicode="&#xc9;" horiz-adv-x="1255" d="M1277 1784l-323 -306q-23 -22 -47 -23l-17 3q-16 8 -17 28l4 19q5 13 16 27l251 348q15 18 39 19l24 -4q43 -14 68 -54q12 -18 12 -33q0 -14 -10 -24zM1401 1300l-84 -289q-6 -18 -50 -18q-18 0 -31 4q-12 4 -12 12q6 31 6 60q0 110 -78 160l-29 15l-35 10l-25 2l-269 8 q-32 0 -42 -20l-5 -13l-159 -508l-3 -19q2 -14 24 -14h179q70 0 90 27q6 9 11 22l49 145q6 18 45 18l27 -3q17 -5 17 -15q-21 -57 -78 -247q-49 -167 -60 -219q-4 -17 -41 -17l-27 3l-14 7l-2 6v1l35 128l2 20q-4 31 -71 31h-201q-20 0 -28 -27l-103 -346q-11 -36 -11 -64 q0 -23 7 -40q19 -42 82 -42h10l290 11q102 4 189 131q48 71 78 162q5 17 53 17q19 0 31 -4t12 -13l-102 -361q-7 -27 -57 -28h-50l-562 7h-130q-76 0 -294 -7q-8 0 -7 18q0 37 17 65q6 10 11 10q108 0 147 35q29 26 51 96l283 940q7 23 7 41l-3 21q-7 21 -30 31 q-29 12 -115 12q-7 0 -8 16l5 32q11 47 25 47q120 -5 269 -5q76 0 676 5h29q55 0 62 -18l2 -17z" />
<glyph unicode="&#xcd;" horiz-adv-x="753" d="M997 1784l-323 -306q-23 -22 -47 -23l-17 3q-16 8 -17 28l4 19q5 13 16 27l251 348q15 18 39 19l24 -4q43 -14 68 -54q12 -18 12 -33q0 -14 -10 -24zM943 1363q7 0 7 -14q0 -34 -19 -67l-10 -11q-3 -2 -5 -2q-95 0 -132 -19q-49 -26 -70 -97l-273 -951q-7 -25 -7 -44 q-1 -14 4 -25q16 -44 123 -47h21q7 0 7 -17q0 -36 -18 -65q-6 -11 -12 -11q-126 7 -273 7q-170 0 -303 -7q-7 0 -7 14l5 32q12 47 26 47q107 0 149 33q34 26 50 83l271 951q9 31 9 51q0 37 -31 51q-30 14 -109 14q-7 0 -7 14l5 30q12 47 28 50q57 -6 280 -6q234 0 291 6z " />
<glyph unicode="&#xd3;" horiz-adv-x="1511" d="M1370 1784l-323 -306q-23 -22 -47 -23l-17 3q-16 8 -17 28l4 19q5 13 16 27l251 348q15 18 39 19l24 -4q43 -14 68 -54q12 -18 12 -33q0 -14 -10 -24zM1567 874q0 -221 -118 -429q-66 -117 -165 -214q-263 -258 -612 -258q-128 0 -250 63q-198 101 -236 313q-9 48 -9 101 q0 269 150 495q74 109 181 208q221 204 481 227q41 4 89 4q222 0 347 -131q12 -12 23 -26q119 -141 119 -353zM1330 874q0 181 -89 308q-74 106 -172 115q-8 1 -16 1h-56q-112 -9 -236 -103q-194 -146 -286 -411q-56 -161 -56 -311q0 -204 106 -322q79 -88 181 -88 q263 0 440 254q121 174 167 406q17 85 17 151z" />
<glyph unicode="&#xda;" horiz-adv-x="1486" d="M1468 1784l-323 -306q-23 -22 -47 -23l-17 3q-16 8 -17 28l4 19q5 13 16 27l251 348q15 18 39 19l24 -4q43 -14 68 -54q12 -18 12 -33q0 -14 -10 -24zM1767 1363q7 0 7 -15q0 -34 -18 -67q-7 -12 -13 -12q-78 0 -111 -15q-40 -18 -63 -62l-15 -38v-1l-86 -283 q-104 -338 -135 -418q-67 -172 -142 -261q-49 -57 -116 -103q-170 -115 -412 -115q-153 0 -255 42q-127 54 -157 167q-11 43 -11 102v4q2 90 46 252q3 10 4 14l182 601q8 28 8 48q0 32 -21 48l-21 10l-35 6q-20 2 -57 2q-7 0 -7 15l4 32q13 47 27 47q60 -6 269 -6 q226 0 283 6q7 0 7 -15q0 -34 -18 -66l-8 -11q-3 -2 -5 -2q-80 0 -102 -6l-26 -11l-19 -15l-18 -22q-15 -24 -27 -62l-143 -475l-67 -248q-24 -90 -25 -167q0 -48 12 -76q37 -91 161 -117q36 -7 74 -7q175 0 298 94q120 93 194 331l6 18l194 647q7 22 7 40l-3 24 q-9 27 -39 39q-18 8 -45 11q-20 2 -57 2q-6 0 -6 13l4 30q13 48 29 51q57 -6 235 -6q175 0 232 6z" />
<glyph unicode="&#xe1;" horiz-adv-x="966" d="M1004 1259l-323 -306q-23 -22 -47 -23l-17 3q-16 8 -17 28l4 19q5 13 16 27l251 348q15 18 39 19l24 -4q43 -14 68 -54q12 -18 12 -33q0 -14 -10 -24zM631 -27q-79 0 -79 91q1 62 44 151l-12 6q-96 -119 -198 -183.5t-163 -64.5q-76 0 -118 56t-42 137q0 140 100 318.5 t231 269t247 90.5q62 0 107 -31l20 49q9 22 93 22t91 -42l-200 -662q-3 -10 -3 -19q1 -20 23 -20q44 0 102 66q12 12 40.5 -12t15.5 -37q-158 -185 -299 -185zM715 713q-32 47 -101 47q-79 0 -148.5 -84t-125 -230t-55.5 -219q0 -80 17.5 -98.5t29.5 -18.5q68 0 179 145 q109 146 155 298z" />
<glyph unicode="&#xe6;" horiz-adv-x="1083" d="M1110 711q0 -166 -272 -284q-96 -41 -213 -71q-10 -70 -10 -104q0 -105 62 -137q21 -11 46 -11q64 0 151 77q36 32 39 34l10 2q20 -1 37 -24q7 -8 7 -15l-2 -6q-53 -65 -82 -92q-114 -107 -234 -107q-101 0 -151 60q-13 17 -27 41q-133 -101 -274 -101q-93 0 -136 84 q-24 46 -24 105q0 183 187 367q162 158 392 251q178 72 324 72q150 0 168 -113q2 -13 2 -28zM905 688q0 43 -26 61q-11 9 -27 9q-60 0 -127 -112q-59 -97 -84 -208q101 31 179 97q85 72 85 153zM670 707l-8 8q-168 -85 -286 -237t-118 -283q0 -58 31 -82q13 -9 28 -9 q39 0 95 34q4 2 8 5q-10 55 -10 88q0 132 114 304q67 102 146 172z" />
<glyph unicode="&#xe9;" horiz-adv-x="751" d="M963 1259l-323 -306q-23 -22 -47 -23l-17 3q-16 8 -17 28l4 19q5 13 16 27l251 348q15 18 39 19l24 -4q43 -14 68 -54q12 -18 12 -33q0 -14 -10 -24zM778 713q0 -164 -259 -282q-102 -46 -220 -75q-16 -75 -16 -104q0 -148 92 -148q63 0 159 72l41 31l10 1q21 -2 37 -24 q5 -8 5 -14l-2 -6q-147 -191 -308 -191q-217 0 -237 212q-2 22 -2 46q0 133 99 299t235 255q102 67 198 67q152 0 167 -116q1 -11 1 -23zM573 688q0 52 -26 64q-6 2 -12 2q-93 0 -189 -250q-10 -26 -20 -55q101 32 175 99q72 66 72 140z" />
<glyph unicode="&#xed;" horiz-adv-x="534" d="M744 1259l-323 -306q-23 -22 -47 -23l-17 3q-16 8 -17 28l4 19q5 13 16 27l251 348q15 18 39 19l24 -4q43 -14 68 -54q12 -18 12 -33q0 -14 -10 -24zM498 174q-145 -168 -245 -195q-23 -6 -44 -6q-65 0 -84 74q-7 24 -6 52q0 36 10 69l147 479l3 20q-1 21 -19 21 q-23 0 -96 -82q-3 -3 -8 -3q-19 0 -39 27q-8 11 -8 19q0 4 2 6q140 164 242 191q24 6 46 6q64 0 84 -72q5 -18 6 -40l-2 -43q-3 -18 -8 -35l-147 -482l-4 -21l4 -12q4 -6 12 -6q28 0 83 63q11 13 15 17q4 3 10 3q20 0 40 -26q7 -10 8 -18z" />
<glyph unicode="&#xf3;" horiz-adv-x="948" d="M1012 1259l-323 -306q-23 -22 -47 -23l-17 3q-16 8 -17 28l4 19q5 13 16 27l251 348q15 18 39 19l24 -4q43 -14 68 -54q12 -18 12 -33q0 -14 -10 -24zM909 528q0 -159 -92 -307q-103 -166 -272 -223q-73 -25 -154 -25q-169 0 -239 148q-39 82 -39 194q0 153 110 301 q105 141 250 202q80 34 158 34q179 0 246 -151q32 -74 32 -173zM731 618q0 104 -48 123l-26 6l-16 1q-84 0 -187 -144q-94 -132 -139 -284q-20 -69 -20 -117q0 -106 81 -116q7 -1 15 -1q77 0 179 142q95 133 140 279q21 67 21 111z" />
<glyph unicode="&#xfa;" horiz-adv-x="1019" d="M1032 1259l-323 -306q-23 -22 -47 -23l-17 3q-16 8 -17 28l4 19q5 13 16 27l251 348q15 18 39 19l24 -4q43 -14 68 -54q12 -18 12 -33q0 -14 -10 -24zM1004 817l-181 -586q-20 -60 -20 -69q0 -21 22 -21q28 0 80 57q19 21 25 27q3 3 7 3q18 -1 39 -27q9 -12 9 -20 q0 -3 -2 -5q-99 -130 -208 -180q-49 -23 -91 -23q-63 0 -85 69q-7 24 -7 52q0 36 12 76l45 152q-129 -175 -256 -276q-93 -73 -149 -73q-114 0 -124 104q-1 9 -1 19q0 47 20 113l127 407l15 45v3q0 21 -21 24q-25 0 -87 -72q-8 -9 -11 -12q-4 -4 -10 -4q-18 1 -37 26 q-8 11 -8 19q0 4 2 6q134 173 255 197q18 4 35 4q71 0 87 -82q4 -20 4 -43q0 -35 -17 -88l-96 -307q-37 -114 -37 -158q0 -41 22 -41q61 0 201 201q69 99 125 201q50 89 115 277q4 11 6 17q5 20 83 23h11q69 0 95 -20l6 -9v-6z" />
<glyph unicode="&#x104;" horiz-adv-x="1164" d="M881 -399q-82 -103 -211 -112q-11 -1 -21 -1q-111 0 -159 70q-25 38 -25 92q0 176 307 391h100q-223 -198 -223 -338q0 -52 49 -79q26 -15 60 -15q62 0 106 31q17 -6 17 -32v-7zM1076 1313l-29 -140q-2 -12 -3 -24l-117 -947l-1 -39q5 -62 71 -73q21 -4 54 -4q8 0 8 -18 q0 -33 -16 -63q-6 -12 -12 -12q-140 7 -226 7q-103 0 -236 -7q-8 0 -8 18q0 15 5 34q11 41 24 41q69 0 94 26q24 26 32 90l36 283l-1 20q-2 11 -14 15q-8 3 -21 3h-246q-31 0 -48 -29l-189 -294q-23 -36 -24 -60l3 -18q15 -36 118 -36q8 0 8 -18q0 -37 -18 -65 q-6 -10 -11 -10q-133 7 -234 7q-86 0 -226 -7q-8 0 -7 18q0 37 17 65q6 10 11 10q85 0 126 18q63 27 120 113l655 974q10 13 10 21l-4 13q-1 2 -3 4q-14 20 -14 30q0 18 49 35l6 2q67 24 161 70q34 20 60 20q40 0 42 -48zM821 1062l-2 10l-5 4l-8 -4l-8 -9l-283 -426 q-5 -7 -5 -14l3 -9q5 -7 15 -7h203q30 0 38 23q3 8 4 19z" />
<glyph unicode="&#x105;" horiz-adv-x="966" d="M714 -399q-82 -103 -211 -112q-11 -1 -21 -1q-111 0 -159 70q-25 38 -25 92q0 176 307 391h100q-223 -198 -223 -338q0 -52 49 -79q26 -15 60 -15q62 0 106 31q17 -6 17 -32v-7zM631 -27q-79 0 -79 91q1 62 44 151l-12 6q-96 -119 -198 -183.5t-163 -64.5q-76 0 -118 56 t-42 137q0 140 100 318.5t231 269t247 90.5q62 0 107 -31l20 49q9 22 93 22t91 -42l-200 -662q-3 -10 -3 -19q1 -20 23 -20q44 0 102 66q12 12 40.5 -12t15.5 -37q-158 -185 -299 -185zM715 713q-32 47 -101 47q-79 0 -148.5 -84t-125 -230t-55.5 -219q0 -80 17.5 -98.5 t29.5 -18.5q68 0 179 145q109 146 155 298z" />
<glyph unicode="&#x10c;" horiz-adv-x="1468" d="M1501 1908l-307 -408q-22 -29 -57 -29l-19 3q-17 7 -23 26l-137 408v12q7 21 31 31l15 3q7 -1 11 -7l129 -197q29 -44 44 -44l12 4q7 3 47 44l200 197q5 4 12 4l15 -3q22 -11 29 -28v-11zM1582 1328q0 -112 -47 -288q-8 -31 -14 -46q-5 -16 -47 -16q-20 0 -34 4l-12 7 q-4 3 -4 9q9 52 9 75q0 109 -109 174q-87 51 -202 51q-250 0 -443 -196l-46 -51q-146 -176 -196 -406q-20 -90 -20 -175q0 -178 89 -292q91 -116 250 -116q277 0 447 194q34 39 68 90q9 13 47 13q24 0 37 -6q11 -4 11 -11q0 -50 -101 -212q-45 -71 -66 -94q-51 -7 -90 -19 q-177 -44 -389 -44q-239 0 -388 130q-155 136 -155 365q0 255 171 488q152 209 386 326q204 102 413 102q121 0 309 -39l41 -9q48 -8 85 -8z" />
<glyph unicode="&#x10d;" horiz-adv-x="743" d="M951 1363l-307 -408q-22 -29 -57 -29l-19 3q-17 7 -23 26l-137 408v12q7 21 31 31l15 3q7 -1 11 -7l129 -197q29 -44 44 -44l12 4q7 3 47 44l200 197q5 4 12 4l15 -3q22 -11 29 -28v-11zM780 737q0 -46 -47 -76q-27 -18 -55 -18q-41 0 -60 31q-11 58 -31 77 q-19 19 -50 19q-89 0 -159 -131q-66 -123 -76 -273q-1 -18 -1 -36q0 -138 53 -203q31 -37 74 -37q68 0 136 55l18 13l10 3q18 -1 34 -23q6 -9 6 -16q0 -6 -3 -9q-46 -46 -48 -47q-104 -93 -247 -93q-119 0 -187 96q-55 79 -55 195q0 160 105 325q98 151 231 221 q81 42 160 42q102 0 159 -50q33 -29 33 -65z" />
<glyph unicode="&#x12e;" horiz-adv-x="753" d="M367 -399q-82 -103 -211 -112q-11 -1 -21 -1q-111 0 -159 70q-25 38 -25 92q0 176 307 391h100q-223 -198 -223 -338q0 -52 49 -79q26 -15 60 -15q62 0 106 31q17 -6 17 -32v-7zM943 1363q7 0 7 -14q0 -34 -19 -67l-10 -11q-3 -2 -5 -2q-95 0 -132 -19q-49 -26 -70 -97 l-273 -951q-7 -25 -7 -44q-1 -14 4 -25q16 -44 123 -47h21q7 0 7 -17q0 -36 -18 -65q-6 -11 -12 -11q-126 7 -273 7q-170 0 -303 -7q-7 0 -7 14l5 32q12 47 26 47q107 0 149 33q34 26 50 83l271 951q9 31 9 51q0 37 -31 51q-30 14 -109 14q-7 0 -7 14l5 30q12 47 28 50 q57 -6 280 -6q234 0 291 6z" />
<glyph unicode="&#x12f;" horiz-adv-x="534" d="M305 -399q-82 -103 -211 -112q-11 -1 -21 -1q-111 0 -159 70q-25 38 -25 92q0 176 307 391h100q-223 -198 -223 -338q0 -52 49 -79q26 -15 60 -15q62 0 106 31q17 -6 17 -32v-7zM662 1319q0 -74 -59 -116q-36 -25 -81 -25q-75 0 -116 59q-25 36 -25 82q0 72 57 114 q37 26 84 26q72 0 113 -57l15 -26q12 -27 12 -57zM498 174q-145 -168 -245 -195q-23 -6 -44 -6q-65 0 -84 74q-7 24 -6 52q0 36 10 69l147 479l3 20q-1 21 -19 21q-23 0 -96 -82q-3 -3 -8 -3q-19 0 -39 27q-8 11 -8 19q0 4 2 6q140 164 242 191q24 6 46 6q64 0 84 -72 q5 -18 6 -40l-2 -43q-3 -18 -8 -35l-147 -482l-4 -21l4 -12q4 -6 12 -6q28 0 83 63q11 13 15 17q4 3 10 3q20 0 40 -26q7 -10 8 -18z" />
<glyph unicode="&#x131;" horiz-adv-x="534" d="M498 174q-145 -168 -245 -195q-23 -6 -44 -6q-65 0 -84 74q-7 24 -6 52q0 36 10 69l147 479l3 20q-1 21 -19 21q-23 0 -96 -82q-3 -3 -8 -3q-19 0 -39 27q-8 11 -8 19q0 4 2 6q140 164 242 191q24 6 46 6q64 0 84 -72q5 -18 6 -40l-2 -43q-3 -18 -8 -35l-147 -482l-4 -21 l4 -12q4 -6 12 -6q28 0 83 63q11 13 15 17q4 3 10 3q20 0 40 -26q7 -10 8 -18z" />
<glyph unicode="&#x147;" horiz-adv-x="1477" d="M1418 1908l-307 -408q-22 -29 -57 -29l-19 3q-17 7 -23 26l-137 408v12q7 21 31 31l15 3q7 -1 11 -7l129 -197q29 -44 44 -44l12 4q7 3 47 44l200 197q5 4 12 4l15 -3q22 -11 29 -28v-11zM1729 1363q7 0 6 -14q0 -34 -18 -67l-9 -11l-5 -2q-77 0 -105 -11 q-45 -16 -69 -68l-14 -37l-324 -1126q-11 -40 -47 -51q-9 -3 -18 -3q-33 0 -50 29l-504 1005q-10 20 -20 21l-9 -3l-7 -10l-4 -9l-228 -804q-8 -27 -8 -47l3 -24q13 -42 90 -45h29q7 0 7 -14l-5 -32q-12 -47 -27 -47q-133 7 -196 7q-85 0 -218 -7q-7 0 -7 14l5 32 q12 47 27 47q90 0 128 21q47 27 67 95l253 894q19 66 19 100q0 52 -46 65q-28 8 -88 8q-6 0 -6 12q0 32 21 68q8 14 14 14q60 -6 159 -6q83 0 102 -5q39 -11 62 -56l445 -901q15 -30 30 -30l9 3q11 7 18 31l222 754q6 23 6 41q0 69 -103 74l-24 1q-6 0 -6 12l5 29 q13 48 30 53q57 -6 196 -6q155 0 212 6z" />
<glyph unicode="&#x148;" horiz-adv-x="1024" d="M1081 1363l-307 -408q-22 -29 -57 -29l-19 3q-17 7 -23 26l-137 408v12q7 21 31 31l15 3q7 -1 11 -7l129 -197q29 -44 44 -44l12 4q7 3 47 44l200 197q5 4 12 4l15 -3q22 -11 29 -28v-11zM987 176q-120 -151 -233 -191q-34 -12 -64 -12q-64 0 -84 75q-6 23 -6 51 q0 36 10 69l125 412q31 99 31 131t-18 32q-85 0 -228 -230l-37 -62q-117 -206 -211 -455q-9 -23 -63 -23q-72 0 -111 24q-16 10 -17 21l1 5l186 598q11 39 11 45q0 19 -19 22q-25 0 -84 -69l-12 -13q-3 -3 -8 -3q-19 0 -39 27q-8 11 -8 19q0 4 2 6q124 145 210 181 q37 16 72 16q67 0 84 -66l5 -33v-5q0 -34 -17 -82l-57 -162l12 -4q103 194 231 289q85 63 160 63q133 0 142 -123l1 -18q0 -70 -28 -164l-111 -367l-3 -20q1 -19 17 -19q25 0 98 79l5 5q3 3 7 3l13 -3q23 -12 34 -33l3 -12z" />
<glyph unicode="&#x14a;" horiz-adv-x="1482" d="M1310 76q-2 -7 -4 -13l-52 -174q-30 -103 -129 -222q-22 -26 -46 -51q-133 -136 -303 -134q-58 1 -85 35q-26 32 -12 80q8 26 22 44t33 29q31 18 68 17q54 -2 87 -43q19 -23 31 -29l4 -1q40 2 101 66q86 91 113 185l51 178l-537 971q-9 16 -16 16q-13 0 -19 -22 l-231 -806q-33 -116 118 -116q15 0 1 -46q-13 -48 -28 -47q-103 7 -198 7q-102 0 -216 -7q-15 -2 -1 46q14 47 28 47q159 0 192 116l273 954q33 114 -140 114q-13 0 0 46q14 47 27 47q48 -5 175 -5q84 0 98 -2q56 -9 83 -57l463 -867q6 -14 20 -14q24 0 33 31l201 703 q34 118 -119 118q-15 0 -2 46q14 47 29 47q100 -5 196 -5q100 0 195 5q14 0 1 -46q-14 -47 -28 -47q-135 0 -169 -118z" />
<glyph unicode="&#x14b;" horiz-adv-x="1024" d="M954 711q1 -16 -6 -45l-123 -523q-55 -234 -63 -257q-67 -191 -173 -306q-124 -133 -295 -133h-14q-56 0 -86 40q-16 22 -16 52q0 57 56 82q23 10 48 10q32 0 67 -36q31 -33 47 -38q8 -3 17 -3q44 0 86 86q27 55 45 131l209 876l13 64q6 29 -18 32q-84 11 -228 -230 l-37 -62q-96 -160 -211 -455q-9 -23 -63 -23q-72 0 -111 24q-19 12 -17 21l1 5l186 598q11 35 11 45q0 21 -19 22t-84 -69l-12 -13q-3 -3 -8 -3q-19 0 -39 27q-8 11 -8 19q0 4 2 6q122 143 210 181q37 16 72 16q74 0 84 -66l5 -33v-5q0 -34 -17 -82l-57 -162l12 -4 q103 194 231 289q85 63 160 63q135 0 142 -123z" />
<glyph unicode="&#x160;" horiz-adv-x="1041" d="M1225 1908l-307 -408q-22 -29 -57 -29l-19 3q-17 7 -23 26l-137 408v12q7 21 31 31l15 3q7 -1 11 -7l129 -197q29 -44 44 -44l12 4q7 3 47 44l200 197q5 4 12 4l15 -3q22 -11 29 -28v-11zM1144 1353l-3 -94q-8 -102 -28 -190q-3 -18 -53 -19l-31 2l-13 6q-3 3 -3 7v51 q-9 141 -137 175q-35 9 -78 9q-102 0 -186 -92q-76 -85 -85 -185q-1 -11 -1 -21q0 -108 189 -168l6 -2q155 -47 220 -97q28 -22 47 -48q13 -17 22 -35q26 -52 26 -120q0 -193 -132 -349q-120 -142 -294 -190q-71 -20 -142 -20q-142 0 -232 35q-43 16 -131 63v65 q6 150 32 233q2 9 5 15q9 23 56 24l26 -3q16 -5 16 -17q-6 -31 -6 -62q0 -124 82 -197q73 -66 196 -66q97 0 183 93q80 87 93 191q2 16 2 31q0 102 -111 164l-60 28q-14 5 -31 12q-168 62 -234 138q-59 69 -59 164q0 239 226 406q130 94 319 94q122 0 206 -21q51 -11 59 -12 l37 2h2z" />
<glyph unicode="&#x161;" horiz-adv-x="618" d="M807 1363l-307 -408q-22 -29 -57 -29l-19 3q-17 7 -23 26l-137 408v12q7 21 31 31l15 3q7 -1 11 -7l129 -197q29 -44 44 -44l12 4q7 3 47 44l200 197q5 4 12 4l15 -3q22 -11 29 -28v-11zM637 707q0 -38 -35 -69q-23 -20 -45 -20q-66 0 -115 62l-8 10q-22 32 -27 37 l-17 10l-24 7q-9 1 -20 1q-34 0 -47 -32q-4 -9 -4 -19q0 -34 33 -77l89 -109q10 -12 19 -25q74 -97 93 -150q14 -40 14 -83q0 -113 -103 -201q-82 -71 -209 -76h-16q-86 0 -141 62q-33 37 -33 74q0 53 33 84q24 22 59 22q54 0 97 -41l28 -29q30 -31 39 -36q21 -13 61 -13 q42 0 49 49q1 8 1 15q0 35 -65 109q-56 63 -67 77q-90 122 -99 218q-1 8 -1 14q0 74 22 118q19 38 58 78q66 71 196 77h15q79 0 134 -63q36 -41 36 -81z" />
<glyph unicode="&#x172;" horiz-adv-x="1486" d="M793 -399q-82 -103 -211 -112q-11 -1 -21 -1q-111 0 -159 70q-25 38 -25 92q0 176 307 391h100q-223 -198 -223 -338q0 -52 49 -79q26 -15 60 -15q62 0 106 31q17 -6 17 -32v-7zM1767 1363q7 0 7 -15q0 -34 -18 -67q-7 -12 -13 -12q-78 0 -111 -15q-40 -18 -63 -62 l-15 -38v-1l-86 -283q-104 -338 -135 -418q-67 -172 -142 -261q-49 -57 -116 -103q-170 -115 -412 -115q-153 0 -255 42q-127 54 -157 167q-11 43 -11 102v4q2 90 46 252q3 10 4 14l182 601q8 28 8 48q0 32 -21 48l-21 10l-35 6q-20 2 -57 2q-7 0 -7 15l4 32q13 47 27 47 q60 -6 269 -6q226 0 283 6q7 0 7 -15q0 -34 -18 -66l-8 -11q-3 -2 -5 -2q-80 0 -102 -6l-26 -11l-19 -15l-18 -22q-15 -24 -27 -62l-143 -475l-67 -248q-24 -90 -25 -167q0 -48 12 -76q37 -91 161 -117q36 -7 74 -7q175 0 298 94q120 93 194 331l6 18l194 647q7 22 7 40 l-3 24q-9 27 -39 39q-18 8 -45 11q-20 2 -57 2q-6 0 -6 13l4 30q13 48 29 51q57 -6 235 -6q175 0 232 6z" />
<glyph unicode="&#x173;" horiz-adv-x="1019" d="M302 -399q-82 -103 -211 -112q-11 -1 -21 -1q-111 0 -159 70q-25 38 -25 92q0 176 307 391h100q-223 -198 -223 -338q0 -52 49 -79q26 -15 60 -15q62 0 106 31q17 -6 17 -32v-7zM1004 817l-181 -586q-20 -60 -20 -69q0 -21 22 -21q28 0 80 57q19 21 25 27q3 3 7 3 q18 -1 39 -27q9 -12 9 -20q0 -3 -2 -5q-99 -130 -208 -180q-49 -23 -91 -23q-63 0 -85 69q-7 24 -7 52q0 36 12 76l45 152q-129 -175 -256 -276q-93 -73 -149 -73q-114 0 -124 104q-1 9 -1 19q0 47 20 113l127 407l15 45v3q0 21 -21 24q-25 0 -87 -72q-8 -9 -11 -12 q-4 -4 -10 -4q-18 1 -37 26q-8 11 -8 19q0 4 2 6q134 173 255 197q18 4 35 4q71 0 87 -82q4 -20 4 -43q0 -35 -17 -88l-96 -307q-37 -114 -37 -158q0 -41 22 -41q61 0 201 201q69 99 125 201q50 89 115 277q4 11 6 17q5 20 83 23h11q69 0 95 -20l6 -9v-6z" />
<glyph unicode="&#x17d;" horiz-adv-x="1313" d="M1322 1908l-307 -408q-22 -29 -57 -29l-19 3q-17 7 -23 26l-137 408v12q7 21 31 31l15 3q7 -1 11 -7l129 -197q29 -44 44 -44l12 4q7 3 47 44l200 197q5 4 12 4l15 -3q22 -11 29 -28v-11zM1535 1260l-1198 -1130q-13 -12 -13 -24l3 -10q8 -10 30 -10q349 0 596 13 q124 5 247 197l33 57q5 7 19 7q26 0 41 -15l3 -8l-1 -3q-38 -62 -77 -159q-7 -17 -51 -143l-9 -23q-15 -36 -26 -39l-16 -1l-54 10q-135 16 -570 21h-80h-389q-40 0 -51 37l-2 22q2 26 21 44l1200 1124q17 15 17 28l-2 8l-9 6q-7 2 -17 2h-531q-37 0 -95 -33l-12 -7 q-49 -32 -138 -148q-54 -71 -70 -107q-5 -12 -25 -13l-19 3l-12 7q-4 4 -4 8l1 6l65 166l46 142q5 15 11 28q18 42 63 42q18 0 39 -6q77 -8 610 -8l399 8h4q47 0 48 -40l-4 -23l-11 -24q-5 -7 -10 -12z" />
<glyph unicode="&#x17e;" horiz-adv-x="917" d="M946 1363l-307 -408q-22 -29 -57 -29l-19 3q-17 7 -23 26l-137 408v12q7 21 31 31l15 3q7 -1 11 -7l129 -197q29 -44 44 -44l12 4q7 3 47 44l200 197q5 4 12 4l15 -3q22 -11 29 -28v-11zM940 770l-522 -543q-11 -12 -11 -23q0 -15 19 -18q83 -13 152 -39q14 -5 85 -46 q52 -29 76 -29q38 0 49 34q3 10 3 21q0 20 -23 41q-29 28 -35 59q-2 12 -2 27q0 47 47 66q19 8 41 8q68 0 95 -62q10 -24 10 -51q0 -85 -60 -165q-10 -14 -22 -27q-78 -81 -176 -82q-62 0 -200 62q-120 54 -158 61q-13 2 -23 2q-57 0 -118 -64q-17 -20 -20 -22q-4 -5 -12 -5 l-16 4q-35 15 -65 59q-17 24 -17 40q0 9 6 14l95 85l28 28l395 413q10 13 11 23l-3 11q-5 7 -16 12q-88 32 -193 32h-20q-53 -3 -53 -22q0 -10 24 -31q41 -36 42 -76q0 -49 -45 -72q-23 -12 -52 -12q-63 0 -91 53q-11 21 -11 44q0 98 67 163q100 93 228 98h10q53 0 160 -31 q82 -24 124 -24q54 0 88 40l25 28q5 5 14 5q10 0 23 -7q26 -15 42 -42q10 -16 10 -27l-3 -11z" />
<glyph unicode="&#x1e6;" horiz-adv-x="1475" d="M1474 1908l-307 -408q-22 -29 -57 -29l-19 3q-17 7 -23 26l-137 408v12q7 21 31 31l15 3q7 -1 11 -7l129 -197q29 -44 44 -44l12 4q7 3 47 44l200 197q5 4 12 4l15 -3q22 -11 29 -28v-11zM1581 1328l-2 -56q-11 -122 -51 -257l-7 -22q-5 -15 -49 -15q-43 0 -46 20l6 60 q0 151 -152 210q-77 30 -177 30q-218 0 -404 -181q-158 -152 -234 -371q-48 -137 -48 -263q0 -195 92 -310q89 -111 247 -111q145 0 239 57q59 35 74 85l53 182q6 20 6 33q0 29 -36 36q-21 4 -139 4q-8 0 -8 19q0 22 9 48q9 28 19 28q60 -6 304 -6q170 0 227 6q7 0 7 -17 q1 -15 -4 -35l-11 -30l-8 -11q-3 -2 -5 -2q-86 0 -112 -28q-16 -16 -29 -63l-69 -235l-4 -27q0 -20 21 -20q8 0 8 -12l-4 -20q-8 -25 -21 -25q-28 0 -133 -10l-291 -39q-70 -7 -129 -7q-187 0 -327 85q-36 22 -65 49q-151 138 -151 357q0 288 236 560q52 59 112 114 q242 222 541 244q31 2 62 2q138 0 327 -40q16 -3 40 -8q51 -8 86 -8z" />
<glyph unicode="&#x1e7;" horiz-adv-x="868" d="M926 1363l-307 -408q-22 -29 -57 -29l-19 3q-17 7 -23 26l-137 408v12q7 21 31 31l15 3q7 -1 11 -7l129 -197q29 -44 44 -44l12 4q7 3 47 44l200 197q5 4 12 4l15 -3q22 -11 29 -28v-11zM973 754q0 -56 -30 -80q-13 -10 -30 -10q-33 0 -110 29q-20 8 -33 12 q14 -37 14 -91q0 -149 -95 -269q-96 -120 -247 -152q-23 -5 -59 -5q-24 -14 -43 -53q-9 -17 -9 -29q0 -25 85 -68l165 -80q182 -97 216 -201q8 -25 8 -52q0 -131 -205 -206q-144 -53 -310 -58h-20q-148 0 -256 58q-120 64 -120 179q0 95 177 178q27 13 167 68q-68 37 -89 82 q-6 14 -6 27q0 57 117 141q17 13 33 23q-122 29 -176 116q-31 49 -31 111q0 165 126 286q120 115 295 137q36 5 71 5q41 0 106 -26q11 -5 18 -7l56 -23q12 -3 24 -3q15 0 91 15q29 6 47 6q44 0 52 -45zM606 715q0 29 -25 38q-7 3 -16 3q-73 0 -160 -105q-91 -109 -124 -240 q-13 -50 -13 -92q0 -29 33 -39q9 -2 18 -2q80 0 166 114q84 111 112 244q9 42 9 79zM596 -324q0 60 -148 142q-62 35 -124 59q-69 0 -141 -62q-69 -59 -72 -120q0 -79 128 -120q77 -25 154 -25q194 0 203 115v11z" />
<glyph unicode="&#x1f0;" horiz-adv-x="491" d="M731 1363l-307 -408q-22 -29 -57 -29l-19 3q-17 7 -23 26l-137 408v12q7 21 31 31l15 3q7 -1 11 -7l129 -197q29 -44 44 -44l12 4q7 3 47 44l200 197q5 4 12 4l15 -3q22 -11 29 -28v-11zM465 666l-123 -523q-44 -185 -69 -257q-65 -187 -173 -306q-118 -127 -295 -133 h-14q-56 0 -86 40q-16 22 -16 52q0 57 56 82q23 10 48 10q32 0 67 -36q31 -33 47 -38q8 -3 17 -3q44 0 86 86q26 53 45 131l209 876l2 22q-2 19 -18 19q-27 0 -81 -64l-17 -20q-3 -3 -7 -3l-14 4q-23 12 -33 32l-2 11q1 2 2 3q167 198 285 201q75 0 89 -85l3 -41 q-1 -29 -8 -60z" />
<glyph unicode="&#x21e;" horiz-adv-x="1539" d="M1414 1873l-307 -408q-22 -29 -57 -29l-19 3q-17 7 -23 26l-137 408v12q7 21 31 31l15 3q7 -1 11 -7l129 -197q29 -44 44 -44l12 4q7 3 47 44l200 197q5 4 12 4l15 -3q22 -11 29 -28v-11zM1725 1363q7 0 7 -14l-5 -30l-12 -33q-9 -17 -16 -17q-96 0 -133 -19 q-49 -26 -69 -97l-273 -951q-7 -26 -7 -44q-1 -23 11 -38q26 -34 136 -34q8 0 8 -17l-5 -31q-11 -45 -25 -45q-133 7 -273 7q-164 0 -304 -7q-6 0 -6 14q0 34 17 66q8 13 14 13q107 0 149 33q34 26 50 83l118 419l3 18q-1 9 -11 12q-6 1 -17 1h-477q-30 0 -38 -17 q-3 -5 -6 -14l-120 -419q-7 -25 -7 -44q-1 -14 4 -25q16 -44 123 -47h21q7 0 7 -17q0 -36 -18 -65q-6 -11 -12 -11q-126 7 -273 7q-170 0 -303 -7q-7 0 -7 14l5 32q12 47 26 47q107 0 149 33q34 26 50 83l271 951q9 31 9 51q0 37 -31 51q-30 14 -109 14q-7 0 -7 14l5 30 q12 47 28 50q57 -6 280 -6q234 0 291 6q7 0 7 -14q0 -34 -19 -67l-10 -11q-3 -2 -5 -2q-95 0 -132 -19q-49 -26 -70 -97l-105 -368l-4 -22q1 -16 27 -16h477q29 0 38 16q4 7 8 22l105 368q8 31 8 51q0 45 -49 57l-44 7q-20 1 -47 1q-6 0 -6 13l4 30q13 48 29 51 q57 -6 280 -6q233 0 290 6z" />
<glyph unicode="&#x21f;" horiz-adv-x="942" d="M828 1992l-307 -408q-22 -29 -57 -29l-19 3q-17 7 -23 26l-137 408v12q7 21 31 31l15 3q7 -1 11 -7l129 -197q29 -44 44 -44l12 4q7 3 47 44l200 197q5 4 12 4l15 -3q22 -11 29 -28v-11zM932 610q0 -137 -67 -295l-34 -77q-95 -211 -240 -255q-34 -10 -69 -10 q-75 0 -118 53q-25 31 -25 66q0 75 52 102q20 10 46 10q73 0 94 -81q8 -33 33 -33q33 0 73 136q12 42 19 81q33 160 33 281q0 65 -33 107q-21 26 -49 26q-95 0 -246 -225q-38 -57 -84 -239q0 -1 -4 -17l-61 -244q-6 -23 -72 -23q-74 0 -111 22q-12 7 -12 19l289 1203 q8 33 8 62q0 81 -61 81q-19 0 -19 33l3 22q5 17 16 17q95 0 228 41q47 14 61 14q18 0 19 -19l-3 -20l-188 -799l16 -10q141 197 281 212q12 1 24 1q155 0 191 -152q10 -40 10 -90z" />
<glyph unicode="&#x2bc;" horiz-adv-x="581" d="M662 1257q-64 -191 -379 -346l-12 -3l-11 5q-14 9 -14 25q0 8 6 12q90 65 153 152q34 48 48 92l2 16q-2 15 -21 23q-45 12 -69 49q-15 22 -15 50q0 11 2 22q15 75 82 110q37 19 80 19q62 0 111 -49l20 -24q27 -41 27 -91q0 -30 -10 -62z" />
<glyph unicode="&#x2c7;" horiz-adv-x="778" d="M885 1363l-307 -408q-22 -29 -57 -29l-19 3q-17 7 -23 26l-137 408v12q7 21 31 31l15 3q7 -1 11 -7l129 -197q29 -44 44 -44l12 4q7 3 47 44l200 197q5 4 12 4l15 -3q22 -11 29 -28v-11z" />
<glyph unicode="&#x2db;" horiz-adv-x="778" d="M492 -399q-82 -103 -211 -112q-11 -1 -21 -1q-111 0 -159 70q-25 38 -25 92q0 176 307 391h100q-223 -198 -223 -338q0 -52 49 -79q26 -15 60 -15q62 0 106 31q17 -6 17 -32v-7z" />
<glyph unicode="&#x2013;" horiz-adv-x="1024" d="M1030 463h-962q-20 0 -23 55l2 40q6 38 21 38h962q20 0 23 -55l-2 -40q-6 -38 -21 -38z" />
<glyph unicode="&#x2014;" horiz-adv-x="2048" d="M2054 463h-1986q-20 0 -23 55l2 40q6 38 21 38h1986q20 0 23 -55l-2 -40q-6 -38 -21 -38z" />
<glyph unicode="&#x2018;" horiz-adv-x="581" d="M666 1446q-95 -67 -158 -157q-31 -44 -45 -85l-1 -17q3 -14 21 -22q84 -32 84 -98l-2 -23q-16 -74 -82 -110q-38 -21 -82 -21q-61 0 -110 50q-45 48 -46 113q0 31 11 63q52 160 275 293q51 30 102 53q6 4 13 4q17 0 24 -21l1 -14q-1 -5 -5 -8z" />
<glyph unicode="&#x2019;" horiz-adv-x="581" d="M662 1257q-64 -191 -379 -346l-12 -3l-11 5q-14 9 -14 25q0 8 6 12q90 65 153 152q34 48 48 92l2 16q-2 15 -21 23q-45 12 -69 49q-15 22 -15 50q0 11 2 22q15 75 82 110q37 19 80 19q62 0 111 -49l20 -24q27 -41 27 -91q0 -30 -10 -62z" />
<glyph unicode="&#x201a;" horiz-adv-x="540" d="M313 27q-53 -162 -285 -297q-44 -26 -94 -49l-12 -3q-17 1 -23 21v13q1 5 5 7q90 64 152 151q34 49 48 93l3 16q-2 14 -21 23q-44 12 -69 48q-15 22 -15 50q0 11 2 23q14 75 82 110q37 19 80 19q62 0 111 -50q46 -47 46 -113q0 -30 -10 -62z" />
<glyph unicode="&#x201c;" horiz-adv-x="991" d="M1073 1446q-98 -70 -160 -160q-29 -43 -43 -82l-1 -17q3 -14 22 -22q83 -33 84 -98l-2 -23q-18 -75 -84 -111q-36 -20 -78 -20q-61 0 -111 50q-47 48 -47 113q0 28 9 58q1 2 2 5q52 161 276 294q50 29 100 52q6 4 13 4q18 0 25 -21l1 -14q-2 -5 -6 -8zM645 1446 q-98 -70 -160 -160q-29 -43 -43 -82l-1 -17q3 -14 22 -22q83 -33 84 -98l-2 -23q-18 -76 -85 -112q-36 -19 -79 -19q-61 0 -110 50q-46 48 -46 113q0 31 11 63q52 161 276 294q50 29 100 52q6 4 13 4q18 0 25 -21l1 -14q-2 -5 -6 -8z" />
<glyph unicode="&#x201d;" horiz-adv-x="991" d="M1090 1257q-64 -191 -379 -346l-12 -3q-17 1 -24 22v13q1 5 5 7q90 65 153 152q34 48 48 92l2 16q-2 15 -21 23q-45 12 -69 49q-15 22 -15 50q0 11 2 22q15 75 82 110q37 19 80 19q62 0 111 -49l20 -24q27 -41 27 -91q0 -30 -10 -62zM662 1257q-64 -191 -379 -346l-12 -3 l-11 5q-14 9 -14 25q0 8 6 12q90 65 153 152q34 48 48 92l2 16q-2 15 -21 23q-45 12 -69 49q-15 22 -15 50q0 11 2 22q15 75 82 110q37 19 80 19q62 0 111 -49l20 -24q27 -41 27 -91q0 -30 -10 -62z" />
<glyph unicode="&#x201e;" horiz-adv-x="874" d="M741 27q-53 -162 -285 -297q-45 -26 -94 -49l-12 -3l-11 4q-13 9 -13 25q0 8 6 12q90 64 152 151q34 49 48 93l3 16q-2 14 -21 23q-45 12 -69 49q-15 22 -15 50q0 11 2 22q14 75 82 110q37 19 80 19q62 0 111 -50q46 -47 46 -113q0 -30 -10 -62zM313 27 q-53 -162 -285 -297q-44 -26 -94 -49l-12 -3q-17 1 -23 21v13q1 5 5 7q90 64 152 151q34 49 48 93l3 16q-2 14 -21 23q-44 12 -69 48q-15 22 -15 50q0 11 2 23q14 75 82 110q37 19 80 19q62 0 111 -50q46 -47 46 -113q0 -30 -10 -62z" />
<glyph unicode="&#x2020;" d="M1018 911q0 -67 -71 -99q-36 -17 -75 -17q-37 0 -111 33q-74 32 -116 32l-36 -110q-13 -50 -13 -89l4 -41q8 -43 37 -77q-97 -101 -163 -292l-34 -104l-129 -409h-147l129 409q56 178 56 280q0 65 -19 116q91 55 137 183l41 134q-49 0 -123 -35q-63 -30 -96 -30 q-97 0 -115 88q-4 17 -4 37q0 75 82 104q32 11 65 11q37 0 95 -36q63 -39 101 -45q12 -2 24 -2q29 102 30 237v50q0 76 55 124q42 36 101 36q79 0 104 -63q8 -21 8 -46q0 -43 -63 -142l-44 -70l-1 -3q-24 -44 -51 -123q43 0 117 41q71 38 104 42h10q88 0 107 -84 q4 -18 4 -40z" />
<glyph unicode="&#x2021;" horiz-adv-x="962" d="M1059 942q0 -72 -60 -111q-36 -24 -81 -24q-35 0 -86 28q-65 35 -123 40l-35 2q-28 -88 -29 -195q0 -40 32 -90q2 -4 5 -8q-115 -81 -180 -282l-6 -20q52 0 132 41q78 36 111 38q88 0 106 -92q3 -17 3 -36q0 -60 -72 -93q-34 -15 -65 -15q-37 0 -101 29q-78 35 -141 36 q-23 -87 -23 -247v-39q0 -81 -55 -127q-39 -33 -96 -33q-81 0 -106 59q-9 20 -9 45q0 49 85 178q29 42 36 54q40 73 49 110q-47 0 -132 -35q-72 -30 -109 -30q-88 0 -106 84q-3 17 -3 35q0 64 73 99q38 18 72 18q37 0 104 -36q73 -39 114 -42q7 -1 14 -1q36 121 39 216v10 q0 39 -41 86l-4 4q108 79 160 211q12 30 24 68q-59 0 -144 -39q-66 -31 -96 -31q-94 0 -106 95q-2 12 -2 26q0 67 77 101q35 16 68 16q29 0 92 -33q86 -41 138 -43q22 88 22 268v10q0 72 56 118q41 34 96 34q75 0 101 -60q9 -22 9 -49q0 -37 -60 -131l-40 -66l-4 -8l-44 -70 q-14 -26 -18 -46q60 0 146 42q67 33 100 34q67 0 98 -48l10 -23q5 -15 5 -32z" />
<glyph unicode="&#x2022;" horiz-adv-x="823" d="M707 741q0 -119 -86 -192q-70 -60 -166 -60q-97 0 -175 55q-104 74 -104 216q0 78 49 147q75 105 230 105q108 0 181 -78l24 -31q47 -69 47 -162z" />
<glyph unicode="&#x2026;" horiz-adv-x="2074" d="M1884 119q0 -79 -63 -121l-28 -14q-28 -11 -58 -11q-74 0 -121 46q-43 42 -43 114q0 52 38 95q44 51 126 51q73 0 117 -58q32 -43 32 -102zM1208 119q0 -79 -63 -121l-28 -14q-28 -11 -58 -11q-76 0 -123 48q-41 42 -41 112q0 52 38 95q44 51 126 51q75 0 118 -59 q31 -42 31 -101zM532 119q0 -79 -63 -121q-38 -25 -86 -25q-74 0 -122 47q-42 42 -42 113q0 52 38 95q44 51 126 51q75 0 118 -59q31 -42 31 -101z" />
<glyph unicode="&#x20ac;" horiz-adv-x="1470" d="M1245 168q-145 -92 -274 -144.5t-281 -52.5q-184 0 -349 125.5t-165 375.5q0 26 2 52h-131q-18 0 -18 36q0 48 25 80q12 15 26 15h120q14 52 36 103h-119q-18 0 -18 36q0 48 25 80q12 15 26 15h153q106 169 325.5 332.5t508.5 163.5q109 0 221 -34.5t163 -79.5t51 -86 q0 -42 -42 -72t-88 -30q-47 0 -60 29q-41 90 -99 138t-174 48q-176 0 -338.5 -119t-247.5 -290h587q15 0 15 -32q0 -41 -23 -80q-11 -19 -27 -19h-605q-18 -52 -29 -103h599q15 0 15 -32q0 -39 -23 -80q-11 -19 -27 -19h-585q-3 -34 -3 -68q0 -111 40.5 -189t105 -128.5 t180.5 -50.5q129 0 232.5 37t242.5 111q7 3 13 3q28 0 28 -46q0 -15 -14 -25z" />
<glyph unicode="&#xf6be;" horiz-adv-x="491" d="M465 666l-123 -523q-44 -185 -69 -257q-65 -187 -173 -306q-118 -127 -295 -133h-14q-56 0 -86 40q-16 22 -16 52q0 57 56 82q23 10 48 10q32 0 67 -36q31 -33 47 -38q8 -3 17 -3q44 0 86 86q26 53 45 131l209 876l2 22q-2 19 -18 19q-27 0 -81 -64l-17 -20q-3 -3 -7 -3 l-14 4q-23 12 -33 32l-2 11q1 2 2 3q167 198 285 201q75 0 89 -85l3 -41q-1 -29 -8 -60z" />
</font>
</defs>
</svg>
