<?xml version="1.0" standalone="no"?>
<!DOCTYPE svg PUBLIC "-//W3C//DTD SVG 1.1//EN" "http://www.w3.org/Graphics/SVG/1.1/DTD/svg11.dtd" >
<svg xmlns="http://www.w3.org/2000/svg">
<metadata>
This is a custom SVG webfont generated by Font Squirrel.
Designer    : Peter S Baker
Foundry     : Lakota Language Consortium
Foundry URL : httpwwwlakhotaorg
</metadata>
<defs>
<font id="webfontL6BK5o1t" horiz-adv-x="956" >
<font-face units-per-em="2048" ascent="1638" descent="-410" />
<missing-glyph horiz-adv-x="559" />
<glyph unicode=" "  horiz-adv-x="559" />
<glyph unicode="&#x09;" horiz-adv-x="559" />
<glyph unicode="&#xa0;" horiz-adv-x="559" />
<glyph unicode="!" horiz-adv-x="520" d="M401 1280q0 -118 -69 -594q-13 -90 -21 -246q-1 -20 -45 -20q-56 0 -57 20q-2 102 -59 590q-21 185 -21 217q0 77 55 123q36 29 80 29q94 0 126 -69q11 -24 11 -50zM418 121q0 -83 -68 -124q-37 -22 -84 -22q-71 0 -118 45q-44 42 -44 113q0 55 39 98q44 48 123 48 q73 0 118 -57q34 -42 34 -101z" />
<glyph unicode="&#x22;" horiz-adv-x="757" d="M348 1374q0 -17 -39 -223q-33 -173 -33 -207q0 -15 -59 -15q-61 0 -61 15q0 61 -52 309q-20 92 -20 119q0 109 133 109q131 0 131 -107zM676 1374q0 -17 -39 -223q-33 -173 -33 -207q0 -15 -59 -15q-61 0 -61 15q0 61 -52 309q-20 92 -20 119q0 109 133 109 q131 0 131 -107z" />
<glyph unicode="#" horiz-adv-x="1015" d="M993 934v-131h-213l-78 -289h181v-133h-215l-99 -371h-135l98 371h-180l-98 -371h-135l100 371h-194v133h229l76 289h-195v131h230l84 315h135l-84 -315h180l84 315h135l-84 -315h178zM645 803h-180l-76 -289h180z" />
<glyph unicode="$" horiz-adv-x="1030" d="M936 393q0 -176 -107 -291q-102 -107 -266 -118v-134q0 -17 -62 -15q-63 2 -63 15v136q-151 20 -280 90q-53 148 -53 282q0 10 1 17q2 25 43 25q48 2 50 -19q8 -108 86 -195q63 -71 153 -98v492q-154 56 -241 133q-99 97 -99 282q0 129 125 246q75 71 215 88v137 q0 16 60 16q65 -1 65 -16v-137q93 -5 142 -18q50 -11 64 -11q15 0 30 3q46 -131 45 -271q1 -13 -40 -19q-44 -6 -48 9q-24 110 -94 170q-46 38 -99 49v-444q160 -49 229 -98q144 -101 144 -306zM438 840v405q-141 -50 -141 -209q0 -141 141 -196zM737 301q0 159 -174 231 v-458q174 42 174 227z" />
<glyph unicode="%" horiz-adv-x="1822" d="M791 973q0 -162 -78 -280q-96 -146 -271 -146q-160 0 -262 146q-82 118 -82 280q0 151 73 270q96 156 271 156q177 0 275 -155q74 -119 74 -271zM584 975q0 336 -142 336q-137 0 -137 -336q0 -340 137 -340q142 0 142 340zM1432 1370l-875 -1452q-8 -13 -62 20 q-44 29 -36 42l872 1447q7 12 61 -17q48 -27 40 -40zM1801 405q0 -162 -78 -280q-96 -146 -271 -146q-160 0 -262 146q-82 118 -82 280q0 151 73 270q96 156 271 156q179 0 275 -155q74 -119 74 -271zM1594 407q0 336 -142 336q-137 0 -137 -336q0 -340 137 -340 q142 0 142 340z" />
<glyph unicode="&#x26;" horiz-adv-x="1703" d="M1693 192q16 -16 16 -28q0 -6 -4 -11q-96 -126 -261 -167q-60 -15 -121 -15q-203 0 -365 227q-225 -226 -462 -227q-246 0 -366 152q-91 115 -91 250q0 242 345 420q-163 118 -163 270q0 135 104 223q102 86 232 86q167 0 265 -122q48 -60 48 -154q0 -140 -179 -247 q196 -139 360 -371q167 238 167 282q0 59 -124 59q-16 0 -16 50t16 50q84 -7 271 -7q189 0 243 7q15 0 15 -50t-15 -50q-140 0 -213 -59q-59 -56 -123 -154q-75 -115 -159 -224q166 -247 347 -247q131 0 197 66q5 4 11 4q10 0 25 -13zM676 1102q0 172 -126 172 q-118 0 -118 -164q0 -101 164 -203q80 78 80 195zM903 279q-196 296 -431 457q-214 -127 -214 -322q0 -137 87 -229q90 -95 235 -95q154 0 323 189z" />
<glyph unicode="'" horiz-adv-x="421" d="M344 1374q0 -17 -39 -223q-33 -173 -33 -207q0 -15 -59 -15q-61 0 -61 15q0 61 -52 309q-20 92 -20 119q0 109 133 109q131 0 131 -107z" />
<glyph unicode="(" horiz-adv-x="675" d="M653 1483q0 -25 -26 -55l-4 -5q-285 -286 -285 -835q0 -559 285 -838q26 -26 26 -59q0 -45 -43 -45q-34 0 -63 24q-120 112 -180 186q-240 298 -240 732q0 259 141 553q93 198 279 364q26 25 63 25q47 0 47 -47z" />
<glyph unicode=")" horiz-adv-x="675" d="M553 588q0 -255 -141 -553q-93 -197 -279 -365q-26 -24 -63 -24q-43 0 -43 41q0 31 26 57q173 175 245 480q40 172 40 364q0 370 -142 640q-62 117 -143 197q-24 26 -24 60q0 45 41 45q37 0 63 -25q116 -108 172 -176q248 -302 248 -741z" />
<glyph unicode="*" horiz-adv-x="829" d="M356 641v274l-235 -137l-55 96l235 138l-235 135l55 96l235 -135v272h111v-272l235 135l55 -96l-235 -135l235 -138l-55 -96l-235 137v-274h-111z" />
<glyph unicode="+" horiz-adv-x="1064" d="M944 362h-319v-362h-181v362h-321v148h321v326h181v-326h319v-148z" />
<glyph unicode="," horiz-adv-x="520" d="M453 49q0 -170 -157 -317q-73 -68 -151 -105q-23 -11 -37 11q-12 18 1 32q103 122 133 228q4 16 4 38q0 21 -23 29q-43 14 -83 56q-48 51 -48 116q0 55 51 95q45 36 109 36q71 0 132 -58q69 -65 69 -161z" />
<glyph unicode="-" horiz-adv-x="827" d="M698 610q20 0 20 -65.5t-22 -65.5h-571q-19 0 -19 65.5t19 65.5h573z" />
<glyph unicode="." horiz-adv-x="520" d="M418 121q0 -83 -68 -124q-37 -22 -84 -22q-71 0 -118 45q-44 42 -44 113q0 55 39 98q44 48 123 48q73 0 118 -57q34 -42 34 -101z" />
<glyph unicode="/" horiz-adv-x="716" d="M733 1423l-612 -1441q-4 -9 -21 -9q-40 0 -87 29q-28 17 -28 31q0 3 1 6l610 1440q3 7 19 7q42 0 90 -27q26 -15 29 -28z" />
<glyph unicode="0" d="M924 643q0 -203 -70 -373q-117 -286 -377 -286q-269 0 -380 291q-64 168 -64 393q0 231 77 404q116 261 369 261q263 0 376 -284q69 -175 69 -406zM672 633q0 274 -39 436q-41 174 -152 174q-158 0 -192 -354q-8 -88 -8 -209q0 -258 29 -383q51 -221 165 -221 q197 0 197 495v62z" />
<glyph unicode="1" d="M614 283q0 -127 35 -171q36 -44 127 -44q15 0 15 -38t-15 -38q-80 8 -282 8q-205 0 -285 -8q-15 0 -15 38t15 38q109 0 145 50q33 45 33 163v806q0 65 -21 57q-105 -35 -161 -63q-20 -10 -31 22t8 38q132 55 348 213q27 20 48 20q43 0 43 -53q-7 -71 -7 -160v-878z" />
<glyph unicode="2" d="M799 31q-17 -39 -80 -39q-135 8 -246 8h-80q-161 0 -342 -8q-53 0 -53 47q0 21 20 41q160 160 315 370q255 347 255 529q-5 205 -172 205q-149 0 -242 -164q-12 -22 -48 1q-27 17 -17 34q81 158 210 231q84 47 177 47q164 0 262 -110q86 -96 86 -234q0 -191 -275 -499 q-59 -66 -290 -297h296q115 0 158 18q50 22 78 80q11 21 53 4q39 -15 34 -29z" />
<glyph unicode="3" d="M856 426q0 -174 -124 -301q-144 -148 -361 -148q-144 0 -233 49q-79 43 -79 117q0 97 122 97q45 0 92 -55l51 -60q46 -47 100 -47q101 0 154 133q34 87 34 190q0 133 -81 210q-65 63 -164 63q-59 0 -107 -17q-28 0 -28 56q0 51 22 51q154 0 241 84q68 65 68 160 q0 100 -55 156q-39 40 -96 40q-91 0 -168 -83q-30 -33 -56 -72q-14 -21 -49 7q-27 20 -16 38q95 141 182 193q78 46 174 46q133 0 224 -94q85 -87 85 -207q0 -171 -172 -272q240 -71 240 -334z" />
<glyph unicode="4" d="M768 156q0 -88 102 -88q15 0 15 -38t-15 -38q-80 8 -208 8q-179 0 -263 -8q-15 0 -15 38t15 38q142 0 142 88v215h-461q-87 0 -87 58q0 49 52 122l289 383q188 249 238 329l94 150q15 17 44 17q85 0 85 -53q0 -9 -4 -17l-617 -815q-9 -12 -9 -22q0 -19 19 -19h357v428 q0 22 112 22q115 0 115 -22v-428h123q15 0 15 -66q0 -67 -15 -67h-123v-215z" />
<glyph unicode="5" d="M850 504q0 -194 -117 -337q-150 -183 -399 -183q-147 0 -224 51q-55 36 -55 94q0 53 35 79q31 23 79 23q62 0 106 -53q74 -86 143 -86q106 -2 179 108q61 91 62 197q0 153 -105 237q-84 68 -210 68q-65 0 -137 -20q-16 -5 -27 -5q-36 0 -32 34q43 278 96 551q10 55 69 55 h502q6 0 6 -20q0 -19 -5 -55q-17 -112 -36 -112h-415q-35 0 -37 -14q-23 -93 -32 -191q-1 -16 15 -13q41 6 72 6q232 0 358 -126q109 -109 109 -288z" />
<glyph unicode="6" d="M901 406q0 -165 -108 -284q-125 -138 -320 -138q-225 0 -335 187q-75 129 -75 304q0 255 178 502q205 282 521 408q3 1 5 1q14 0 25 -26q7 -17 7 -26q0 -10 -6 -13q-240 -132 -372 -387q-62 -120 -91 -248q59 75 156 102q32 9 63 9q162 0 265 -131q87 -111 87 -260z M682 348q0 101 -59 198q-60 97 -154 97q-91 0 -160 -78q-8 -40 -8 -92q0 -385 197 -385q106 0 155 113q29 65 29 147z" />
<glyph unicode="7" d="M406 0q-9 -22 -92 -22q-88 0 -135 25q-5 4 -5 17l549 1121h-297q-115 0 -173 -28q-64 -32 -93 -101q-6 -17 -42 -17q-53 0 -48 23l51 242q8 39 18 48q11 9 37 9h682q56 0 56 -33q0 -9 -5 -21z" />
<glyph unicode="8" d="M889 348q0 -158 -121 -261q-123 -103 -291 -103q-171 0 -286 91q-123 97 -123 259q0 179 254 327q-218 133 -218 328q0 145 110 247q105 97 263 97q182 0 284 -98q85 -83 85 -217q0 -180 -211 -302q254 -151 254 -368zM633 979q0 140 -68 209q-45 45 -112 45 q-89 0 -133 -79q-25 -45 -25 -101q0 -136 230 -272q108 62 108 198zM672 281q0 165 -245 315q-130 -75 -130 -244q0 -117 62 -198q59 -78 149 -78q91 0 137 89q27 52 27 116z" />
<glyph unicode="9" d="M893 854q0 -306 -236 -571q-177 -199 -442 -324q-19 -8 -38 32q-12 25 -12 38q0 10 7 14q202 113 306 258q85 119 147 326q-48 -48 -130 -77q-44 -15 -79 -15q-166 0 -262 110q-99 114 -99 248q0 189 110 309q120 131 318 131q207 0 319 -166q91 -135 91 -313zM653 852 q0 375 -200 375q-107 0 -149 -133q-19 -62 -19 -136q0 -104 54 -191q58 -93 142 -93q101 0 160 59q12 46 12 119z" />
<glyph unicode=":" horiz-adv-x="593" d="M483 707q0 -78 -61 -120q-36 -24 -82 -24q-62 0 -108 41q-46 40 -46 109q0 59 41 101t113 42q73 0 115 -58q28 -38 28 -91zM483 113q0 -79 -63 -118q-36 -22 -80 -22q-67 0 -112 43q-42 40 -42 107q0 51 37 92q42 47 117 47q73 0 115 -58q28 -38 28 -91z" />
<glyph unicode=";" horiz-adv-x="593" d="M527 49q0 -170 -157 -317q-73 -68 -151 -105q-23 -11 -37 11q-12 18 1 32q103 122 133 228q4 16 4 38q0 21 -23 29q-43 14 -83 56q-48 51 -48 116q0 55 51 95q45 36 109 36q71 0 132 -58q69 -65 69 -161zM455 707q0 -77 -62 -119q-36 -25 -82 -25q-65 0 -111 42 q-44 41 -44 108q0 58 41 100q42 43 114 43q69 0 111 -53q33 -44 33 -96z" />
<glyph unicode="&#x3c;" horiz-adv-x="1024" d="M344 422l604 -260v-185l-870 379v129l870 381v-184z" />
<glyph unicode="=" horiz-adv-x="999" d="M897 575h-829v142h829v-142zM897 268h-829v142h829v-142z" />
<glyph unicode="&#x3e;" horiz-adv-x="1024" d="M946 356l-870 -379v185l604 260l-604 260v184l870 -381v-129z" />
<glyph unicode="?" horiz-adv-x="751" d="M619 725q-15 -12 -27 -18l-166 -82q-72 -36 -72 -58q-2 -53 17 -127q-3 -25 -53 -25q-17 0 -21 7q-80 148 -80 217q0 90 57 137q22 18 60 37l104 53q125 64 125 113q0 58 -39 96q-46 42 -166 52l-79 6q-31 2 -66 34q-39 35 -39 82q0 67 55 97q28 16 66 16q115 0 229 -98 q33 -29 52 -52q118 -136 118 -276q0 -148 -75 -211zM492 121q0 -83 -68 -124q-37 -22 -84 -22q-71 0 -118 45q-44 42 -44 113q0 52 38 95q44 51 124 51q76 0 121 -59q31 -42 31 -99z" />
<glyph unicode="@" horiz-adv-x="1597" d="M1198 109q12 -23 -4 -33q-177 -109 -412 -109q-240 0 -426 115q-284 174 -284 520q0 297 189 508q245 274 640 274q280 0 454 -156q171 -153 171 -380q0 -174 -115 -309q-158 -187 -436 -187q-102 0 -130 37q-14 19 -14 47q0 27 19 82l-10 6q-151 -166 -250 -166 q-113 0 -113 136q0 116 79 258q86 155 205 223q69 39 138 39q62 0 92 -31l21 51q13 32 74 15q49 -14 42 -39l-141 -478q-9 -31 -9 -61q0 -41 23 -41q162 0 273 108q123 122 123 302q0 186 -130 313q-148 145 -384 145q-252 0 -425 -173q-204 -204 -204 -521q0 -181 96 -322 q155 -227 494 -227q158 0 323 72q19 7 31 -18zM967 920q-21 47 -84 47q-80 0 -159 -145q-95 -172 -95 -304q0 -69 30 -69q54 0 166 131q62 71 99 192z" />
<glyph unicode="A" horiz-adv-x="1401" d="M1196 202q41 -116 202 -116q15 0 15 -46q0 -48 -15 -47q-115 7 -266 7q-149 0 -274 -7q-15 0 -15 46q0 47 15 47q96 0 96 65q0 21 -10 51l-100 297q-7 22 -34 24h-373q-21 0 -32 -29l-109 -293q-9 -24 -9 -42q0 -73 147 -73q13 0 13 -46q0 -48 -13 -47q-83 7 -232 7 q-151 0 -229 -7q-14 0 -14 46q0 47 14 47q152 0 202 131l370 968q13 30 13 36q0 10 -8 17q-21 21 -21 30q0 15 31 25q35 12 124 65q52 31 71 31q33 0 47 -60q8 -35 50 -152zM793 644l-144 424q-5 16 -16 16q-10 0 -16 -16l-163 -444q-1 -2 -1 -4q0 -13 28 -13h287 q28 0 28 22q0 6 -3 15z" />
<glyph unicode="B" horiz-adv-x="1300" d="M1179 370q0 -173 -140 -286q-113 -91 -395 -91l-283 7q-70 0 -286 -7q-15 0 -15 46q0 47 15 47q83 0 130 44q32 29 32 72v954q0 109 -172 109q-14 0 -14 46q0 47 14 47q143 -6 281 -6l293 6q250 0 366 -125q79 -85 79 -214q0 -133 -117 -226q-28 -23 -61 -40 q-21 -11 -21 -19q0 -7 21 -16q117 -38 195 -135q78 -96 78 -213zM840 1014q0 184 -171 242q-71 24 -170 24q-18 0 -18 -18v-465q0 -22 25 -26q21 -2 46 -2q178 0 250 106q38 57 38 139zM909 370q0 149 -108 234q-95 68 -295 70q-25 0 -25 -34v-390q0 -175 150 -175 q278 10 278 295z" />
<glyph unicode="C" horiz-adv-x="1349" d="M1320 321q-5 -57 -51 -177q-28 -72 -52 -108q-47 -7 -88 -19q-153 -44 -358 -44q-263 0 -458 151q-258 199 -258 523q0 270 153 467q212 271 587 271q130 0 338 -43q56 -11 107 -13q28 -59 38 -275l2 -51q0 -18 -43 -22q-48 -2 -51 14q-19 209 -211 275q-79 27 -186 27 q-207 0 -334 -168t-127 -424q0 -324 171 -503q129 -135 286 -135q343 0 440 277q7 19 57 7q39 -9 38 -30z" />
<glyph unicode="D" horiz-adv-x="1567" d="M353 1352l365 6q303 0 510 -139q259 -174 259 -493q0 -338 -200 -537q-198 -196 -521 -196l-348 7h-78q-58 0 -265 -7q-15 0 -15 46q0 47 15 47q92 0 135 46q27 29 27 70v954q0 109 -172 109q-14 0 -14 46q0 47 14 47q143 -6 288 -6zM1215 716q0 177 -99 324 q-164 240 -480 240h-79q-76 0 -76 -79v-928q0 -150 87 -186q39 -16 130 -16q213 0 353 153q164 178 164 492z" />
<glyph unicode="E" horiz-adv-x="1250" d="M821 404q-53 0 -53 15v86q0 89 -123 89h-135q-29 0 -29 -31v-341q0 -77 75 -116q39 -20 81 -20l223 5q157 2 205 137q18 50 18 116q0 17 48 17q54 0 54 -17v-287q0 -65 -117 -64l-705 7q-153 0 -288 -7q-15 0 -15 46q0 47 15 47q162 0 162 116v954q0 109 -172 109 q-14 0 -14 46q0 47 14 47q143 -6 290 -6q89 0 626 6h91q57 0 57 -51v-306q0 -17 -47 -17q-54 0 -54 17q0 130 -99 205q-61 47 -125 49l-296 10q-27 1 -27 -40v-509q0 -29 29 -29h135q123 0 123 91v99q0 14 52 14q53 0 53 -14q-7 -67 -7 -233q0 -162 7 -225q0 -15 -52 -15z " />
<glyph unicode="F" horiz-adv-x="1191" d="M481 202q0 -116 153 -116q14 0 14 -46q0 -47 -14 -47q-94 7 -273 7q-181 0 -286 -7q-15 0 -15 46q0 47 15 47q162 0 162 116v954q0 109 -172 109q-14 0 -14 46q0 47 14 47q143 -6 290 -6q137 0 626 6h88q60 0 60 -51v-306q0 -17 -47 -17q-54 0 -54 17q0 130 -99 205 q-60 46 -125 49q-215 10 -296 10q-27 0 -27 -40v-470q0 -30 29 -30h135q93 0 93 90v138q0 14 52 14t52 -14q-7 -67 -7 -271q0 -213 7 -283q0 -13 -52 -13t-52 13v144q0 89 -93 89h-135q-29 0 -29 -30v-400z" />
<glyph unicode="G" horiz-adv-x="1443" d="M832 523q0 46 14 46q60 -6 317 -6q168 0 228 6q13 0 13 -45q0 -46 -13 -46q-108 0 -108 -77v-241q0 -45 42 -45q15 0 15 -39q0 -41 -15 -41q-50 0 -196 -24q-226 -38 -358 -38q-263 -3 -463 153q-253 198 -253 521q0 266 152 463q212 275 588 275q131 0 317 -38 q70 -18 128 -18q28 -59 38 -275l2 -51q0 -18 -43 -22q-48 -2 -51 14q-19 209 -211 275q-79 27 -186 27q-207 0 -334 -168t-127 -424q0 -324 171 -503q129 -135 286 -135q111 0 192 26q62 24 62 66v242q0 77 -114 77h-79q-14 0 -14 45z" />
<glyph unicode="H" horiz-adv-x="1686" d="M1432 202q0 -116 159 -116q14 0 14 -46q0 -47 -14 -47q-126 7 -280 7q-152 0 -285 -7q-15 0 -15 46q0 47 15 47q162 0 162 116v417q0 34 -34 34h-638q-35 0 -35 -34v-417q0 -116 159 -116q14 0 14 -46q0 -47 -14 -47q-133 7 -279 7q-160 0 -286 -7q-15 0 -15 46 q0 47 15 47q162 0 162 116v952q0 116 -161 116q-14 0 -14 46q0 47 14 47q48 -5 279 -5q241 0 289 5q14 0 14 -46q0 -47 -14 -47q-163 0 -163 -116v-372q0 -35 35 -35h638q34 0 34 35v372q0 116 -160 116q-15 0 -15 46q0 47 15 47q45 -5 279 -5q241 0 288 5q15 0 15 -46 q0 -47 -15 -47q-163 0 -163 -116v-952z" />
<glyph unicode="I" horiz-adv-x="734" d="M481 202q0 -116 159 -116q14 0 14 -46q0 -47 -14 -47q-133 7 -279 7q-160 0 -286 -7q-15 0 -15 46q0 47 15 47q162 0 162 116v952q0 116 -161 116q-14 0 -14 46q0 47 14 47q48 -5 279 -5q241 0 289 5q14 0 14 -46q0 -47 -14 -47q-163 0 -163 -116v-952z" />
<glyph unicode="J" horiz-adv-x="718" d="M419 -151q-89 -148 -215 -220q-86 -48 -171 -48q-51 0 -102 33q-63 41 -63 109q0 71 65 103q33 17 76 17q74 0 128 -58q25 -27 38 -62q33 24 56 82q26 88 26 448v901q0 116 -171 116q-14 0 -14 46q0 47 14 47q48 -5 296 -5q244 0 292 5q14 0 14 -46q0 -47 -14 -47 q-172 0 -172 -116v-525q0 -107 -10 -434q-1 -227 -73 -346z" />
<glyph unicode="K" horiz-adv-x="1382" d="M1144 191q78 -91 179 -102q22 -3 60 -3q14 0 14 -46q0 -47 -14 -47q-133 7 -306 7q-133 0 -273 -7q-14 0 -14 46q0 47 14 47q84 0 85 39q0 26 -41 77l-259 323q-63 72 -86 72q-22 0 -22 -28v-367q0 -116 155 -116q14 0 14 -46q0 -47 -14 -47q-133 7 -275 7 q-160 0 -286 -7q-15 0 -15 46q0 47 15 47q162 0 162 116v952q0 116 -172 116q-14 0 -14 46q0 47 14 47q47 -5 279 -5q250 0 298 5q14 0 14 -46q0 -47 -14 -47q-161 0 -161 -116v-357q0 -27 16 -27q28 0 76 55l277 331q53 63 53 89q-9 24 -61 25q-13 0 -13 46q0 47 13 47 q50 -5 197 -5q151 0 199 5q14 0 14 -46q0 -47 -14 -47q-88 0 -132 -20q-43 -20 -82 -65l-337 -392q-16 -19 -16 -35q0 -17 15 -34z" />
<glyph unicode="L" horiz-adv-x="1359" d="M481 250q0 -110 67 -153q34 -19 75 -19l332 13q75 3 142 82q82 105 82 219q0 18 47 18q54 0 54 -18v-335q0 -42 -15 -52q-9 -12 -102 -12l-724 7h-84q-72 0 -280 -7q-15 0 -15 46q0 47 15 47q162 0 162 126v942q0 116 -172 116q-14 0 -14 46q0 47 14 47q47 -5 288 -5 q235 0 283 5q14 0 14 -46q0 -47 -14 -47q-155 0 -155 -116v-904z" />
<glyph unicode="M" horiz-adv-x="1815" d="M1608 208q2 -122 162 -122q15 0 15 -46q0 -47 -15 -47q-126 7 -280 7q-130 0 -269 -7q-15 0 -15 46q0 47 15 47q153 0 153 122l-5 669q0 21 -7 21q-9 0 -17 -18l-451 -876q-12 -23 -30 -23q-22 0 -31 23l-459 964q-10 21 -16 21q-7 0 -10 -26l-50 -757v-31q0 -89 170 -89 q14 0 14 -46q0 -47 -14 -47q-133 7 -229 7q-137 0 -199 -7q-14 -2 -14 46q0 47 14 47q147 0 153 124l61 906v45q0 109 -174 109q-13 0 -13 46q0 47 13 47q82 -5 174 -5h97q66 0 117 -88l440 -913q10 -21 23 -21q15 0 28 23l468 917q42 82 111 82h53q104 0 164 5q15 0 15 -46 q0 -47 -15 -47q-105 0 -136 -47q-23 -40 -21 -98z" />
<glyph unicode="N" horiz-adv-x="1482" d="M1288 76q0 -97 -31 -97q-26 0 -74 57l-822 978q-13 16 -20 16q-13 0 -13 -22v-806q0 -116 151 -116q15 0 15 -46q0 -48 -15 -47q-92 7 -200 7q-102 0 -214 -7q-14 -2 -14 46q0 47 14 47q159 0 159 116v954q0 114 -173 114q-13 0 -13 46q0 47 13 47q50 -5 177 -5 q84 0 98 -2q59 -9 100 -57l711 -867q10 -14 24 -14q24 0 24 31v703q0 118 -153 118q-15 0 -15 46q0 47 15 47q102 -5 198 -5q100 0 193 5q14 0 14 -46q0 -47 -14 -47q-135 0 -135 -118v-1076z" />
<glyph unicode="O" horiz-adv-x="1524" d="M1430 663q0 -220 -145 -417q-202 -273 -544 -273q-225 0 -405 124q-281 194 -281 570q0 251 176 474q195 244 514 244q246 0 426 -155q259 -224 259 -567zM1157 649q0 255 -124 438q-142 210 -293 210q-153 1 -267 -130q-145 -166 -145 -443q0 -304 153 -495 q129 -162 274 -162q265 0 358 279q44 130 44 303z" />
<glyph unicode="P" horiz-adv-x="1214" d="M481 202q0 -116 168 -116q15 0 15 -46q0 -47 -15 -47q-126 7 -288 7q-148 0 -281 -7q-13 0 -13 46q0 47 13 47q157 0 157 116v954q0 109 -170 109q-14 0 -14 46q0 47 14 47q143 -6 288 -6l304 6q218 0 363 -100q157 -110 157 -290q0 -191 -171 -291q-139 -81 -355 -81 q-90 0 -137 4q-35 2 -35 -31v-367zM924 968q0 120 -82 206q-99 104 -279 104q-65 0 -77 -14q-4 -6 -5 -15v-533q0 -31 31 -36q36 -4 80 -4q249 0 312 172q20 53 20 120z" />
<glyph unicode="Q" horiz-adv-x="1489" d="M1430 659q0 -216 -147 -422q-70 -99 -191 -178q-23 -15 -23 -26q0 -12 23 -29q258 -170 541 -252q1 0 31 -9q29 -8 18 -58q-14 -49 -41 -44q-402 76 -988 300l-154 59q-32 12 -155 86q-131 81 -210 236q-79 154 -79 339q0 263 178 478q204 246 512 246q260 0 426 -155 q259 -239 259 -571zM1157 642q0 252 -120 445q-130 210 -297 210q-197 0 -313 -193q-99 -162 -99 -388q0 -308 154 -496q126 -155 274 -155q253 0 350 265q51 138 51 312z" />
<glyph unicode="R" horiz-adv-x="1420" d="M1213 968q0 -251 -283 -336q-18 -4 -18 -19q0 -10 12 -28q131 -224 325 -423q95 -101 180 -116q26 -5 26 -29q0 -38 -24 -38l-91 -3q-155 1 -238 55q-142 88 -263 260l-130 187q-63 75 -79 88q-24 21 -63 21h-67q-19 0 -19 -19v-366q0 -116 155 -116q14 0 14 -46 q0 -47 -14 -47q-133 7 -275 7q-151 0 -286 -7q-15 0 -15 46q0 47 15 47q162 0 162 116v954q0 109 -172 109q-14 0 -14 46q0 47 14 47q143 -6 290 -6l298 6h6q337 0 481 -175q73 -90 73 -215zM959 968q0 136 -118 229q-107 81 -278 81q-62 0 -72 -9q-10 -8 -10 -33v-523 q0 -33 25 -39q47 -9 86 -9q264 0 340 167q27 60 27 136z" />
<glyph unicode="S" horiz-adv-x="1077" d="M980 403q0 -181 -109 -300q-118 -130 -317 -130q-144 0 -246 36l-144 62q-53 160 -53 313q0 24 46 26q48 3 51 -18q10 -116 90 -207q105 -118 273 -118q72 0 129 57q71 70 71 184q0 206 -270 275q-397 101 -397 450q0 142 129 258q105 94 292 94q120 0 213 -21 q56 -12 62 -12l36 2h1q37 -118 49 -271q2 -26 -44 -33q-46 -6 -51 12q-30 117 -98 178t-187 61q-95 0 -154 -84q-40 -56 -40 -142q0 -181 247 -241q421 -102 421 -431z" />
<glyph unicode="T" horiz-adv-x="1615" d="M930 202q0 -116 171 -116q13 0 13 -46q0 -47 -13 -47q-140 7 -290 7q-172 0 -305 -7q-14 0 -14 46q0 47 14 47q180 0 180 116v1034q0 29 -27 29q-194 -6 -300 -10q-52 -2 -116 -50q-103 -84 -107 -197q0 -16 -48 -16q-53 0 -53 16v299q0 34 14 41q19 10 98 10 q428 -6 659 -6q230 0 672 6q84 0 96 -16q8 -11 8 -35v-299q0 -16 -48 -16q-54 0 -54 16q0 129 -113 203q-64 42 -118 44q-106 4 -286 10q-33 0 -33 -29v-1034z" />
<glyph unicode="U" horiz-adv-x="1512" d="M1322 880q0 -276 -12 -416q-17 -245 -154 -373q-126 -118 -383 -118q-156 0 -268 42q-157 61 -219 185q-52 107 -62 345v609q0 116 -157 116q-14 0 -14 46q0 47 14 47q147 -5 281 -5q146 0 294 5q14 0 14 -46q0 -47 -14 -47q-174 0 -174 -116v-468l11 -281 q3 -124 55 -203q90 -135 276 -135q173 0 277 106q90 93 90 323v658q0 116 -157 116q-14 0 -14 46q0 47 14 47q138 -5 229 -5q92 0 227 5q15 0 15 -46q0 -47 -15 -47q-154 0 -154 -116v-274z" />
<glyph unicode="V" horiz-adv-x="1358" d="M698 7q-21 -45 -51 -45q-34 0 -51 45l-423 1147q-41 116 -142 116q-15 0 -15 46q0 47 15 47q45 -5 231 -5q208 0 256 5q13 0 13 -46q0 -47 -13 -47q-124 0 -124 -64q0 -22 11 -52l282 -775q9 -20 25 -20q17 0 26 23l294 764q11 30 11 53q-5 71 -99 71q-15 0 -15 46 q0 47 15 47q48 -5 206 -5q166 0 214 5q14 0 14 -46q0 -47 -14 -47q-148 0 -183 -85z" />
<glyph unicode="W" horiz-adv-x="2012" d="M1859 1185l-537 -1178q-23 -45 -50 -45q-26 0 -57 63l-205 456q-8 18 -15 18q-8 0 -17 -20l-216 -472q-21 -45 -50 -45q-28 0 -57 63l-506 1129q-51 116 -143 116q-14 0 -14 46q0 47 14 47q48 -5 216 -5q186 0 234 5q15 0 15 -46q0 -47 -15 -47q-69 0 -70 -45 q4 -40 19 -71l351 -780q8 -17 22 -17q12 0 20 17l121 266q6 15 6 22q0 9 -6 24l-235 522q-28 62 -82 62q-14 0 -14 46q0 47 14 47q48 -5 208 -5q156 0 204 5q14 0 14 -46q0 -47 -14 -47q-70 0 -70 -41q0 -32 20 -75l75 -163q8 -18 18 -18q13 0 24 24l69 149q26 56 26 85 q0 39 -53 39q-14 0 -14 46q0 47 14 47q50 -5 176 -5q135 0 183 5q15 0 15 -46q0 -47 -15 -47q-145 0 -183 -85l-158 -347q-11 -24 -11 -40q0 -12 5 -23l181 -399q8 -18 23 -18q12 0 19 16l352 772q21 46 21 75q-1 49 -65 49q-15 0 -15 46q0 47 15 47q45 -5 187 -5 q141 0 189 5q14 0 14 -46q0 -47 -14 -47q-145 0 -183 -85z" />
<glyph unicode="X" horiz-adv-x="1382" d="M1152 202q81 -116 217 -116q15 0 15 -46q0 -47 -15 -47q-79 7 -274 7q-175 0 -270 -7q-14 0 -14 46q0 47 14 47q108 0 108 47q0 29 -35 75l-243 319q-11 15 -23 15q-14 0 -25 -15l-171 -227q-66 -88 -68 -144q-2 -70 100 -70q14 0 14 -46q0 -47 -14 -47q-78 7 -231 7 q-228 0 -270 -7q-13 0 -13 46q0 47 13 47q151 0 222 86l365 459q13 16 13 33q0 14 -13 31l-356 499q-54 76 -177 76q-14 0 -14 46q0 47 14 47q47 -5 291 -5q242 0 290 5q14 0 14 -46q0 -47 -14 -47q-124 0 -124 -55q0 -23 27 -61l198 -275q10 -14 19 -14q12 0 23 14l216 267 q34 42 34 71q0 53 -82 53q-14 0 -14 46q0 47 14 47q47 -5 222 -5q173 0 221 5q15 0 15 -46q0 -47 -15 -47q-117 0 -210 -85q-33 -30 -84 -93l-252 -310q-17 -21 -17 -37q0 -14 11 -32z" />
<glyph unicode="Y" horiz-adv-x="1325" d="M758 202q0 -116 148 -116q13 0 13 -46q0 -47 -13 -47q-65 7 -266 7q-200 0 -273 -7q-14 0 -14 46q0 47 14 47q147 0 147 116v292q0 68 -10 94q-8 22 -55 96l-298 470q-52 82 -101 104q-28 12 -63 12q-15 0 -15 46q0 47 15 47q47 -5 261 -5q216 0 266 5q14 0 14 -46 q0 -47 -14 -47q-110 0 -110 -53q0 -31 20 -63l254 -405q11 -17 20 -17q10 0 22 19l268 395q23 34 23 60q0 64 -105 64q-15 0 -15 46q0 47 15 47q45 -5 221 -5q185 0 233 5q14 0 14 -46q0 -47 -14 -47q-108 0 -179 -68l-33 -35l-337 -481q-38 -56 -45 -78q-8 -28 -8 -109 v-297z" />
<glyph unicode="Z" horiz-adv-x="1317" d="M1270 19q0 -48 -16 -48q-25 -1 -79 8q-131 21 -581 21h-448q-70 0 -70 49q0 26 17 48l871 1139q10 13 10 21q0 17 -40 17h-513q-44 0 -71 -27q-39 -31 -97 -172q-31 -75 -33 -101q-1 -11 -26 -12q-16 0 -32 5q-24 8 -25 21q31 235 31 332q0 48 41 48q3 0 60 -9 q48 -7 61 -7h507l382 6q65 1 65 -32q0 -24 -25 -58l-833 -1144q-7 -10 -7 -17q0 -21 33 -21q411 0 593 13q53 4 138 150q40 69 51 106q2 7 19 7q34 0 55 -17q7 -6 6 -15q-44 -172 -44 -311z" />
<glyph unicode="[" horiz-adv-x="798" d="M754 -354h-437q-22 0 -22 22v1843q0 19 20 19h439q20 0 20 -48t-20 -48h-226q-20 0 -20 -23v-1640q0 -29 14 -29h232q20 0 20 -48t-20 -48z" />
<glyph unicode="\" horiz-adv-x="716" d="M731 31q10 -24 -67 -50q-27 -9 -47 -9q-19 0 -23 10l-608 1443q-12 28 57 57q30 12 53 12q24 0 29 -13z" />
<glyph unicode="]" horiz-adv-x="798" d="M504 -332q0 -22 -23 -22h-434q-20 0 -20 48t20 48h232q14 0 14 25v1644q0 23 -19 23h-227q-20 0 -20 48t20 48h436q21 0 21 -19v-1843z" />
<glyph unicode="^" horiz-adv-x="1095" d="M1044 535h-219l-276 577l-279 -577h-221l422 837h154z" />
<glyph unicode="_" horiz-adv-x="1024" d="M1024 -266h-1024v121h1024v-121z" />
<glyph unicode="`" horiz-adv-x="569" d="M461 1067q8 -22 8 -40q0 -54 -42 -54q-35 0 -69 49l-169 249q-5 8 -5 16q0 32 58 63q42 23 74 23q24 0 28 -14z" />
<glyph unicode="a" horiz-adv-x="860" d="M866 88q-58 -113 -190 -113q-92 0 -162 82q-14 19 -21 19q-13 0 -28 -17q-82 -82 -199 -82q-125 0 -177 85q-26 43 -26 100q0 121 212 231l151 72q35 20 35 47v190q0 72 -105 72q-79 0 -116 -51q-9 -14 -10 -75q0 -35 -5 -52q-25 -88 -92 -88q-90 0 -90 78q0 67 56 144 q31 44 65 65q120 75 264 75q113 0 195 -56q65 -44 67 -107v-508q0 -114 67 -114q30 -3 72 36q8 8 28 -9q14 -14 9 -24zM461 193v182q0 23 -14 23q-7 0 -13 -3q-141 -71 -141 -190q0 -117 72 -117q96 0 96 105z" />
<glyph unicode="b" horiz-adv-x="1050" d="M981 440q0 -207 -113 -336q-110 -127 -331 -127q-58 0 -130 30q-56 24 -104 24q-17 0 -55 -34l-19 -15q-4 -3 -13 -3q-31 0 -74 33q-19 15 -19 23q6 30 6 244v882q0 125 -94 125q-16 0 -16 36q0 38 16 38q50 0 186 66q68 33 88 51q13 10 29 10q26 0 29 -25l-9 -176v-446 q0 -28 16 -28q9 0 19 7q73 51 168 51q176 0 295 -119q125 -125 125 -311zM727 428q0 158 -67 255q-59 87 -158 87q-71 0 -113 -43q-31 -31 -31 -80v-350q0 -116 73 -186q56 -54 134 -54q162 0 162 371z" />
<glyph unicode="c" horiz-adv-x="880" d="M709 620q-37 0 -56 29l-39 66q-39 59 -112 59q-81 0 -141 -93q-66 -102 -66 -245q0 -133 88 -227q79 -84 180 -84q109 0 187 55q17 12 46 -30q26 -43 9 -54l-82 -53q-116 -66 -266 -66q-140 0 -251 99q-140 123 -140 311q0 170 106 307q136 176 350 176q135 0 223 -45 q39 -20 54 -45q6 -16 6 -40q0 -52 -31 -85q-35 -35 -65 -35z" />
<glyph unicode="d" horiz-adv-x="1036" d="M1022 31q-29 -12 -156 -35q-102 -26 -131 -31h-12q-10 0 -10 45v29q0 22 -11 22q-12 0 -28 -14q-94 -70 -195 -70q-244 0 -355 174q-71 111 -71 267q0 177 122 302q147 150 392 150q49 0 80 -4q27 -3 27 23v272q0 125 -92 125q-16 0 -16 36q0 38 16 38q50 0 185 67 q65 32 85 50q13 10 27 10q30 0 30 -33q-6 -70 -6 -168v-1030q0 -90 10 -117q14 -40 53 -40q13 0 33 5q16 4 27 -31q8 -37 -4 -42zM674 141v553q0 44 -4 52q-5 10 -17 18q-47 29 -112 29q-134 0 -196 -144q-38 -88 -38 -205q0 -193 79 -302q59 -81 144 -81q86 0 130 52 q14 17 14 28z" />
<glyph unicode="e" horiz-adv-x="876" d="M809 612q0 -75 -90 -75h-385q-37 0 -37 -27q0 -237 112 -334q62 -53 152 -53q81 0 166 55q20 11 49 -26q26 -35 15 -46q-48 -49 -134 -88q-88 -41 -202 -41q-135 0 -243 109q-144 144 -144 350q0 165 107 291q122 143 286 143q178 0 283 -119q65 -89 65 -139zM309 653 q0 -26 37 -26h203q37 0 37 24q0 67 -55 112q-34 28 -68 28q-64 0 -113 -43q-41 -40 -41 -95z" />
<glyph unicode="f" horiz-adv-x="583" d="M609 798q0 -53 -15 -53h-164q-37 0 -37 -36v-573q0 -68 133 -68q16 0 16 -37q0 -39 -16 -39q-80 8 -239 8q-148 0 -232 -8q-15 0 -15 38t15 38q109 0 109 68v573q0 36 -37 36h-55q-16 0 -16 36q0 38 16 38q50 0 75 42q17 29 17 71q0 146 68 279q33 65 77 110 q158 166 365 166q123 0 185 -59q38 -36 38 -85q0 -55 -53 -96q-31 -24 -60 -24q-101 0 -147 89q-29 58 -78 62q-58 0 -96 -53q-70 -96 -70 -273v-161q0 -37 37 -37h164q15 0 15 -52z" />
<glyph unicode="g" horiz-adv-x="948" d="M981 -141q0 -162 -147 -280q-173 -138 -422 -138q-300 0 -372 148q-20 41 -20 92q0 81 103 166q34 28 80 51q14 7 14 14q0 5 -16 12q-133 56 -133 174q0 75 145 138q16 7 16 13q0 5 -18 17q-154 97 -154 262q0 141 109 240q112 102 276 102q111 0 222 -43q65 -28 91 -30 h193q16 0 16 -55q0 -60 -16 -60h-92q-31 0 -31 -29v-78q0 -169 -119 -270q-104 -88 -276 -88q-50 0 -106 7q-12 1 -23 -7q-37 -30 -37 -57q0 -32 40 -52q33 -16 87 -16h254q129 0 192 -21q144 -47 144 -212zM592 522q0 177 -71 242q-31 29 -75 29q-72 0 -119 -86 q-38 -70 -38 -158q0 -121 59 -196q46 -58 113 -58q89 0 119 119q12 48 12 108zM811 -242q0 131 -236 131h-212q-21 0 -41 -14q-63 -46 -64 -123q0 -75 60 -130q68 -62 186 -62q251 0 298 140q9 27 9 58z" />
<glyph unicode="h" horiz-adv-x="1093" d="M1079 -8q-80 8 -221 8q-149 0 -229 -8q-16 0 -16 37q0 39 16 39q104 0 104 64v423q0 75 -45 139q-49 68 -123 68q-90 0 -143 -63q-29 -35 -29 -72v-484q0 -75 103 -75q15 0 15 -38t-15 -38q-84 8 -209 8q-152 0 -236 -8q-15 0 -15 38q0 37 15 38q113 0 113 69v1024 q0 125 -92 125q-16 0 -16 36q0 38 16 38q50 0 185 67q65 32 85 50q13 10 29 10q27 0 28 -27q-2 -85 -6 -174v-465q0 -23 11 -23q8 0 22 11q82 61 211 61q180 0 270 -136q56 -84 56 -177v-414q7 -75 116 -75q16 0 16 -37q0 -39 -16 -39z" />
<glyph unicode="i" horiz-adv-x="524" d="M496 -8q-84 8 -209 8q-144 0 -228 -8q-15 0 -15 38t15 38q105 0 105 75v414q0 125 -92 125q-16 0 -16 36q0 38 16 38q50 0 187 68q63 31 83 48q13 11 31 11q28 0 26 -27q-6 -88 -6 -174v-539q0 -75 103 -75q15 0 15 -38q0 -37 -15 -38zM401 1288q0 -70 -59 -111 q-38 -26 -86 -26q-74 0 -117 57q-26 36 -26 80q0 69 57 111q38 28 86 28q75 0 118 -58q27 -39 27 -81z" />
<glyph unicode="j" horiz-adv-x="499" d="M373 1286q0 -71 -59 -112q-39 -27 -87 -27q-74 0 -117 56q-28 37 -28 83q0 68 57 110q39 29 88 29q73 0 117 -57q29 -38 29 -82zM375 856q-8 -92 -8 -174v-543q0 -186 -11 -268q-24 -175 -108 -287q-76 -103 -208 -131q-37 -8 -72 -8q-60 0 -117 43q-44 35 -44 86 q0 57 51 87q26 15 58 15q48 0 80 -52q44 -73 80 -73q46 1 56 91q5 43 5 129v786q0 125 -92 125q-15 0 -15 37t15 37q51 0 189 68q63 31 83 48q14 11 29 11q28 0 29 -27z" />
<glyph unicode="k" horiz-adv-x="1073" d="M1079 -8q-80 8 -229 8q-150 0 -234 -8q-15 0 -15 38t15 38q74 0 75 29q0 16 -27 48l-195 224q-25 30 -59 30q-17 0 -17 -34v-222q0 -75 109 -75q15 0 15 -38t-15 -38q-84 8 -215 8q-154 0 -238 -8q-15 0 -15 38t15 38q115 0 115 71v1022q-9 118 -92 125q-16 0 -16 36 q0 38 16 38q50 0 185 67q65 32 85 50q13 10 29 10q27 0 28 -27q-6 -87 -6 -173v-759q0 -36 21 -36q44 0 80 38l153 170q32 36 32 54q0 30 -83 30q-16 0 -16 35q0 37 16 37q60 -6 217 -6q140 0 203 6q15 0 15 -36t-15 -36q-105 0 -182 -71l-209 -189q-11 -10 -11 -19 q0 -14 11 -26l329 -358q47 -53 125 -53q16 0 16 -37q0 -39 -16 -39z" />
<glyph unicode="l" horiz-adv-x="524" d="M496 -8q-84 8 -209 8q-144 0 -228 -8q-15 0 -15 38t15 38q105 0 105 67v1026q0 125 -92 125q-16 0 -16 36q0 38 16 38q50 0 185 67q65 32 85 50q13 10 27 10q30 0 30 -33q-6 -75 -6 -168v-1143q0 -75 103 -75q15 0 15 -38t-15 -38z" />
<glyph unicode="m" horiz-adv-x="1630" d="M1587 -8q-80 8 -221 8q-135 0 -215 -8q-16 0 -16 38t16 38q100 0 100 67v475q0 152 -151 152q-69 0 -119 -62q-45 -56 -45 -131v-429q0 -72 104 -72q16 0 16 -38t-16 -38q-80 8 -219 8q-131 0 -215 -8q-15 0 -15 38t15 38q101 0 101 64v433q0 134 -45 175q-26 22 -97 22 q-52 0 -97 -32q-75 -58 -75 -126v-471q0 -65 99 -65q15 0 15 -38t-15 -38q-84 8 -220 8q-137 0 -221 -8q-15 0 -15 38t15 38q113 0 113 69v414q0 131 -92 131q-16 0 -16 36q0 38 16 38q50 0 187 68q63 31 83 48q13 11 29 11q28 0 28 -24l-6 -71q-1 -19 9 -19q9 0 18 9 q81 92 219 92q141 0 215 -127q9 -16 17 -16q10 0 26 18q79 84 186 113q44 12 84 12q128 0 205 -69q109 -96 109 -248v-413q0 -72 106 -72q16 0 16 -38t-16 -38z" />
<glyph unicode="n" horiz-adv-x="1087" d="M1069 -8q-107 8 -211 8q-105 0 -225 -8q-15 -1 -15 37.5t15 38.5q101 0 101 62v407q0 149 -59 200q-29 25 -96 25q-62 0 -119 -50q-67 -58 -67 -120v-449q0 -75 99 -75q15 0 15 -38t-15 -38q-84 8 -216 8q-135 0 -219 -8q-15 0 -15 38t15 38q107 0 107 75v406 q0 133 -92 133q-16 0 -16 36q0 38 16 38q50 0 187 68q63 31 83 48q13 11 27 11q29 0 30 -27l-6 -68q0 -19 9 -19t18 9q42 55 138 81q41 11 95 11q189 0 274 -185q36 -73 36 -220v-329q0 -68 106 -68q16 0 16 -38t-16 -38z" />
<glyph unicode="o" horiz-adv-x="1032" d="M969 426q0 -209 -123 -331q-119 -118 -328 -118q-185 0 -313 122q-139 131 -139 325q0 170 110 296q132 150 340 150q218 0 351 -158q102 -122 102 -286zM715 420q0 184 -71 292q-53 81 -126 81q-82 0 -139 -104q-60 -109 -60 -269q0 -185 73 -287q52 -72 124 -72 q94 0 150 114q49 99 49 245z" />
<glyph unicode="p" horiz-adv-x="1009" d="M958 475q0 -349 -200 -452q-89 -46 -231 -46q-91 0 -128 19q-8 4 -14 4q-18 0 -18 -27v-370q0 -86 141 -86q15 0 15 -38t-15 -38q-84 8 -252 8q-143 0 -223 -8q-16 0 -16 38t16 38q103 0 104 84v948q0 133 -92 133q-15 0 -15 37t15 37q55 0 190 70q58 30 78 46 q14 11 27 11q27 0 31 -21l-4 -47q-1 -24 13 -24q12 0 28 18q28 33 84 52q30 9 68 9q150 0 241 -66q157 -114 157 -329zM725 401q0 226 -84 318q-52 51 -122 51q-85 0 -140 -84q-12 -18 -12 -70v-438q7 -118 177 -119q88 0 144 140q37 92 37 202z" />
<glyph unicode="q" horiz-adv-x="980" d="M1016 -559q-80 8 -235 8q-156 0 -240 -8q-15 0 -15 38t15 38q123 0 123 86v391q-61 -17 -150 -17q-448 0 -448 504q0 172 115 284q108 105 286 105q153 0 244 -52q7 -4 14 -7l109 53q35 17 66 -28q24 -34 8 -48q-15 -14 -15 -172v-1015q0 -84 123 -84q16 0 16 -38 t-16 -38zM664 180v463q0 23 -8 35q-67 92 -148 92q-209 0 -209 -350q0 -154 51 -260q48 -101 137 -101q120 0 159 58q18 26 18 63z" />
<glyph unicode="r" horiz-adv-x="755" d="M756 752q0 -59 -42 -95q-27 -24 -61 -24q-51 0 -102 51q-23 23 -49 23q-42 0 -77 -58q-32 -55 -32 -127v-379q0 -75 103 -75q15 0 15 -38t-15 -38q-84 8 -209 8q-144 0 -228 -8q-15 0 -15 38t15 38q105 0 105 75v406q0 133 -92 133q-16 0 -16 36q0 38 16 38q51 0 190 70 q60 30 80 46q13 11 29 11q24 0 28 -20l-6 -75q0 -23 13 -23t36 26q68 79 168 79q70 0 115 -44q31 -31 31 -74z" />
<glyph unicode="s" horiz-adv-x="749" d="M346 -23q-146 0 -240 60q-28 67 -28 221q0 19 34 19q38 0 42 -17q4 -54 67 -127q65 -76 158 -76q49 0 90 42q33 34 33 75q0 120 -172 166q-177 47 -237 150q-30 52 -30 122q0 114 100 189q93 69 224 69q123 0 217 -36q39 -105 39 -191q0 -19 -30 -19q-32 0 -35 11 q-18 51 -80 113q-41 40 -125 40q-61 0 -99 -50q-23 -31 -22 -64q0 -100 168 -142q160 -40 224 -117q50 -61 50 -157q0 -133 -111 -214q-93 -69 -237 -67z" />
<glyph unicode="t" horiz-adv-x="671" d="M686 90q-108 -113 -274 -113q-219 2 -252 183q-6 33 -6 73v481q0 31 -31 31h-55q-16 0 -16 36q0 38 16 38q61 0 133 59q69 57 92 126q4 12 42 1q44 -12 50 -30v-94q0 -31 31 -31h215q15 0 15 -52q0 -53 -15 -53h-215q-31 0 -31 -31v-415q0 -121 34 -159q27 -31 87 -31 q52 0 127 47q11 8 38 -24q25 -31 15 -42z" />
<glyph unicode="u" horiz-adv-x="1028" d="M1038 31q-8 -2 -105 -21l-51 -10q-56 -12 -114 -31q-13 -4 -24 -4q-15 0 -15 45v47q0 23 -12 23t-27 -14q-92 -89 -246 -89q-126 0 -170 35q-147 118 -147 297v346q0 103 -84 103q-15 0 -15 36.5t15 36.5q112 0 224 18q31 5 50 5q46 0 46 -44q-7 -98 -7 -161v-342 q0 -123 50 -182q28 -33 98 -33q64 0 132 55q54 44 54 93v415q0 103 -84 103q-16 0 -16 36.5t16 36.5q111 0 229 19q25 4 39 4q53 0 53 -36q-8 -95 -8 -156v-406q0 -90 10 -117q14 -40 53 -40q13 0 33 5q16 4 27 -32q7 -36 -4 -41z" />
<glyph unicode="v" horiz-adv-x="925" d="M113 713q-30 71 -101 71q-15 0 -15 36t15 36q63 -6 193 -6q156 0 219 6q15 0 15 -36t-15 -36q-70 0 -70 -45q0 -19 2 -26l146 -457q4 -14 13 -14q7 0 13 14l156 451q5 13 5 24q0 53 -91 53q-15 0 -15 36t15 36q60 -6 180 -6q93 0 156 6q15 0 15 -36t-15 -36 q-99 0 -125 -71l-258 -674q-26 -62 -79 -62q-51 0 -73 52z" />
<glyph unicode="w" horiz-adv-x="1458" d="M113 713q-30 71 -101 71q-15 0 -15 36t15 36q63 -6 193 -6q156 0 219 6q15 0 15 -36t-15 -36q-70 0 -70 -45q0 -19 6 -39l142 -444q5 -14 12 -14q8 0 14 14l123 358q4 13 4 23t-4 22l-22 54q-30 71 -88 71q-16 0 -16 36t16 36q60 -6 180 -6q159 0 219 6q16 0 16 -36 t-16 -36q-69 0 -70 -46q0 -14 7 -38l141 -444q5 -14 12 -14q9 0 14 14l156 451q5 13 5 24q0 53 -91 53q-15 0 -15 36t15 36q63 -6 180 -6q96 0 156 6q15 0 15 -36t-15 -36q-99 0 -125 -71l-258 -674q-23 -62 -76 -62q-54 0 -76 52l-178 426q-5 13 -13 13t-13 -13l-160 -416 q-24 -62 -78 -62q-49 0 -74 52z" />
<glyph unicode="x" horiz-adv-x="950" d="M811 154q64 -86 135 -86q16 0 16 -38t-16 -38q-80 8 -219 8q-149 0 -229 -8q-16 0 -16 38t16 38q82 0 82 24q0 11 -31 55l-105 152q-6 8 -17 8q-9 0 -17 -10l-111 -133q-47 -56 -47 -73q0 -24 59 -23q16 0 16 -38t-16 -38q-80 8 -164 8q-81 0 -161 -8q-16 0 -16 38t16 38 q100 0 155 67l205 250q11 12 11 27q0 11 -7 22l-221 281q-54 69 -113 69q-15 0 -15 36t15 36q63 -6 213 -6q153 0 213 6q16 0 16 -36t-16 -36q-61 0 -61 -28q0 -18 25 -54l75 -106q7 -11 18 -11q10 0 19 11l72 90q33 42 33 65q0 33 -72 33q-16 0 -16 36t16 36q60 -6 166 -6 q105 0 168 6q15 0 15 -36t-15 -36q-63 0 -120 -65l-181 -217q-10 -12 -10 -24q0 -10 10 -23z" />
<glyph unicode="y" horiz-adv-x="884" d="M338 -399q-41 -106 -128 -141q-33 -13 -69 -13q-62 0 -101 43q-26 30 -26 68q0 61 59 91q30 15 66 15q104 0 121 39l78 182q7 18 7 35t-7 35l-270 758q-26 71 -107 71q-15 0 -15 36t15 36q63 -6 203 -6q148 0 211 6q15 0 15 -36t-15 -36q-80 0 -80 -47q0 -15 8 -37 l152 -424q7 -20 17 -20q13 0 22 23l165 421q5 13 5 23q0 61 -121 61q-16 0 -16 36t16 36q60 -6 194 -6q114 0 174 6q16 0 16 -36t-16 -36q-92 0 -125 -59z" />
<glyph unicode="z" horiz-adv-x="770" d="M766 264l-24 -188q-3 -34 -3 -60q0 -41 -39 -41q-11 0 -95 15q-53 10 -93 10h-443q-41 0 -41 37q0 13 9 31l356 659q9 17 9 27q0 20 -29 20h-111q-63 0 -124 -128l-46 -103q-4 -9 -18 -9q-19 0 -36 12q-13 9 -13 23q29 252 30 256q7 43 31 45q158 -20 211 -20h348 q46 0 46 -33q0 -18 -8 -32l-359 -666q-4 -7 -4 -15q0 -24 28 -24h109q132 0 225 205q5 11 27 11q9 0 26 -4q31 -9 31 -28z" />
<glyph unicode="{" horiz-adv-x="784" d="M715 -319q-176 0 -239 10q-139 24 -190 124q-36 72 -36 191v424q0 115 -76 144q-31 12 -78 12q-15 0 -15 30q0 31 15 31q117 0 144 78q10 29 10 72v325q0 219 81 297q61 60 206 70q54 4 176 4q15 0 15 -38t-13 -38q-133 0 -185 -37q-69 -48 -69 -196v-234 q0 -144 -17 -201q-25 -84 -110 -133q91 -56 114 -153q13 -56 13 -158v-266q0 -163 42 -221q44 -61 210 -61q17 0 17 -38t-15 -38z" />
<glyph unicode="|" horiz-adv-x="536" d="M197 -334v1768h194v-1768h-194z" />
<glyph unicode="}" horiz-adv-x="784" d="M80 -319q-16 0 -16 38t16 38q136 0 185 35q67 50 67 247v266q0 147 33 213q29 59 96 98q-91 53 -114 149q-13 54 -13 185v234q0 152 -75 200q-52 33 -179 33q-16 0 -16 38t16 38q194 0 267 -17q116 -26 157 -116q39 -88 39 -238v-325q0 -112 77 -139q31 -11 76 -11 q17 0 17 -30q0 -31 -15 -31q-113 0 -141 -75q-12 -32 -12 -81v-424q0 -203 -120 -279q-73 -46 -345 -46z" />
<glyph unicode="~" horiz-adv-x="743" d="M735 518l-77 -87q-84 -85 -177 -85q-52 0 -145 44q-89 42 -129 47q-10 1 -19 1q-46 0 -112 -56l-16 -14l-1 -1q-4 -4 -11 -4l-14 3q-23 11 -30 33l-1 12q1 3 3 5l63 72q83 85 191 85q52 0 148 -45q86 -41 122 -44q6 -1 11 -1q46 0 95 42q35 30 44 36l11 2q23 -2 40 -24 l7 -12l-2 -8z" />
<glyph unicode="&#xa2;" horiz-adv-x="880" d="M796 394q26 -45 9 -56l-82 -53q-116 -66 -266 -66h-21l-33 -190q-1 -8 -22 -8q-14 0 -35 3q-54 8 -52 21l34 199q-131 49 -203 171q-59 99 -59 218q0 172 104 309q122 160 309 176l35 193q1 7 20 7q25 0 58 -9q33 -10 33 -19l-31 -174q143 -10 205 -86q6 -17 6 -40 q0 -55 -31 -85q-35 -35 -57 -35q-42 0 -64 29q-6 8 -38 67q-10 18 -40 38l-110 -625q47 -21 78 -21q128 0 207 64q21 13 46 -28zM463 1018q-77 -25 -126 -130q-42 -91 -42 -206q0 -120 72 -215z" />
<glyph unicode="&#xa3;" horiz-adv-x="1263" d="M688 489q0 -162 -74 -307q117 -41 240 -41q115 0 219 70q63 43 78 43q38 0 38 -30q0 -14 -9 -36q-54 -135 -168 -194q-67 -35 -146 -35q-135 0 -315 129q-117 -129 -283 -129q-117 0 -172 73q-28 37 -28 81q0 74 69 117q57 36 144 36q87 -4 206 -45q14 53 15 125 q0 128 -60 295h-239q-16 0 -16 48q0 50 16 50h203q-50 122 -50 254q0 159 123 268q120 109 301 109q65 0 173 -34q154 -48 155 -107q0 -86 -17 -188q-11 -66 -47 -66q-44 0 -73 115q-13 48 -13 49q-47 159 -188 159q-201 0 -201 -219q0 -88 84 -340h289q16 0 16 -48 q0 -50 -16 -50h-268q14 -75 14 -152zM457 145q-89 50 -174 50q-82 0 -113 -47q-10 -16 -10 -33q0 -45 47 -68q26 -12 61 -12q121 0 189 110z" />
<glyph unicode="&#xa4;" horiz-adv-x="1024" d="M946 668q0 -145 -88 -262l78 -78l1 -7q-4 -22 -44 -57l-24 -18l-13 -4q-2 0 -4 2l-78 78q-118 -89 -260 -89q-145 0 -262 91l-80 -80l-7 -2q-21 4 -57 45q-21 24 -22 36q0 3 2 5l80 80q-88 114 -88 260q0 145 88 260l-80 80l-1 7q4 21 44 57q25 21 36 22q3 0 5 -2l80 -80 q118 90 260 90q144 0 262 -88l78 78l7 1q21 -4 57 -44l17 -24l5 -14l-2 -3l-78 -78q88 -118 88 -262zM825 668q0 130 -92 221q-91 90 -221 90q-129 0 -221 -92l-28 -32q-62 -83 -62 -187q0 -129 91 -221q91 -91 220 -91q131 0 222 92q91 91 91 220z" />
<glyph unicode="&#xa5;" horiz-adv-x="1421" d="M426 821h-250q-15 0 -15 71t15 71h160l-174 274q-55 87 -107 111q-31 14 -69 14q-15 0 -16 49l3 32q5 19 13 19q60 -6 280 -6q222 0 285 6q15 0 15 -50l-3 -33q-5 -17 -12 -17q-112 0 -118 -58l2 -22l11 -29q4 -8 9 -16l272 -434q11 -17 22 -17t23 19l287 424 q25 37 25 65q0 12 -4 23q-20 45 -109 45q-15 0 -16 49l3 32q5 19 13 19q60 -6 237 -6q190 0 250 6q15 0 16 -49l-3 -32l-6 -15q-3 -4 -7 -4q-115 0 -190 -71q-39 -37 -116 -149l-19 -28l-105 -151h182q15 0 16 -70l-4 -46l-6 -21q-2 -5 -6 -5h-280l-60 -86q-37 -54 -47 -80 h387q15 0 16 -68l-3 -47l-7 -21q-2 -5 -6 -5h-397v-297q0 -86 59 -110q35 -15 99 -15q15 0 15 -50t-15 -50q-84 8 -285 8q-209 0 -293 -8q-15 0 -15 50t15 50q103 0 133 33q25 27 25 92v297h-375q-15 0 -15 70q0 49 9 66q3 5 6 5h352q-17 33 -47 78z" />
<glyph unicode="&#xa6;" horiz-adv-x="536" d="M391 795h-194v577h194v-577zM391 109h-194v579h194v-579z" />
<glyph unicode="&#xa7;" d="M915 481q0 -172 -178 -270q127 -123 127 -248q0 -150 -117 -255q-122 -111 -292 -111q-83 0 -197 42q-176 64 -176 158q0 42 56 83q39 28 69 28q31 0 70 -59l57 -84q57 -84 137 -84q91 0 147 77q41 57 41 131q0 91 -122 178q-51 34 -188 112q-159 91 -223 168 q-69 83 -69 181q0 123 98 221q37 36 83 62q-105 107 -105 227q0 147 113 246q111 96 264 96q84 0 172 -37q135 -59 143 -131q0 -45 -46 -83q-33 -27 -68 -27q-28 0 -58 50l-43 71q-44 73 -125 73q-76 0 -126 -65q-37 -49 -37 -109q0 -88 118 -170q30 -20 166 -96 q157 -87 224 -161q85 -95 85 -214zM727 426q0 96 -215 211q-93 51 -197 121q-73 -67 -73 -160q0 -80 161 -176q134 -76 261 -160q63 58 63 164z" />
<glyph unicode="&#xa9;" horiz-adv-x="1611" d="M1532 748q0 -244 -148 -438q-59 -76 -134 -134q-194 -149 -439 -149q-244 0 -437 148q-179 137 -249 350q-35 108 -35 223q0 243 148 437q137 178 350 248q108 35 223 35q243 0 437 -148q179 -137 249 -349q35 -108 35 -223zM1430 748q0 218 -137 388q-128 158 -324 210 q-77 20 -158 20q-219 0 -388 -137q-52 -41 -93 -93q-137 -169 -137 -388q0 -218 136 -388q128 -159 324 -211q77 -20 158 -20q218 0 388 137q159 128 211 324q20 77 20 158zM1108 561q-3 -37 -34 -109l-18 -38l-3 -4q-32 -7 -47 -11q-90 -24 -191 -24q-163 0 -274 104 q-106 100 -111 245v13q0 170 109 282q111 114 286 114q66 0 192 -26l5 -1q10 -2 43 -2q17 -37 22 -162v-14q0 -11 -28 -12l-18 3q-4 2 -5 5q-15 154 -197 161h-16q-126 0 -195 -113q-53 -86 -53 -204q0 -195 114 -290q63 -52 132 -52q186 0 236 149q2 6 13 6q23 0 35 -13z " />
<glyph unicode="&#xae;" horiz-adv-x="1611" d="M1532 748q0 -244 -148 -438q-59 -76 -134 -134q-194 -149 -439 -149q-244 0 -437 148q-179 137 -249 350q-35 108 -35 223q0 243 148 437q137 178 350 248q108 35 223 35q243 0 437 -148q179 -137 249 -349q35 -108 35 -223zM1430 748q0 218 -137 388q-128 158 -324 210 q-77 20 -158 20q-219 0 -388 -137q-52 -41 -93 -93q-137 -169 -137 -388q0 -218 136 -388q128 -159 324 -211q77 -20 158 -20q218 0 388 137q159 128 211 324q20 77 20 158zM1092 922q0 -120 -152 -181q-12 -5 -10 -11l3 -11q18 -67 177 -230q55 -57 96 -63q15 -2 15 -18 q0 -18 -15 -18h-63q-60 0 -111 28q-74 42 -153 157l-58 82q-42 58 -68 58h-8q-3 0 -32 2q-15 1 -15 -12v-195q0 -50 42 -58q16 -3 40 -3q10 0 10 -27q0 -25 -7 -25q-33 4 -148 4t-154 -4q-9 0 -9 25q0 24 7 24q88 0 88 64v510q0 53 -65 58q-12 1 -27 1q-7 0 -7 24q0 25 7 25 q130 -4 156 -4q22 0 83 3q56 3 79 3q179 0 254 -86q45 -51 45 -122zM954 922q0 73 -62 121q-56 44 -149 44q-37 0 -42 -7q-3 -8 -3 -12v-284q0 -19 13 -20q24 -6 47 -6q171 0 193 127q3 17 3 37z" />
<glyph unicode="&#xb0;" horiz-adv-x="712" d="M631 1047q0 -137 -102 -212q-73 -53 -173 -53q-127 0 -205 82q-69 72 -69 183q0 126 94 202q76 62 180 62q122 0 202 -81q73 -74 73 -183zM485 1047q0 97 -63 139q-30 20 -66 20q-67 0 -104 -61q-25 -41 -25 -98q0 -97 63 -140q30 -20 66 -20q69 0 105 62q24 41 24 98z " />
<glyph unicode="&#xb1;" horiz-adv-x="1064" d="M924 629h-299v-342h-181v342h-301v147h301v305h181v-305h299v-147zM924 -6h-781v147h781v-147z" />
<glyph unicode="&#xb4;" horiz-adv-x="569" d="M186 975q-42 0 -42 53q0 21 8 41l120 302q7 17 28 17q32 0 95 -43q38 -26 38 -47q0 -6 -3 -11l-176 -263q-32 -49 -68 -49z" />
<glyph unicode="&#xb6;" horiz-adv-x="1118" d="M963 145q0 -77 118 -77q16 0 16 -37q0 -39 -16 -39q-80 8 -194 8h-307q-129 0 -209 -8q-16 0 -16 37q0 39 16 39q116 0 116 75v529q0 22 -24 22q-244 3 -360 142q-87 99 -87 243q0 182 135 292q125 102 312 102q249 -7 415 -7q147 0 203 7q16 0 16 -37q0 -39 -16 -39 q-118 0 -118 -74v-1178zM797 143v1180q0 74 -66 74q-78 0 -78 -74v-1178q0 -77 70 -77q74 0 74 75z" />
<glyph unicode="&#xb7;" horiz-adv-x="593" d="M492 512q0 -78 -63 -121q-39 -26 -87 -26q-72 0 -121 45q-45 42 -45 112q0 56 40 100q45 50 126 50q93 0 134 -85q16 -34 16 -75z" />
<glyph unicode="&#xc1;" horiz-adv-x="1401" d="M675 1475q-42 0 -42 53q0 21 8 41l120 302q7 17 28 17q32 0 95 -43q38 -26 38 -47q0 -6 -3 -11l-176 -263q-32 -49 -68 -49zM1196 202q41 -116 202 -116q15 0 15 -46q0 -48 -15 -47q-115 7 -266 7q-149 0 -274 -7q-15 0 -15 46q0 47 15 47q96 0 96 65q0 21 -10 51 l-100 297q-7 22 -34 24h-373q-21 0 -32 -29l-109 -293q-9 -24 -9 -42q0 -73 147 -73q13 0 13 -46q0 -48 -13 -47q-83 7 -232 7q-151 0 -229 -7q-14 0 -14 46q0 47 14 47q152 0 202 131l370 968q13 30 13 36q0 10 -8 17q-21 21 -21 30q0 15 31 25q35 12 124 65q52 31 71 31 q33 0 47 -60q8 -35 50 -152zM793 644l-144 424q-5 16 -16 16q-10 0 -16 -16l-163 -444q-1 -2 -1 -4q0 -13 28 -13h287q28 0 28 22q0 6 -3 15z" />
<glyph unicode="&#xc9;" horiz-adv-x="1250" d="M620 1475q-42 0 -42 53q0 21 8 41l120 302q7 17 28 17q32 0 95 -43q38 -26 38 -47q0 -6 -3 -11l-176 -263q-32 -49 -68 -49zM821 404q-53 0 -53 15v86q0 89 -123 89h-135q-29 0 -29 -31v-341q0 -77 75 -116q39 -20 81 -20l223 5q157 2 205 137q18 50 18 116q0 17 48 17 q54 0 54 -17v-287q0 -65 -117 -64l-705 7q-153 0 -288 -7q-15 0 -15 46q0 47 15 47q162 0 162 116v954q0 109 -172 109q-14 0 -14 46q0 47 14 47q143 -6 290 -6q89 0 626 6h91q57 0 57 -51v-306q0 -17 -47 -17q-54 0 -54 17q0 130 -99 205q-61 47 -125 49l-296 10 q-27 1 -27 -40v-509q0 -29 29 -29h135q123 0 123 91v99q0 14 52 14q53 0 53 -14q-7 -67 -7 -233q0 -162 7 -225q0 -15 -52 -15z" />
<glyph unicode="&#xcd;" horiz-adv-x="734" d="M315 1475q-42 0 -42 53q0 21 8 41l120 302q7 17 28 17q32 0 95 -43q38 -26 38 -47q0 -6 -3 -11l-176 -263q-32 -49 -68 -49zM481 202q0 -116 159 -116q14 0 14 -46q0 -47 -14 -47q-133 7 -279 7q-160 0 -286 -7q-15 0 -15 46q0 47 15 47q162 0 162 116v952 q0 116 -161 116q-14 0 -14 46q0 47 14 47q48 -5 279 -5q241 0 289 5q14 0 14 -46q0 -47 -14 -47q-163 0 -163 -116v-952z" />
<glyph unicode="&#xd3;" horiz-adv-x="1524" d="M745 1475q-42 0 -42 53q0 21 8 41l120 302q7 17 28 17q32 0 95 -43q38 -26 38 -47q0 -6 -3 -11l-176 -263q-32 -49 -68 -49zM1430 663q0 -220 -145 -417q-202 -273 -544 -273q-225 0 -405 124q-281 194 -281 570q0 251 176 474q195 244 514 244q246 0 426 -155 q259 -224 259 -567zM1157 649q0 255 -124 438q-142 210 -293 210q-153 1 -267 -130q-145 -166 -145 -443q0 -304 153 -495q129 -162 274 -162q265 0 358 279q44 130 44 303z" />
<glyph unicode="&#xda;" horiz-adv-x="1512" d="M807 1475q-42 0 -42 53q0 21 8 41l120 302q7 17 28 17q32 0 95 -43q38 -26 38 -47q0 -6 -3 -11l-176 -263q-32 -49 -68 -49zM1322 880q0 -276 -12 -416q-17 -245 -154 -373q-126 -118 -383 -118q-156 0 -268 42q-157 61 -219 185q-52 107 -62 345v609q0 116 -157 116 q-14 0 -14 46q0 47 14 47q147 -5 281 -5q146 0 294 5q14 0 14 -46q0 -47 -14 -47q-174 0 -174 -116v-468l11 -281q3 -124 55 -203q90 -135 276 -135q173 0 277 106q90 93 90 323v658q0 116 -157 116q-14 0 -14 46q0 47 14 47q138 -5 229 -5q92 0 227 5q15 0 15 -46 q0 -47 -15 -47q-154 0 -154 -116v-274z" />
<glyph unicode="&#xe1;" horiz-adv-x="860" d="M390 975q-42 0 -42 53q0 21 8 41l120 302q7 17 28 17q32 0 95 -43q38 -26 38 -47q0 -6 -3 -11l-176 -263q-32 -49 -68 -49zM866 88q-58 -113 -190 -113q-92 0 -162 82q-14 19 -21 19q-13 0 -28 -17q-82 -82 -199 -82q-125 0 -177 85q-26 43 -26 100q0 121 212 231l151 72 q35 20 35 47v190q0 72 -105 72q-79 0 -116 -51q-9 -14 -10 -75q0 -35 -5 -52q-25 -88 -92 -88q-90 0 -90 78q0 67 56 144q31 44 65 65q120 75 264 75q113 0 195 -56q65 -44 67 -107v-508q0 -114 67 -114q30 -3 72 36q8 8 28 -9q14 -14 9 -24zM461 193v182q0 23 -14 23 q-7 0 -13 -3q-141 -71 -141 -190q0 -117 72 -117q96 0 96 105z" />
<glyph unicode="&#xe6;" horiz-adv-x="1239" d="M1176 154q-148 -177 -361 -177q-104 0 -196 69q-28 21 -50 46q-17 22 -26 22q-8 0 -33 -22q-60 -67 -117 -87q-41 -15 -96 -15q-151 0 -206 87q-23 37 -23 85q0 153 159 219l207 90q35 15 35 59v148q0 110 -98 110q-65 0 -111 -61q-9 -12 -9 -49l1 -41q0 -75 -46 -110 q-25 -19 -59 -19q-88 0 -88 80q0 65 55 140q30 40 62 60q138 82 250 82q104 0 177 -56q26 -25 38 -25q13 0 35 20q77 61 180 61q183 0 276 -88q39 -40 39 -65q0 -27 -57 -51l-387 -162q-41 -16 -41 -80q0 -89 53 -174q74 -117 195 -117q79 0 159 48q15 9 23 18q14 13 42 -9 q27 -26 18 -36zM975 713q0 29 -39 54q-32 21 -70 21q-60 0 -119 -76q-45 -59 -47 -106q0 -16 15 -16l243 98q17 6 17 25zM494 225q-15 38 -25 142q-2 22 -14 22q-8 0 -19 -6q-139 -77 -139 -193q0 -61 44 -87q19 -11 40 -11q45 0 98 68q19 24 19 44q0 10 -4 21z" />
<glyph unicode="&#xe9;" horiz-adv-x="876" d="M452 975q-42 0 -42 53q0 21 8 41l120 302q7 17 28 17q32 0 95 -43q38 -26 38 -47q0 -6 -3 -11l-176 -263q-32 -49 -68 -49zM809 612q0 -75 -90 -75h-385q-37 0 -37 -27q0 -237 112 -334q62 -53 152 -53q81 0 166 55q20 11 49 -26q26 -35 15 -46q-48 -49 -134 -88 q-88 -41 -202 -41q-135 0 -243 109q-144 144 -144 350q0 165 107 291q122 143 286 143q178 0 283 -119q65 -89 65 -139zM309 653q0 -26 37 -26h203q37 0 37 24q0 67 -55 112q-34 28 -68 28q-64 0 -113 -43q-41 -40 -41 -95z" />
<glyph unicode="&#xed;" horiz-adv-x="524" d="M211 975q-42 0 -42 53q0 21 8 41l120 302q7 17 28 17q32 0 95 -43q38 -26 38 -47q0 -6 -3 -11l-176 -263q-32 -49 -68 -49zM393 143q0 -75 103 -75q15 0 15 -38t-15 -38q-84 8 -209 8q-144 0 -228 -8q-15 0 -15 38t15 38q105 0 105 75v414q0 125 -92 125q-16 0 -16 37 t16 37q50 0 187 68q63 31 83 48q13 11 31 11q28 0 26 -27q-6 -84 -6 -174v-539z" />
<glyph unicode="&#xf3;" horiz-adv-x="1032" d="M483 975q-42 0 -42 53q0 21 8 41l120 302q7 17 28 17q32 0 95 -43q38 -26 38 -47q0 -6 -3 -11l-176 -263q-32 -49 -68 -49zM969 426q0 -209 -123 -331q-119 -118 -328 -118q-185 0 -313 122q-139 131 -139 325q0 170 110 296q132 150 340 150q218 0 351 -158 q102 -122 102 -286zM715 420q0 184 -71 292q-53 81 -126 81q-82 0 -139 -104q-60 -109 -60 -269q0 -185 73 -287q52 -72 124 -72q94 0 150 114q49 99 49 245z" />
<glyph unicode="&#xfa;" horiz-adv-x="1028" d="M469 975q-42 0 -42 53q0 21 8 41l120 302q7 17 28 17q32 0 95 -43q38 -26 38 -47q0 -6 -3 -11l-176 -263q-32 -49 -68 -49zM1038 31q-8 -2 -105 -21l-51 -10q-56 -12 -114 -31q-13 -4 -24 -4q-15 0 -15 45v47q0 23 -12 23t-27 -14q-92 -89 -246 -89q-126 0 -170 35 q-147 118 -147 297v346q0 103 -84 103q-15 0 -15 36.5t15 36.5q112 0 224 18q31 5 50 5q46 0 46 -44q-7 -98 -7 -161v-342q0 -123 50 -182q28 -33 98 -33q64 0 132 55q54 44 54 93v415q0 103 -84 103q-16 0 -16 36.5t16 36.5q111 0 229 19q25 4 39 4q53 0 53 -36 q-8 -95 -8 -156v-406q0 -90 10 -117q14 -40 53 -40q13 0 33 5q16 4 27 -32q7 -36 -4 -41z" />
<glyph unicode="&#x104;" horiz-adv-x="1401" d="M804 -328q0 171 260 369h101q-185 -185 -185 -311q0 -121 123 -121q61 0 103 31q20 -7 20 -39q-75 -113 -217 -113q-205 0 -205 184zM1196 202q41 -116 202 -116q15 0 15 -46q0 -48 -15 -47q-115 7 -266 7q-149 0 -274 -7q-15 0 -15 46q0 47 15 47q96 0 96 65 q0 21 -10 51l-100 297q-7 22 -34 24h-373q-21 0 -32 -29l-109 -293q-9 -24 -9 -42q0 -73 147 -73q13 0 13 -46q0 -48 -13 -47q-83 7 -232 7q-151 0 -229 -7q-14 0 -14 46q0 47 14 47q152 0 202 131l370 968q13 30 13 36q0 10 -8 17q-21 21 -21 30q0 15 31 25q35 12 124 65 q52 31 71 31q33 0 47 -60q8 -35 50 -152zM793 644l-144 424q-5 16 -16 16q-10 0 -16 -16l-163 -444q-1 -2 -1 -4q0 -13 28 -13h287q28 0 28 22q0 6 -3 15z" />
<glyph unicode="&#x105;" horiz-adv-x="860" d="M350 -328q0 171 260 369h101q-185 -185 -185 -311q0 -121 123 -121q61 0 103 31q20 -7 20 -39q-75 -113 -217 -113q-205 0 -205 184zM866 88q-58 -113 -190 -113q-92 0 -162 82q-14 19 -21 19q-13 0 -28 -17q-82 -82 -199 -82q-125 0 -177 85q-26 43 -26 100 q0 121 212 231l151 72q35 20 35 47v190q0 72 -105 72q-79 0 -116 -51q-9 -14 -10 -75q0 -35 -5 -52q-25 -88 -92 -88q-90 0 -90 78q0 67 56 144q31 44 65 65q120 75 264 75q113 0 195 -56q65 -44 67 -107v-508q0 -114 67 -114q30 -3 72 36q8 8 28 -9q14 -14 9 -24zM461 193 v182q0 23 -14 23q-7 0 -13 -3q-141 -71 -141 -190q0 -117 72 -117q96 0 96 105z" />
<glyph unicode="&#x10c;" horiz-adv-x="1349" d="M1076 1942l-230 -412q-17 -31 -50 -31q-31 0 -48 31l-229 412q-2 3 -2 6q0 16 28 32q10 6 17 6q6 0 10 -5l182 -213q33 -39 43 -39t43 39l182 213q5 5 11 5q8 0 19 -7q26 -18 26 -31q0 -3 -2 -6zM1320 321q-5 -57 -51 -177q-28 -72 -52 -108q-47 -7 -88 -19 q-153 -44 -358 -44q-263 0 -458 151q-258 199 -258 523q0 270 153 467q212 271 587 271q130 0 338 -43q56 -11 107 -13q28 -59 38 -275l2 -51q0 -18 -43 -22q-48 -2 -51 14q-19 209 -211 275q-79 27 -186 27q-207 0 -334 -168t-127 -424q0 -324 171 -503q129 -135 286 -135 q343 0 440 277q7 19 57 7q39 -9 38 -30z" />
<glyph unicode="&#x10d;" horiz-adv-x="880" d="M801 1417l-230 -412q-17 -31 -50 -31q-31 0 -48 31l-229 412q-2 3 -2 6q0 16 28 32q10 6 17 6q6 0 10 -5l182 -213q33 -39 43 -39t43 39l182 213q5 5 11 5q8 0 19 -7q26 -18 26 -31q0 -3 -2 -6zM709 620q-37 0 -56 29l-39 66q-39 59 -112 59q-81 0 -141 -93 q-66 -102 -66 -245q0 -133 88 -227q79 -84 180 -84q109 0 187 55q17 12 46 -30q26 -43 9 -54l-82 -53q-116 -66 -266 -66q-140 0 -251 99q-140 123 -140 311q0 170 106 307q136 176 350 176q135 0 223 -45q39 -20 54 -45q6 -16 6 -40q0 -52 -31 -85q-35 -35 -65 -35z" />
<glyph unicode="&#x12e;" horiz-adv-x="734" d="M74 -328q0 171 260 369h101q-185 -185 -185 -311q0 -121 123 -121q61 0 103 31q20 -7 20 -39q-75 -113 -217 -113q-205 0 -205 184zM481 202q0 -116 159 -116q14 0 14 -46q0 -47 -14 -47q-133 7 -279 7q-160 0 -286 -7q-15 0 -15 46q0 47 15 47q162 0 162 116v952 q0 116 -161 116q-14 0 -14 46q0 47 14 47q48 -5 279 -5q241 0 289 5q14 0 14 -46q0 -47 -14 -47q-163 0 -163 -116v-952z" />
<glyph unicode="&#x12f;" horiz-adv-x="524" d="M-32 -328q0 171 260 369h101q-185 -185 -185 -311q0 -121 123 -121q61 0 103 31q20 -7 20 -39q-75 -113 -217 -113q-205 0 -205 184zM496 -8q-84 8 -209 8q-144 0 -228 -8q-15 0 -15 38t15 38q105 0 105 75v414q0 125 -92 125q-16 0 -16 36q0 38 16 38q50 0 187 68 q63 31 83 48q13 11 31 11q28 0 26 -27q-6 -88 -6 -174v-539q0 -75 103 -75q15 0 15 -38q0 -37 -15 -38zM401 1288q0 -70 -59 -111q-38 -26 -86 -26q-74 0 -117 57q-26 36 -26 80q0 69 57 111q38 28 86 28q75 0 118 -58q27 -39 27 -81z" />
<glyph unicode="&#x131;" horiz-adv-x="524" d="M393 143q0 -75 103 -75q15 0 15 -38t-15 -38q-84 8 -209 8q-144 0 -228 -8q-15 0 -15 38t15 38q105 0 105 75v414q0 125 -92 125q-16 0 -16 37t16 37q50 0 187 68q63 31 83 48q13 11 31 11q28 0 26 -27q-6 -84 -6 -174v-539z" />
<glyph unicode="&#x147;" horiz-adv-x="1482" d="M1005 1942l-230 -412q-17 -31 -50 -31q-31 0 -48 31l-229 412q-2 3 -2 6q0 16 28 32q10 6 17 6q6 0 10 -5l182 -213q33 -39 43 -39t43 39l182 213q5 5 11 5q8 0 19 -7q26 -18 26 -31q0 -3 -2 -6zM1288 76q0 -97 -31 -97q-26 0 -74 57l-822 978q-13 16 -20 16 q-13 0 -13 -22v-806q0 -116 151 -116q15 0 15 -46q0 -48 -15 -47q-92 7 -200 7q-102 0 -214 -7q-14 -2 -14 46q0 47 14 47q159 0 159 116v954q0 114 -173 114q-13 0 -13 46q0 47 13 47q50 -5 177 -5q84 0 98 -2q59 -9 100 -57l711 -867q10 -14 24 -14q24 0 24 31v703 q0 118 -153 118q-15 0 -15 46q0 47 15 47q102 -5 198 -5q100 0 193 5q14 0 14 -46q0 -47 -14 -47q-135 0 -135 -118v-1076z" />
<glyph unicode="&#x148;" horiz-adv-x="1087" d="M889 1417l-230 -412q-17 -31 -50 -31q-31 0 -48 31l-229 412q-2 3 -2 6q0 16 28 32q10 6 17 6q6 0 10 -5l182 -213q33 -39 43 -39t43 39l182 213q5 5 11 5q8 0 19 -7q26 -18 26 -31q0 -3 -2 -6zM1069 -8q-107 8 -211 8q-105 0 -225 -8q-15 -1 -15 37.5t15 38.5 q101 0 101 62v407q0 149 -59 200q-29 25 -96 25q-62 0 -119 -50q-67 -58 -67 -120v-449q0 -75 99 -75q15 0 15 -38t-15 -38q-84 8 -216 8q-135 0 -219 -8q-15 0 -15 38t15 38q107 0 107 75v406q0 133 -92 133q-16 0 -16 36q0 38 16 38q50 0 187 68q63 31 83 48q13 11 27 11 q29 0 30 -27l-6 -68q0 -19 9 -19t18 9q42 55 138 81q41 11 95 11q189 0 274 -185q36 -73 36 -220v-329q0 -68 106 -68q16 0 16 -38t-16 -38z" />
<glyph unicode="&#x14a;" horiz-adv-x="1482" d="M1288 76v-13l-2 -174q0 -103 -66 -222q-14 -26 -31 -51q-94 -136 -264 -134q-59 1 -96 35q-34 32 -34 80q0 26 9 44t25 29q25 18 63 17q54 -2 99 -43q25 -23 39 -29l5 -1q39 2 81 66q61 91 61 185v178l-816 971q-13 16 -20 16q-13 0 -13 -22v-806q0 -116 151 -116 q15 0 15 -46q0 -48 -15 -47q-105 7 -200 7q-102 0 -214 -7q-14 -2 -14 46q0 47 14 47q159 0 159 116v954q0 114 -173 114q-13 0 -13 46q0 47 13 47q50 -5 177 -5q84 0 98 -2q59 -9 100 -57l711 -867q10 -14 24 -14q24 0 24 31v703q0 118 -153 118q-15 0 -15 46q0 47 15 47 q102 -5 198 -5q100 0 193 5q14 0 14 -46q0 -47 -14 -47q-135 0 -135 -118v-1076z" />
<glyph unicode="&#x14b;" horiz-adv-x="1087" d="M964 139q1 -182 -11 -268q-24 -175 -108 -287q-76 -103 -208 -131q-37 -8 -72 -8q-63 0 -117 43q-44 35 -44 86q0 57 51 87q26 15 58 15q48 0 80 -52q44 -73 80 -73q45 1 56 91q5 41 5 129v766q0 149 -59 200q-29 25 -96 25q-62 0 -119 -50q-67 -58 -67 -120v-449 q0 -75 99 -75q15 0 15 -38t-15 -38q-84 8 -216 8q-135 0 -219 -8q-15 0 -15 38t15 38q107 0 107 75v406q0 133 -92 133q-16 0 -16 36q0 38 16 38q50 0 187 68q63 31 83 48q13 11 27 11q29 0 30 -27l-6 -68q0 -19 9 -19t18 9q42 55 138 81q41 11 95 11q189 0 274 -185 q36 -73 36 -220z" />
<glyph unicode="&#x160;" horiz-adv-x="1077" d="M807 1942l-230 -412q-17 -31 -50 -31q-31 0 -48 31l-229 412q-2 3 -2 6q0 16 28 32q10 6 17 6q6 0 10 -5l182 -213q33 -39 43 -39t43 39l182 213q5 5 11 5q8 0 19 -7q26 -18 26 -31q0 -3 -2 -6zM980 403q0 -181 -109 -300q-118 -130 -317 -130q-144 0 -246 36l-144 62 q-53 160 -53 313q0 24 46 26q48 3 51 -18q10 -116 90 -207q105 -118 273 -118q72 0 129 57q71 70 71 184q0 206 -270 275q-397 101 -397 450q0 142 129 258q105 94 292 94q120 0 213 -21q56 -12 62 -12l36 2h1q37 -118 49 -271q2 -26 -44 -33q-46 -6 -51 12q-30 117 -98 178 t-187 61q-95 0 -154 -84q-40 -56 -40 -142q0 -181 247 -241q421 -102 421 -431z" />
<glyph unicode="&#x161;" horiz-adv-x="749" d="M667 1417l-230 -412q-17 -31 -50 -31q-31 0 -48 31l-229 412q-2 3 -2 6q0 16 28 32q10 6 17 6q6 0 10 -5l182 -213q33 -39 43 -39t43 39l182 213q5 5 11 5q8 0 19 -7q26 -18 26 -31q0 -3 -2 -6zM346 -23q-146 0 -240 60q-28 67 -28 221q0 19 34 19q38 0 42 -17 q4 -54 67 -127q65 -76 158 -76q49 0 90 42q33 34 33 75q0 120 -172 166q-177 47 -237 150q-30 52 -30 122q0 114 100 189q93 69 224 69q123 0 217 -36q39 -105 39 -191q0 -19 -30 -19q-32 0 -35 11q-18 51 -80 113q-41 40 -125 40q-61 0 -99 -50q-23 -31 -22 -64 q0 -100 168 -142q160 -40 224 -117q50 -61 50 -157q0 -133 -111 -214q-93 -69 -237 -67z" />
<glyph unicode="&#x172;" horiz-adv-x="1512" d="M462 -328q0 171 260 369h101q-185 -185 -185 -311q0 -121 123 -121q61 0 103 31q20 -7 20 -39q-75 -113 -217 -113q-205 0 -205 184zM1322 880q0 -276 -12 -416q-17 -245 -154 -373q-126 -118 -383 -118q-156 0 -268 42q-157 61 -219 185q-52 107 -62 345v609 q0 116 -157 116q-14 0 -14 46q0 47 14 47q147 -5 281 -5q146 0 294 5q14 0 14 -46q0 -47 -14 -47q-174 0 -174 -116v-468l11 -281q3 -124 55 -203q90 -135 276 -135q173 0 277 106q90 93 90 323v658q0 116 -157 116q-14 0 -14 46q0 47 14 47q138 -5 229 -5q92 0 227 5 q15 0 15 -46q0 -47 -15 -47q-154 0 -154 -116v-274z" />
<glyph unicode="&#x173;" horiz-adv-x="1028" d="M444 -328q0 171 260 369h101q-185 -185 -185 -311q0 -121 123 -121q61 0 103 31q20 -7 20 -39q-75 -113 -217 -113q-205 0 -205 184zM1038 31q-8 -2 -105 -21l-51 -10q-56 -12 -114 -31q-13 -4 -24 -4q-15 0 -15 45v47q0 23 -12 23t-27 -14q-92 -89 -246 -89 q-126 0 -170 35q-147 118 -147 297v346q0 103 -84 103q-15 0 -15 36.5t15 36.5q112 0 224 18q31 5 50 5q46 0 46 -44q-7 -98 -7 -161v-342q0 -123 50 -182q28 -33 98 -33q64 0 132 55q54 44 54 93v415q0 103 -84 103q-16 0 -16 36.5t16 36.5q111 0 229 19q25 4 39 4 q53 0 53 -36q-8 -95 -8 -156v-406q0 -90 10 -117q14 -40 53 -40q13 0 33 5q16 4 27 -32q7 -36 -4 -41z" />
<glyph unicode="&#x17d;" horiz-adv-x="1317" d="M975 1942l-230 -412q-17 -31 -50 -31q-31 0 -48 31l-229 412q-2 3 -2 6q0 16 28 32q10 6 17 6q6 0 10 -5l182 -213q33 -39 43 -39t43 39l182 213q5 5 11 5q8 0 19 -7q26 -18 26 -31q0 -3 -2 -6zM1270 19q0 -48 -16 -48q-25 -1 -79 8q-131 21 -581 21h-448q-70 0 -70 49 q0 26 17 48l871 1139q10 13 10 21q0 17 -40 17h-513q-44 0 -71 -27q-39 -31 -97 -172q-31 -75 -33 -101q-1 -11 -26 -12q-16 0 -32 5q-24 8 -25 21q31 235 31 332q0 48 41 48q3 0 60 -9q48 -7 61 -7h507l382 6q65 1 65 -32q0 -24 -25 -58l-833 -1144q-7 -10 -7 -17 q0 -21 33 -21q411 0 593 13q53 4 138 150q40 69 51 106q2 7 19 7q34 0 55 -17q7 -6 6 -15q-44 -172 -44 -311z" />
<glyph unicode="&#x17e;" horiz-adv-x="770" d="M672 1417l-230 -412q-17 -31 -50 -31q-31 0 -48 31l-229 412q-2 3 -2 6q0 16 28 32q10 6 17 6q6 0 10 -5l182 -213q33 -39 43 -39t43 39l182 213q5 5 11 5q8 0 19 -7q26 -18 26 -31q0 -3 -2 -6zM766 264l-24 -188q-3 -34 -3 -60q0 -41 -39 -41q-11 0 -95 15 q-53 10 -93 10h-443q-41 0 -41 37q0 13 9 31l356 659q9 17 9 27q0 20 -29 20h-111q-63 0 -124 -128l-46 -103q-4 -9 -18 -9q-19 0 -36 12q-13 9 -13 23q29 252 30 256q7 43 31 45q158 -20 211 -20h348q46 0 46 -33q0 -18 -8 -32l-359 -666q-4 -7 -4 -15q0 -24 28 -24h109 q132 0 225 205q5 11 27 11q9 0 26 -4q31 -9 31 -28z" />
<glyph unicode="&#x1e6;" horiz-adv-x="1443" d="M1073 1942l-230 -412q-17 -31 -50 -31q-31 0 -48 31l-229 412q-2 3 -2 6q0 16 28 32q10 6 17 6q6 0 10 -5l182 -213q33 -39 43 -39t43 39l182 213q5 5 11 5q8 0 19 -7q26 -18 26 -31q0 -3 -2 -6zM832 523q0 46 14 46q60 -6 317 -6q168 0 228 6q13 0 13 -45q0 -46 -13 -46 q-108 0 -108 -77v-241q0 -45 42 -45q15 0 15 -39q0 -41 -15 -41q-50 0 -196 -24q-226 -38 -358 -38q-263 -3 -463 153q-253 198 -253 521q0 266 152 463q212 275 588 275q131 0 317 -38q70 -18 128 -18q28 -59 38 -275l2 -51q0 -18 -43 -22q-48 -2 -51 14q-19 209 -211 275 q-79 27 -186 27q-207 0 -334 -168t-127 -424q0 -324 171 -503q129 -135 286 -135q111 0 192 26q62 24 62 66v242q0 77 -114 77h-79q-14 0 -14 45z" />
<glyph unicode="&#x1e7;" horiz-adv-x="948" d="M721 1417l-230 -412q-17 -31 -50 -31q-31 0 -48 31l-229 412q-2 3 -2 6q0 16 28 32q10 6 17 6q6 0 10 -5l182 -213q33 -39 43 -39t43 39l182 213q5 5 11 5q8 0 19 -7q26 -18 26 -31q0 -3 -2 -6zM981 -141q0 -162 -147 -280q-173 -138 -422 -138q-300 0 -372 148 q-20 41 -20 92q0 81 103 166q34 28 80 51q14 7 14 14q0 5 -16 12q-133 56 -133 174q0 75 145 138q16 7 16 13q0 5 -18 17q-154 97 -154 262q0 141 109 240q112 102 276 102q111 0 222 -43q65 -28 91 -30h193q16 0 16 -55q0 -60 -16 -60h-92q-31 0 -31 -29v-78 q0 -169 -119 -270q-104 -88 -276 -88q-50 0 -106 7q-12 1 -23 -7q-37 -30 -37 -57q0 -32 40 -52q33 -16 87 -16h254q129 0 192 -21q144 -47 144 -212zM592 522q0 177 -71 242q-31 29 -75 29q-72 0 -119 -86q-38 -70 -38 -158q0 -121 59 -196q46 -58 113 -58q89 0 119 119 q12 48 12 108zM811 -242q0 131 -236 131h-212q-21 0 -41 -14q-63 -46 -64 -123q0 -75 60 -130q68 -62 186 -62q251 0 298 140q9 27 9 58z" />
<glyph unicode="&#x1f0;" horiz-adv-x="499" d="M375 850q-8 -140 -8 -168v-543q0 -186 -11 -268q-24 -175 -108 -287q-76 -103 -208 -131q-37 -8 -72 -8h-13q-55 2 -104 43q-44 38 -44 86q0 57 51 87q26 15 58 15q43 0 80 -52q35 -48 38 -51q20 -22 42 -22q46 0 56 91q5 43 5 129v786q0 125 -92 125q-15 0 -15 37t15 37 q51 0 189 68q63 31 83 48q14 11 29 11q28 0 29 -27v-6zM531 1417l-230 -412q-17 -31 -50 -31q-31 0 -48 31l-229 412q-2 3 -2 6q0 16 28 32q10 6 17 6q6 0 10 -5l182 -213q33 -39 43 -39t43 39l182 213q5 5 11 5q8 0 19 -7q26 -18 26 -31q0 -3 -2 -6z" />
<glyph unicode="&#x21e;" horiz-adv-x="1686" d="M1115 1942l-230 -412q-17 -31 -50 -31q-31 0 -48 31l-229 412q-2 3 -2 6q0 16 28 32q10 6 17 6q6 0 10 -5l182 -213q33 -39 43 -39t43 39l182 213q5 5 11 5q8 0 19 -7q26 -18 26 -31q0 -3 -2 -6zM1432 202q0 -116 159 -116q14 0 14 -46q0 -47 -14 -47q-126 7 -280 7 q-152 0 -285 -7q-15 0 -15 46q0 47 15 47q162 0 162 116v417q0 34 -34 34h-638q-35 0 -35 -34v-417q0 -116 159 -116q14 0 14 -46q0 -47 -14 -47q-133 7 -279 7q-160 0 -286 -7q-15 0 -15 46q0 47 15 47q162 0 162 116v952q0 116 -161 116q-14 0 -14 46q0 47 14 47 q48 -5 279 -5q241 0 289 5q14 0 14 -46q0 -47 -14 -47q-163 0 -163 -116v-372q0 -35 35 -35h638q34 0 34 35v372q0 116 -160 116q-15 0 -15 46q0 47 15 47q45 -5 279 -5q241 0 288 5q15 0 15 -46q0 -47 -15 -47q-163 0 -163 -116v-952z" />
<glyph unicode="&#x21f;" horiz-adv-x="1093" d="M889 1946l-230 -412q-17 -31 -50 -31q-31 0 -48 31l-229 412q-2 3 -2 6q0 16 28 32q10 6 17 6q6 0 10 -5l182 -213q33 -39 43 -39t43 39l182 213q5 5 11 5q8 0 19 -7q26 -18 26 -31q0 -3 -2 -6zM1079 -8q-80 8 -221 8q-149 0 -229 -8q-16 0 -16 37q0 39 16 39 q104 0 104 64v423q0 75 -45 139q-49 68 -123 68q-90 0 -143 -63q-29 -35 -29 -72v-484q0 -75 103 -75q15 0 15 -38t-15 -38q-84 8 -209 8q-152 0 -236 -8q-15 0 -15 38q0 37 15 38q113 0 113 69v1024q0 125 -92 125q-16 0 -16 36q0 38 16 38q50 0 185 67q65 32 85 50 q13 10 29 10q27 0 28 -27q-2 -85 -6 -174v-465q0 -23 11 -23q8 0 22 11q82 61 211 61q180 0 270 -136q56 -84 56 -177v-414q7 -75 116 -75q16 0 16 -37q0 -39 -16 -39z" />
<glyph unicode="&#x2bc;" horiz-adv-x="421" d="M344 1374q0 -17 -39 -223q-33 -173 -33 -207q0 -15 -59 -15q-61 0 -61 15q0 61 -52 309q-20 92 -20 119q0 109 133 109q131 0 131 -107z" />
<glyph unicode="&#x2c7;" horiz-adv-x="778" d="M668 1417l-230 -412q-17 -31 -50 -31q-31 0 -48 31l-229 412q-2 3 -2 6q0 16 28 32q10 6 17 6q6 0 10 -5l182 -213q33 -39 43 -39t43 39l182 213q5 5 11 5q8 0 19 -7q26 -18 26 -31q0 -3 -2 -6z" />
<glyph unicode="&#x2db;" horiz-adv-x="778" d="M178 -328q0 171 260 369h101q-185 -185 -185 -311q0 -121 123 -121q61 0 103 31q20 -7 20 -39q-75 -113 -217 -113q-205 0 -205 184z" />
<glyph unicode="&#x2013;" horiz-adv-x="1024" d="M993 463h-962q-15 0 -15 66.5t15 66.5h962q15 0 15 -66.5t-15 -66.5z" />
<glyph unicode="&#x2014;" horiz-adv-x="2048" d="M2017 463h-1986q-15 0 -15 66.5t15 66.5h1986q15 0 15 -66.5t-15 -66.5z" />
<glyph unicode="&#x2018;" horiz-adv-x="430" d="M338 1038q0 -57 -56 -88q-37 -20 -87 -20q-66 0 -117 59t-51 144q0 155 159 280q61 47 115 70h12q15 -5 22 -22l1 -11q0 -2 -2 -4q-69 -54 -102 -143q-17 -47 -17 -93q0 -27 14 -32q63 -25 88 -63q21 -33 21 -77z" />
<glyph unicode="&#x2019;" horiz-adv-x="430" d="M387 1270q0 -154 -156 -278q-63 -50 -118 -72l-11 -1q-13 3 -21 17l-3 13q0 3 2 5q70 60 101 150q16 45 16 88q0 26 -13 31q-45 20 -61 34q-47 39 -47 105q0 59 56 90q37 21 87 21q66 0 117 -59t51 -144z" />
<glyph unicode="&#x201a;" horiz-adv-x="430" d="M383 53q0 -154 -156 -278q-62 -50 -118 -72l-11 -1q-16 4 -23 23l-1 10q1 2 2 3q72 59 103 149q16 45 16 88q0 26 -15 31q-45 21 -63 36q-43 39 -43 103q0 62 59 93q36 18 84 18q64 0 115 -58q51 -59 51 -145z" />
<glyph unicode="&#x201c;" horiz-adv-x="884" d="M788 1038q0 -57 -56 -88l-31 -12q-26 -8 -56 -8q-66 0 -117 59t-51 144q0 155 158 279q62 48 117 71h11q15 -5 22 -22l1 -11q0 -2 -2 -4q-69 -54 -101 -144q-17 -47 -17 -92q0 -27 14 -32q56 -23 80 -53l15 -25q13 -28 13 -62zM379 1038q0 -57 -56 -88q-37 -20 -87 -20 q-66 0 -117 59t-51 144q0 155 158 279q61 48 116 71h11q15 -5 22 -22l2 -11q0 -2 -2 -4q-69 -54 -102 -143q-17 -47 -17 -93q0 -27 14 -32q63 -25 88 -63q21 -33 21 -77z" />
<glyph unicode="&#x201d;" horiz-adv-x="884" d="M788 1270q0 -154 -152 -276q-65 -52 -122 -74l-11 -1q-6 1 -12 6q-12 11 -12 23q0 4 2 6q71 57 103 148q16 46 16 90q0 26 -14 31q-49 21 -69 41q-38 38 -38 98t58 91q36 20 86 20q64 0 114 -58q33 -39 45 -92q6 -26 6 -53zM399 1270q0 -154 -152 -276q-65 -52 -122 -74 l-11 -1q-13 3 -21 17l-3 13q0 3 2 5q71 57 103 148q16 46 16 90q0 26 -14 31q-49 21 -69 41q-38 38 -38 98q0 61 58 92q36 19 85 19q64 0 115 -58q33 -39 45 -91q6 -26 6 -54z" />
<glyph unicode="&#x201e;" horiz-adv-x="884" d="M813 53q0 -154 -156 -278q-62 -50 -118 -72l-11 -1q-6 2 -11 6q-14 12 -13 24q0 4 2 6q72 59 103 149q16 45 16 88q0 26 -15 31q-45 21 -63 36q-43 39 -43 103q0 62 59 93q36 18 84 18q64 0 115 -58q51 -59 51 -145zM424 53q0 -154 -156 -278q-62 -50 -118 -72l-11 -1 q-16 4 -23 22l-2 10q1 3 3 4q72 59 103 149q16 45 16 88q0 26 -15 31q-45 21 -63 36q-43 39 -43 103q0 62 59 93q36 18 84 18q64 0 115 -58q51 -59 51 -145z" />
<glyph unicode="&#x2020;" d="M958 858q0 -55 -79 -97q-44 -21 -72 -24q-39 0 -119 34q-89 38 -143 38q0 -123 50 -250l24 -51q17 -31 34 -49q-92 -138 -105 -358q-3 -50 -3 -224v-264h-133v264q0 202 -6 266q-18 202 -107 316q63 59 96 208q17 75 17 142q-58 0 -147 -38q-76 -33 -115 -34 q-33 0 -84 31q-68 41 -68 90q0 59 69 100q41 25 74 25q47 0 127 -35q83 -36 133 -39h11q0 50 -36 161q-28 87 -28 126q0 49 38 116q43 79 91 79q54 0 98 -88q24 -47 30 -90l1 -17q0 -44 -32 -145l-21 -76l-7 -50q-1 -8 -1 -16q57 0 142 37q87 35 128 37q45 0 93 -38 q50 -39 50 -87z" />
<glyph unicode="&#x2021;" d="M958 145q0 -60 -68 -100q-41 -25 -75 -25q-44 0 -125 35q-96 37 -149 39q0 -66 35 -163q30 -82 30 -124q0 -50 -36 -116q-42 -78 -93 -78q-50 0 -95 86q-34 65 -34 108q0 40 33 119q40 103 41 168q-58 0 -151 -38q-88 -35 -130 -36q-46 0 -94 38q-49 38 -49 87 q0 57 79 98q43 23 73 23q39 0 120 -37q90 -42 141 -45h11q0 134 -58 240q-13 25 -61 98l65 83q50 72 54 182v24q-64 0 -156 -40q-77 -33 -116 -34q-33 0 -84 31q-68 41 -68 90q0 59 68 100q41 25 75 25q48 0 137 -38q96 -38 144 -40q0 55 -40 161q-34 90 -34 130 q0 49 38 116q43 79 91 79q54 0 98 -87q28 -62 31 -108q0 -44 -34 -146q-31 -95 -31 -145q56 0 142 39q80 36 120 39h12q45 0 93 -38q50 -39 50 -87q0 -55 -79 -97q-44 -21 -72 -24q-40 0 -116 34q-94 38 -150 40q0 -124 47 -201q6 -10 61 -86q-66 -105 -87 -178t-21 -162 q62 0 144 41q71 36 104 40q9 1 18 1q37 0 87 -32q64 -39 64 -89z" />
<glyph unicode="&#x2022;" horiz-adv-x="808" d="M403 1008q133 0 226 -93q94 -94 94 -227q0 -136 -95 -230q-93 -91 -225 -91t-224 93q-93 93 -93 228t93 228q92 92 224 92z" />
<glyph unicode="&#x2026;" horiz-adv-x="2048" d="M1866 121q0 -83 -68 -124q-37 -22 -84 -22q-71 0 -118 45q-44 42 -44 113q0 55 39 98q44 48 123 48q73 0 118 -57q34 -42 34 -101zM500 121q0 -83 -68 -124q-37 -22 -84 -22q-71 0 -118 45q-44 42 -44 113q0 55 39 98q44 48 123 48q73 0 118 -57q34 -42 34 -101z M1182 121q0 -83 -68 -124q-37 -22 -84 -22q-71 0 -118 45q-44 42 -44 113q0 55 39 98q44 48 123 48q73 0 118 -57q34 -42 34 -101z" />
<glyph unicode="&#x20ac;" horiz-adv-x="1261" d="M1142 168q-137 -113 -237 -154t-212 -41q-227 0 -402 140t-220 372h-95q-19 0 -19 65.5t19 65.5h80q-1 25 -1 51q0 34 2 66h-81q-19 0 -19 65.5t19 65.5h102q51 209 216.5 365t401.5 156q136 0 249 -42.5t159.5 -94t46.5 -90.5q0 -31 -30.5 -54t-67.5 -23q-54 0 -93 47 l-57 68q-43 52 -97 76.5t-115 24.5q-133 0 -228.5 -131.5t-122.5 -301.5h568q20 0 20 -65.5t-22 -65.5h-578v-21q0 -47 7 -96h573q20 0 20 -65.5t-22 -65.5h-542q50 -159 134 -269t229 -110q121 1 209.5 39t132 67t46.5 29q11 0 23 -24.5t12 -33t-8 -15.5z" />
</font>
</defs>
</svg>
