<?xml version="1.0" standalone="no"?>
<!DOCTYPE svg PUBLIC "-//W3C//DTD SVG 1.1//EN" "http://www.w3.org/Graphics/SVG/1.1/DTD/svg11.dtd" >
<svg xmlns="http://www.w3.org/2000/svg">
<metadata>
This is a custom SVG webfont generated by Font Squirrel.
Foundry     : LLC DejaVu fonts team
Foundry URL : httpdejavusourceforgenet
</metadata>
<defs>
<font id="webfontwSf6VKJV" horiz-adv-x="1303" >
<font-face units-per-em="2048" ascent="1556" descent="-492" />
<missing-glyph horiz-adv-x="651" />
<glyph unicode=" "  horiz-adv-x="651" />
<glyph unicode="&#x09;" horiz-adv-x="651" />
<glyph unicode="&#xa0;" horiz-adv-x="651" />
<glyph unicode="!" horiz-adv-x="821" d="M362 128h97v-128h-97v128zM362 1493h97v-655l-20 -357h-56l-21 357v655z" />
<glyph unicode="&#x22;" horiz-adv-x="942" d="M328 1493v-555h-96v555h96zM706 1493v-555h-96v555h96z" />
<glyph unicode="#" horiz-adv-x="1716" d="M1087 939h-352l-104 -410h354zM866 1470l-114 -453h354l114 453h101l-115 -453h353v-78h-372l-102 -410h359v-77h-378l-112 -452h-101l113 452h-354l-113 -452h-99l112 452h-354v77h374l102 410h-362v78h382l112 453h100z" />
<glyph unicode="$" d="M683 -301h-92v301q-70 0 -197 44q-126 43 -224 85v87q105 -45 224 -86q137 -48 198 -47v569q-209 34 -305 113q-95 80 -95 218q0 151 103 238q104 87 297 100v235h91v-232q77 0 197 -24q84 -15 162 -41v-85q-86 31 -168 48q-99 21 -191 21v-532q241 -33 348 -118 q108 -85 108 -233q0 -159 -115 -252q-114 -92 -341 -108v-301zM592 733v506q-150 -16 -228 -81q-79 -66 -79 -174q0 -106 73 -166q73 -59 234 -85zM683 633v-550q185 22 274 92q88 70 88 184q0 109 -84 178q-81 66 -278 96z" />
<glyph unicode="%" horiz-adv-x="1946" d="M1490 705q-99 0 -155 -87q-56 -86 -56 -241q0 -152 56 -239t155 -87q97 0 153 87t56 239q0 153 -56 241q-56 87 -153 87zM1488 784q140 0 222 -110q83 -110 83 -297t-83 -297q-83 -109 -222 -109q-142 0 -224 109q-82 110 -82 297q0 188 83 297q82 110 223 110zM459 1441 q-99 0 -155 -87q-56 -86 -56 -241q0 -152 56 -239t155 -87q96 0 153 87q56 87 56 239q0 153 -56 241q-57 87 -153 87zM1385 1520h104l-932 -1549h-104zM457 1520q140 0 222 -110t82 -297t-82 -297q-83 -109 -222 -109q-142 0 -224 109q-82 110 -82 297q0 188 83 297 q82 110 223 110z" />
<glyph unicode="&#x26;" horiz-adv-x="1597" d="M517 856q-108 -93 -183 -220q-56 -94 -56 -222q0 -176 96 -266q107 -100 310 -95q113 0 194 52q139 83 202 170zM588 912l551 -564q35 42 119 186q60 103 65 267h101q-16 -152 -50 -245q-48 -136 -167 -276l263 -280h-127l-198 208q-115 -123 -213 -172 q-130 -65 -256 -65q-268 0 -385 140q-115 137 -115 296q0 157 76 285q53 89 200 231q-37 41 -75 109q-36 63 -36 129q0 179 92 267q96 91 272 92q82 0 161 -32q150 -62 173 -80v-99q-95 58 -177 93q-85 36 -148 36q-101 0 -172 -41q-99 -55 -99 -234q0 -51 29 -103 q43 -74 116 -148z" />
<glyph unicode="'" horiz-adv-x="563" d="M327 1493v-555h-96v555h96z" />
<glyph unicode="(" horiz-adv-x="799" d="M588 1556q-134 -230 -199 -457q-65 -225 -65 -456t66 -457q65 -227 198 -456h-89q-138 235 -206 462q-69 227 -69 451q0 223 68 449t207 464h89z" />
<glyph unicode=")" horiz-adv-x="799" d="M224 1556h89q139 -236 207 -464q68 -226 68 -449q0 -224 -69 -451q-68 -227 -206 -462h-89q133 229 199 456q65 226 65 457t-65 456q-65 227 -199 457z" />
<glyph unicode="*" horiz-adv-x="1024" d="M942 1278l-386 -222l388 -223l-23 -42l-388 225v-430h-48v428l-386 -221l-24 39l389 224l-387 222l24 40l384 -222v424h48v-424l386 222z" />
<glyph unicode="+" horiz-adv-x="1716" d="M908 1284v-600h591v-82h-591v-602h-101v602h-590v82h590v600h101z" />
<glyph unicode="," horiz-adv-x="651" d="M274 126h101v-44l-79 -320h-62l40 320v44z" />
<glyph unicode="-" horiz-adv-x="739" d="M100 602h539v-82h-539v82z" />
<glyph unicode="." horiz-adv-x="651" d="M274 126h102v-126h-102v126z" />
<glyph unicode="/" horiz-adv-x="690" d="M552 1493h106l-520 -1683h-106z" />
<glyph unicode="0" d="M645 1438q-183 0 -272 -178q-89 -179 -89 -515t89 -515q89 -178 272 -178q189 0 278 178q89 179 89 515t-89 515q-89 178 -278 178zM645 1520q216 0 342 -176q126 -177 126 -599t-126 -599q-126 -176 -342 -176q-210 0 -336 176q-126 177 -126 599t126 599 q126 176 336 176z" />
<glyph unicode="1" d="M304 82h330v1319l-409 -164v92l407 164h102v-1411h330v-82h-760v82z" />
<glyph unicode="2" d="M246 81h852v-81h-956v105l372 387l250 259q104 111 139 172t35 161q0 173 -106 278q-77 76 -248 76q-100 0 -230 -58q-57 -26 -194 -115v106q58 41 170 91q127 57 252 58q193 0 323 -99q127 -99 127 -327q0 -92 -34 -174q-40 -96 -126 -195q-25 -29 -159 -167z" />
<glyph unicode="3" d="M831 805q120 -29 189 -129q68 -98 68 -242q0 -221 -127 -342t-406 -121q-94 0 -193 29q-100 30 -206 92v109q84 -73 184 -111q100 -37 204 -37q216 0 330 98q113 97 113 283q0 152 -105 237q-106 86 -294 86h-174v84h182q173 0 264 69q92 70 92 202q0 156 -94 240 q-95 84 -271 84q-82 0 -177 -29t-209 -90v104q115 49 215 72q101 25 190 27q229 0 338 -104q110 -105 110 -283q0 -119 -58 -209q-56 -87 -165 -119z" />
<glyph unicode="4" d="M824 1438l-620 -962h620v962zM746 1493h180v-1017h213v-80h-213v-396h-102v396h-724v104z" />
<glyph unicode="5" d="M261 1493h709v-81h-608v-501q44 16 88 25q44 8 129 8q229 0 363 -126q133 -125 133 -339q0 -241 -137 -375q-137 -133 -387 -133q-83 0 -170 14q-86 14 -179 42v102q78 -37 162 -56q83 -18 176 -18q200 0 318 114t118 310q0 177 -115 280q-116 104 -314 104 q-41 0 -121 -22q-81 -21 -165 -66v718z" />
<glyph unicode="6" d="M928 757q-93 109 -252 109t-252 -109t-93 -298t93 -298t252 -109t252 109t93 298t-93 298zM1049 1460v-106q-70 42 -140 64q-71 22 -140 22q-298 0 -417 -293q-54 -133 -50 -451q51 110 129 172q101 81 257 81q188 0 313 -133q124 -132 124 -337q0 -230 -122 -369 t-318 -139q-237 0 -362 199q-124 198 -124 575q0 402 153 589q152 186 410 186q69 0 140 -15q70 -15 147 -45z" />
<glyph unicode="7" d="M168 1493h908v-86l-542 -1407h-106l543 1411h-803v82z" />
<glyph unicode="8" d="M651 744q-167 0 -263 -92q-95 -93 -95 -255t95 -254q96 -93 263 -93t263 93q97 93 97 254q0 162 -96 255q-96 92 -264 92zM449 795q-97 36 -159 121q-65 89 -65 217q0 179 114 283t312 104q199 0 312 -104q114 -104 114 -283q0 -133 -65 -217q-67 -87 -158 -121 q112 -37 182 -133q73 -99 73 -242q0 -217 -118 -333q-119 -116 -340 -116t-340 116q-118 116 -118 333q0 143 73 242q81 99 183 133zM651 824q152 0 239 81q86 81 86 226t-86 226q-87 81 -239 81q-154 0 -239 -81t-85 -226t85 -226t239 -81z" />
<glyph unicode="9" d="M275 31v106q70 -42 140 -64q71 -22 140 -22q298 0 417 293q54 133 50 451q-51 -110 -129 -172q-101 -81 -257 -81q-188 0 -313 133q-124 132 -124 337q0 230 122 369q123 139 318 139q237 0 362 -198q124 -199 124 -576q0 -402 -152 -588q-153 -187 -411 -187 q-69 0 -140 15q-70 15 -147 45zM396 734q93 -109 252 -109t252 109t93 298t-93 298t-252 109t-252 -109t-93 -298t93 -298z" />
<glyph unicode=":" horiz-adv-x="690" d="M294 128h102v-128h-102v128zM294 984h102v-127h-102v127z" />
<glyph unicode=";" horiz-adv-x="690" d="M295 984h101v-127h-101v127zM294 129h101v-47l-78 -320h-62l39 320v47z" />
<glyph unicode="&#x3c;" horiz-adv-x="1716" d="M1499 1052l-1154 -412l1154 -407v-101l-1282 465v84l1282 465v-94z" />
<glyph unicode="=" horiz-adv-x="1716" d="M217 844h1282v-82h-1282v82zM217 522h1282v-82h-1282v82z" />
<glyph unicode="&#x3e;" horiz-adv-x="1716" d="M217 1052v94l1282 -465v-84l-1282 -465v101l1154 407z" />
<glyph unicode="?" horiz-adv-x="1087" d="M441 126h102v-126h-102v126zM543 401h-101v154q0 88 34 166q25 60 118 151l90 89q60 60 82 100q26 47 26 96q0 126 -66 204t-179 78q-125 0 -190 -29q-105 -46 -181 -133l-21 109q100 84 178 107q90 27 204 27q139 0 251 -97q111 -97 111 -256q0 -76 -36 -145 q-34 -64 -126 -154l-88 -86q-44 -43 -67 -74q-19 -26 -27 -51q-6 -21 -9 -51q0 -30 -3 -82v-123z" />
<glyph unicode="@" horiz-adv-x="2048" d="M772 537q0 -174 75 -273t206 -99q129 0 204 100q74 99 74 272q0 170 -76 270q-76 101 -204 101t-204 -100q-75 -100 -75 -271zM1332 238q-55 -77 -127 -114q-71 -36 -166 -36q-159 0 -258 124q-100 125 -100 325t100 325t258 125q95 0 167 -37q72 -38 126 -114v131h92 v-776q189 24 272 139q86 118 86 323q0 119 -37 224q-33 96 -109 194q-150 189 -307 245t-274 56q-113 0 -217 -36q-99 -35 -191 -108q-144 -113 -226 -298q-81 -184 -81 -400q0 -159 53 -311q52 -148 153 -267q96 -114 223 -173q126 -59 270 -59q128 0 253 47 q124 47 228 136l37 -80q-113 -99 -247 -151q-133 -52 -271 -52q-167 0 -315 66q-149 67 -265 193q-116 127 -176 294q-61 166 -61 358q0 184 62 352q68 185 175 293q152 153 270 205q153 68 324 68q192 0 349 -62q154 -62 323 -272q74 -92 115 -209q39 -113 39 -233 q0 -282 -141 -427q-143 -147 -406 -135v127z" />
<glyph unicode="A" horiz-adv-x="1401" d="M695 1392l-320 -840h635zM631 1493h131l571 -1493h-114l-178 469h-697l-177 -469h-106z" />
<glyph unicode="B" horiz-adv-x="1341" d="M352 744v-663h375q190 0 282 82q92 81 92 250q0 170 -92 250q-92 81 -282 81h-375zM352 1411v-585h350q172 0 256 72t84 222q0 147 -84 218q-84 73 -256 73h-350zM252 1493h465q205 0 316 -96t111 -273q0 -146 -57 -218q-63 -80 -152 -109q129 -34 194 -125 q73 -102 73 -254q0 -200 -121 -309t-344 -109h-485v1493z" />
<glyph unicode="C" horiz-adv-x="1430" d="M1319 1369v-115q-102 93 -217 138q-116 46 -246 46q-282 0 -431 -178q-150 -178 -150 -515t150 -516q149 -179 431 -179q130 0 246 46q115 47 217 140v-121q-106 -72 -225 -108q-118 -36 -250 -36q-314 0 -494 207q-180 208 -180 567q0 360 180 567q180 208 494 208 q134 0 252 -38q119 -37 223 -113z" />
<glyph unicode="D" horiz-adv-x="1577" d="M351 1408v-1327h296q338 0 495 160q158 160 158 505q0 343 -158 503q-157 159 -495 159h-296zM249 1493h367q408 0 599 -181q191 -180 191 -564q0 -386 -192 -567t-598 -181h-367v1493z" />
<glyph unicode="E" horiz-adv-x="1294" d="M249 1493h844v-83h-742v-573h711v-81h-711v-675h760v-81h-862v1493z" />
<glyph unicode="F" horiz-adv-x="1178" d="M250 1493h757v-83h-656v-573h592v-81h-592v-756h-101v1493z" />
<glyph unicode="G" horiz-adv-x="1587" d="M1270 127v523h-381v82h480v-653q-107 -53 -235 -79q-128 -27 -274 -29q-324 0 -506 205q-183 204 -183 569q0 366 183 571q182 204 506 204q134 0 253 -27q120 -29 220 -85v-97q-101 56 -216 85q-114 28 -240 28q-301 0 -452 -171q-151 -170 -151 -508q0 -343 151 -516 q151 -174 452 -174q123 0 220 17q96 18 173 55z" />
<glyph unicode="H" horiz-adv-x="1540" d="M249 1493h101v-656h835v656h101v-1493h-101v756h-835v-756h-101v1493z" />
<glyph unicode="I" horiz-adv-x="604" d="M248 1493h104v-1493h-104v1493z" />
<glyph unicode="J" horiz-adv-x="604" d="M250 1493h100v-1389q0 -246 -66 -357t-212 -111h-61v83h49q104 0 147 84t43 301v1389z" />
<glyph unicode="K" horiz-adv-x="1343" d="M354 1493h99v-643l684 643h133l-742 -699l791 -794h-131l-735 737v-737h-99v1493z" />
<glyph unicode="L" horiz-adv-x="1141" d="M250 1493h100v-1411h727v-82h-827v1493z" />
<glyph unicode="M" horiz-adv-x="1767" d="M329 1493h139l415 -1107l417 1107h138v-1493h-102v1311l-384 -1024h-138l-383 1024v-1311h-102v1493z" />
<glyph unicode="N" horiz-adv-x="1532" d="M248 1493h148l724 -1365v1365h100v-1493h-142l-728 1374v-1374h-102v1493z" />
<glyph unicode="O" horiz-adv-x="1612" d="M417 1255q-144 -187 -144 -510q0 -321 144 -508q145 -187 390 -187t389 187q143 187 143 508q0 323 -143 510q-144 187 -389 187t-390 -187zM807 1520q290 0 464 -210q174 -211 174 -565q0 -353 -174 -563q-174 -211 -464 -211q-291 0 -466 210q-174 210 -174 564 t174 565q175 210 466 210z" />
<glyph unicode="P" horiz-adv-x="1235" d="M350 1410v-686h307q167 0 258 89q92 89 92 255q0 163 -92 253q-91 89 -258 89h-307zM250 1493h407q223 0 338 -108q114 -108 114 -317q0 -210 -114 -318q-115 -108 -338 -108h-307v-642h-100v1493z" />
<glyph unicode="Q" horiz-adv-x="1612" d="M417 1252q-144 -186 -144 -508q0 -321 144 -507q145 -187 390 -187t389 187q143 186 143 507q0 322 -143 508q-144 187 -389 187t-390 -187zM1043 11l254 -275h-126l-227 246q-42 -8 -69 -10q-34 0 -68 -1q-291 0 -466 211q-174 210 -174 563q0 354 174 565 q175 210 466 210q290 0 464 -210q174 -211 174 -565q0 -254 -96 -445q-105 -208 -306 -289z" />
<glyph unicode="R" horiz-adv-x="1423" d="M867 700q62 -22 120 -94q41 -52 117 -198l209 -408h-107l-213 410q-83 161 -159 213q-78 52 -211 52h-271v-675h-100v1493h405q229 0 342 -107t113 -323q0 -139 -59 -234q-56 -93 -186 -129zM352 1411v-653h330q160 0 242 83t82 245q0 161 -82 243t-242 82h-330z" />
<glyph unicode="S" horiz-adv-x="1300" d="M1084 1418v-94q-98 49 -217 87q-78 25 -197 27q-176 3 -286 -78q-100 -74 -100 -254q0 -111 76 -176q81 -69 244 -111l119 -31q160 -42 247 -100q163 -111 163 -279q0 -243 -143 -337q-156 -101 -320 -101q-171 0 -306 47q-85 34 -178 94v98q140 -83 196 -106 q125 -51 232 -51q183 0 304 81q114 76 114 267q0 112 -70 176q-101 93 -262 132l-120 29q-144 35 -245 98q-153 96 -153 262q0 207 125 318q116 103 352 104q139 0 213 -24q190 -62 212 -78z" />
<glyph unicode="T" horiz-adv-x="1251" d="M45 1493h1161v-82h-530v-1411h-101v1411h-530v82z" />
<glyph unicode="U" horiz-adv-x="1499" d="M229 1493h100v-907q0 -284 100 -409q99 -124 321 -124q221 0 320 124q100 125 100 409v907h100v-932q0 -292 -132 -441q-131 -149 -388 -149q-258 0 -389 149q-132 149 -132 441v932z" />
<glyph unicode="V" horiz-adv-x="1401" d="M632 0l-570 1493h114l524 -1393l528 1393h105l-569 -1493h-132z" />
<glyph unicode="W" horiz-adv-x="2025" d="M142 1493h103l341 -1375l340 1375h126l338 -1367l340 1367h103l-371 -1493h-143l-330 1330l-329 -1330h-148z" />
<glyph unicode="X" horiz-adv-x="1403" d="M180 1493h114l418 -627l420 627h116l-479 -712l519 -781h-115l-468 702l-470 -702h-115l528 789z" />
<glyph unicode="Y" horiz-adv-x="1251" d="M46 1493h116l465 -688l462 688h114l-528 -782v-711h-101v711z" />
<glyph unicode="Z" horiz-adv-x="1403" d="M115 1493h1173v-81l-1076 -1330h1099v-82h-1219v81l1074 1329h-1051v83z" />
<glyph unicode="[" horiz-adv-x="799" d="M232 1556h341v-104h-241v-1638h241v-84h-341v1826z" />
<glyph unicode="\" horiz-adv-x="690" d="M138 1493l520 -1683h-106l-520 1683h106z" />
<glyph unicode="]" horiz-adv-x="799" d="M573 1556v-1826h-341v84h241v1638h-241v104h341z" />
<glyph unicode="^" horiz-adv-x="1716" d="M917 1493l543 -557h-133l-469 431l-467 -431h-134l543 557h117z" />
<glyph unicode="_" horiz-adv-x="1024" d="M1044 -405v-78h-1064v78h1064z" />
<glyph unicode="`" horiz-adv-x="1024" d="M330 1638l282 -374h-82l-326 374h126z" />
<glyph unicode="a" horiz-adv-x="1255" d="M680 632q-222 0 -320 -79t-98 -231q0 -148 81 -210t192 -62q210 0 302 178q93 178 93 335v69h-250zM1023 639v-639h-91v304q-77 -223 -204 -284q-101 -49 -201 -49q-167 0 -263 89q-96 90 -96 264t125 278q125 105 409 105h228v18q0 149 -85 245q-84 96 -278 96 q-96 0 -196 -36q-64 -23 -166 -93v99q89 55 166 78q112 33 215 33q198 0 326 -120q111 -103 111 -388z" />
<glyph unicode="b" horiz-adv-x="1300" d="M924 949q-115 117 -243 117q-125 0 -241 -117q-115 -117 -115 -390t115 -390q116 -117 241 -117q128 0 243 117q116 117 116 390t-116 390zM324 864q63 146 137 200q113 83 213 83q199 0 331 -162t132 -426t-132 -426t-331 -162q-100 0 -213 83q-74 54 -137 200v-254h-90 v1556h90v-692z" />
<glyph unicode="c" horiz-adv-x="1126" d="M999 1066v-98q-83 51 -137 69q-93 29 -178 29q-242 0 -347 -124t-105 -383q0 -261 105 -385t347 -124q80 0 158 22q79 21 157 64v-93q-77 -36 -159 -54q-83 -18 -164 -18q-246 0 -391 133q-145 134 -145 455t145 455q145 133 391 133q80 0 170 -23q90 -22 153 -58z" />
<glyph unicode="d" horiz-adv-x="1300" d="M1047 864v692h90v-1556h-90v254q-63 -146 -137 -200q-113 -83 -213 -83q-199 0 -331 162t-132 426t132 426t331 162q100 0 213 -83q74 -54 137 -200zM447 169q115 -117 243 -117q125 0 241 117q115 117 115 390t-115 390q-116 117 -241 117q-128 0 -243 -117 q-116 -117 -116 -390t116 -390z" />
<glyph unicode="e" horiz-adv-x="1260" d="M1105 606v-58h-850q0 -270 105 -378q116 -120 345 -120q60 0 159 26q100 26 198 78v-97q-99 -42 -203 -64t-165 -22q-259 0 -390 140q-142 149 -142 437q0 299 130 446q133 153 370 153q220 0 332 -145q111 -152 111 -396zM1012 626q0 236 -106 344q-89 96 -242 96 q-167 0 -280 -100q-104 -93 -125 -340h753z" />
<glyph unicode="f" horiz-adv-x="721" d="M714 1556v-78h-130q-102 0 -156 -53q-66 -65 -66 -206v-99h302v-78h-302v-1042h-93v1042h-176v78h176v78q0 187 85 272q84 86 232 86h128z" />
<glyph unicode="g" horiz-adv-x="1229" d="M976 573q0 233 -94.5 361.5t-265.5 128.5q-169 0 -263.5 -128.5t-94.5 -361.5q0 -232 94.5 -360.5t263.5 -128.5q171 0 265.5 128.5t94.5 360.5zM1068 139q0 -349 -133 -457t-337 -108q-97 0 -183 14q-86 15 -167 45v105q81 -44 160 -65t161 -21q167 0 287 71t120 383 v175q-41 -115 -113 -181q-110 -101 -247 -100q-213 0 -332 150.5t-119 423.5q0 272 119 422.5t332 150.5q136 0 234 -86q76 -67 126 -179v238h92v-981z" />
<glyph unicode="h" horiz-adv-x="1298" d="M1078 676v-676h-92v670q0 216 -73 306t-221 90q-170 0 -269 -100t-99 -333v-633h-92v1556h92v-643q32 86 114 153q98 81 276 81q166 0 265 -119q99 -120 99 -352z" />
<glyph unicode="i" horiz-adv-x="569" d="M230 1120h92v-1120h-92v1120zM230 1556h92v-126h-92v126z" />
<glyph unicode="j" horiz-adv-x="569" d="M239 1120h92v-1140q0 -228 -69 -317q-70 -89 -229 -89h-70v78h49q112 0 170 50q57 50 57 278v1140zM239 1556h92v-126h-92v126z" />
<glyph unicode="k" horiz-adv-x="1186" d="M325 1556h93v-945l557 509h126l-579 -529l598 -591h-119l-583 574v-574h-93v1556z" />
<glyph unicode="l" horiz-adv-x="569" d="M232 1556h92v-1556h-92v1556z" />
<glyph unicode="m" horiz-adv-x="1995" d="M1038 876q52 135 164 204q106 67 252 67t234 -103q89 -102 89 -368v-676h-91v670q0 232 -64 314t-170 82q-154 0 -272 -95q-129 -103 -129 -338v-633h-92v670q0 224 -62 310t-172 86q-154 0 -272 -96q-129 -103 -129 -337v-633h-92v1120h92v-210q49 110 152 174 q104 63 255 63q98 0 189 -66q70 -51 118 -205z" />
<glyph unicode="n" horiz-adv-x="1298" d="M1078 676v-676h-92v670q0 218 -70 307t-206 89q-159 0 -272 -96q-114 -97 -114 -337v-633h-92v1120h92v-210q49 102 129 156q118 81 261 81q166 0 265 -113q99 -112 99 -358z" />
<glyph unicode="o" horiz-adv-x="1253" d="M358 929q-100 -136 -100 -368q0 -238 99 -374q99 -137 271 -137q171 0 270 137q100 138 100 374q0 229 -100 367q-99 138 -270 138t-270 -137zM627 1147q214 0 338 -160q125 -161 125 -427q0 -275 -125 -434q-124 -160 -338 -160q-216 0 -341 159q-124 159 -124 435 q0 269 125 428t340 159z" />
<glyph unicode="p" horiz-adv-x="1300" d="M324 254v-680h-90v1546h90v-256q63 146 137 200q113 83 213 83q199 0 331 -162t132 -426t-132 -426t-331 -162q-100 0 -213 83q-74 54 -137 200zM924 949q-115 117 -243 117q-125 0 -241 -117q-115 -117 -115 -390t115 -390q116 -117 241 -117q128 0 243 117 q116 117 116 390t-116 390z" />
<glyph unicode="q" horiz-adv-x="1300" d="M447 169q115 -117 243 -117q125 0 241 117q115 117 115 390t-115 390q-116 117 -241 117q-128 0 -243 -117q-116 -117 -116 -390t116 -390zM1047 254q-63 -146 -137 -200q-113 -83 -213 -83q-199 0 -331 162t-132 426t132 426t331 162q100 0 213 -83q74 -54 137 -200v256 h90v-1546h-90v680z" />
<glyph unicode="r" horiz-adv-x="842" d="M840 1041q-22 11 -60 19q-34 6 -86 6q-170 0 -282 -126q-88 -102 -88 -350v-590h-90v1120h90v-210q45 90 126 152q112 85 264 85q39 0 68 -3q30 0 58 -7v-96z" />
<glyph unicode="s" horiz-adv-x="1067" d="M866 1087v-101q-97 54 -121 60q-70 17 -174 20q-158 0 -248 -63q-69 -52 -69 -178q0 -85 65 -133q69 -52 197 -80l63 -14q159 -35 241 -99q95 -73 100 -190q0 -159 -94 -249q-100 -89 -322 -89q-124 0 -188 17q-77 22 -162 53v115q122 -70 158 -80q99 -26 196 -26 q162 0 239 67q78 68 78 178q0 92 -52 134q-75 60 -239 98l-64 15q-141 33 -215 93q-93 75 -93 182q0 176 112 253t275 77q139 0 192 -15q64 -18 125 -45z" />
<glyph unicode="t" horiz-adv-x="803" d="M329 1438v-318h379v-78h-379v-673q0 -128 33 -179q68 -112 198 -112h148v-78h-143q-137 0 -233 80t-96 289v673h-134v78h134v318h93z" />
<glyph unicode="u" horiz-adv-x="1298" d="M232 444v676h92v-670q0 -218 70 -307t206 -89q159 0 272 96q114 97 114 337v633h92v-1120h-92v210q-49 -102 -129 -156q-118 -81 -261 -81q-166 0 -265 113q-99 112 -99 358z" />
<glyph unicode="v" horiz-adv-x="1212" d="M130 1120h96l380 -1019l379 1019h97l-417 -1120h-118z" />
<glyph unicode="w" horiz-adv-x="1675" d="M130 1120h95l263 -998l261 998h117l263 -1003l262 1003h95l-293 -1120h-128l-258 982l-257 -982h-126z" />
<glyph unicode="x" horiz-adv-x="1212" d="M1068 1120l-405 -538l435 -582h-110l-380 510l-384 -510h-110l438 586l-398 534h109l345 -465l350 465h110z" />
<glyph unicode="y" horiz-adv-x="1212" d="M610 -104q-60 -149 -129 -206q-93 -77 -182 -77h-137v78h117q73 0 128 47q71 61 117 179l33 83l-447 1120h98l398 -998l399 998h97z" />
<glyph unicode="z" horiz-adv-x="1075" d="M113 1120h874v-106l-810 -936h810v-78h-899v102l809 939h-784v79z" />
<glyph unicode="{" d="M883 -248v-86h-41q-145 0 -201 74q-57 74 -57 295v253q0 171 -69 244q-34 36 -94 36h-74v88h74q42 0 94 36q69 47 69 242v254q0 221 57 294q56 74 201 74h41v-85h-45q-95 0 -124 -47q-28 -47 -28 -199v-289q0 -157 -31 -228q-30 -71 -104 -96q74 -27 105 -98 q30 -71 30 -227v-290q0 -151 28 -198q29 -47 124 -47h45z" />
<glyph unicode="|" horiz-adv-x="690" d="M396 1565v-2048h-96v2048h96z" />
<glyph unicode="}" d="M347 -248h46q94 0 123 47t29 198v290q0 156 30 227t105 98q-74 25 -104 96q-31 71 -31 228v289q0 152 -29 199t-123 47h-46v85h42q145 0 201 -74q57 -73 57 -294v-254q0 -195 69 -242q52 -36 94 -36h73v-88h-73q-60 0 -94 -36q-69 -73 -69 -244v-253q0 -221 -57 -295 q-56 -74 -201 -74h-42v86z" />
<glyph unicode="~" horiz-adv-x="1716" d="M1499 782v-97q-105 -79 -195 -113q-89 -34 -186 -34q-94 0 -256 59q-11 4 -16 6q-7 3 -22 8q-155 62 -249 62q-88 0 -174 -39q-86 -38 -184 -121v97q105 79 195 114q89 34 186 34q107 0 257 -60l15 -6l22 -8q155 -62 249 -62q86 0 171 38q84 38 187 122z" />
<glyph unicode="&#xa2;" d="M678 52v1014q-172 -21 -268 -155t-96 -352q0 -219 96 -353t268 -154zM1080 1076v-107q-80 49 -153 73q-73 25 -146 29v-1024q75 0 148 27q73 23 151 64v-106q-70 -30 -144 -48q-73 -18 -156 -25v-272h-102v288q-217 0 -336 173q-119 154 -119 411q0 258 119 411t336 175 v287h102v-287q78 0 153 -21q74 -16 147 -48z" />
<glyph unicode="&#xa3;" d="M1102 1468v-90q-76 30 -144 45q-59 13 -129 15q-181 0 -269 -154q-49 -88 -49 -291v-247h445v-78h-445v-592h611v-76h-993v76h290v592h-253v78h253v270q0 272 117 388q116 116 275 116q61 0 137 -14q75 -13 154 -38z" />
<glyph unicode="&#xa4;" d="M889 951l222 222l70 -73l-219 -220q35 -44 53 -90q28 -71 28 -146q-1 -81 -28 -145q-22 -51 -56 -93l222 -222l-70 -73l-225 225q-40 -30 -83 -47q-74 -31 -153 -30q-85 1 -153 30q-43 18 -80 46l-224 -224l-70 73l220 221q-38 46 -57 94q-29 71 -28 145q1 67 28 146 q19 56 54 91l-217 219l70 73l221 -221q40 32 83 49q75 31 153 30q91 -1 153 -30q57 -26 86 -50zM951 644q0 127 -91 220q-83 87 -210 89q-120 0 -209 -89q-89 -85 -91 -220q-2 -124 91 -219q86 -88 209 -88q118 -2 210 88q89 87 91 219z" />
<glyph unicode="&#xa5;" d="M1115 455h-413v-455h-101v455h-416v82h416l-1 81l-89 166h-332v82h286l-339 627h111l414 -764l412 764h113l-341 -627h287v-82h-331l-91 -166v-81h415v-82z" />
<glyph unicode="&#xa6;" horiz-adv-x="690" d="M390 408v-758h-100v758h100zM390 1432v-758h-100v758h100z" />
<glyph unicode="&#xa7;" horiz-adv-x="1024" d="M412 954q-93 -16 -128 -40q-88 -61 -88 -152q0 -131 182 -236q219 -128 222 -132q92 15 128 40q87 60 87 152q0 123 -181 236q-202 126 -222 132zM829 1462v-102q-76 36 -155 58q-71 20 -127 20q-139 0 -217 -40q-77 -40 -77 -111q0 -153 285 -309l25 -14 q219 -120 284 -197q66 -77 66 -179q0 -66 -47 -144q-40 -66 -186 -116q106 -75 140 -158q30 -75 30 -104q0 -108 -100 -174t-266 -66q-79 0 -150 14q-76 15 -155 44v102q76 -36 155 -58q71 -20 127 -20q139 0 217 40q77 40 77 111q0 153 -285 309l-25 14q-219 120 -284 197 q-66 77 -66 179q0 66 47 144q40 66 186 116q-106 75 -140 158q-30 75 -30 104q0 108 100 174t266 66q79 0 150 -14q76 -15 155 -44z" />
<glyph unicode="&#xa9;" horiz-adv-x="2048" d="M1024 1434q-141 0 -263 -50q-122 -51 -224 -153q-101 -101 -153 -224q-52 -125 -52 -265q0 -139 52 -262q52 -122 153 -224q102 -101 224 -152q122 -52 263 -52q143 0 266 52q122 51 224 152q100 100 150 223q50 122 50 263q0 144 -50 267q-51 122 -150 222 q-102 102 -224 153q-123 50 -266 50zM1308 1430q131 -55 240 -164t163 -240t54 -285q0 -152 -54 -283q-54 -130 -163 -239t-240 -164q-132 -55 -284 -55t-284 55q-131 55 -240 164t-163 239q-54 131 -54 283q0 154 54 285t163 240t240 164q132 55 284 55t284 -55zM1323 1137 v-84q-66 39 -131 57q-65 19 -134 19q-188 0 -291 -101q-103 -102 -103 -284q0 -185 106 -286q107 -101 301 -101q60 0 125 19q61 17 127 57v-87q-67 -29 -135 -43q-69 -14 -139 -14q-216 0 -341 122q-126 122 -126 330q0 209 126 330q125 121 341 121q73 0 141 -14t133 -41z " />
<glyph unicode="&#xad;" horiz-adv-x="739" d="M100 602h539v-82h-539v82z" />
<glyph unicode="&#xae;" horiz-adv-x="2048" d="M1024 1434q-141 0 -263 -50q-122 -51 -224 -153q-101 -101 -153 -224q-52 -125 -52 -265q0 -139 52 -262q52 -122 153 -224q102 -101 224 -152q122 -52 263 -52q143 0 266 52q122 51 224 152q100 100 150 223q50 122 50 263q0 144 -50 267q-51 122 -150 222 q-102 102 -224 153q-123 50 -266 50zM1308 1430q131 -55 240 -164t163 -240t54 -285q0 -152 -54 -283q-54 -130 -163 -239t-240 -164q-132 -55 -284 -55t-284 55q-131 55 -240 164t-163 239q-54 131 -54 283q0 154 54 285t163 240t240 164q132 55 284 55t284 -55zM997 1108 h-149v-335h149q116 0 161 38q47 37 47 128q0 92 -47 131q-46 38 -161 38zM1004 1190q169 0 235 -62q66 -61 66 -186q0 -89 -39 -147q-41 -58 -113 -76q20 -6 57 -47q38 -42 80 -111l137 -223h-100l-129 209q-58 93 -96 121q-36 26 -90 26h-166v-356h-90v852h248z" />
<glyph unicode="&#xb0;" horiz-adv-x="1024" d="M512 1395q-84 0 -140 -55q-58 -58 -58 -141q0 -84 58 -140q56 -57 140 -57q83 0 140 57q58 57 58 140q0 82 -58 139q-57 57 -140 57zM512 1473q60 1 112 -23q44 -20 81 -57q34 -34 54 -73q28 -55 28 -122q0 -112 -81 -193.5t-194 -80.5q-113 0 -194 81q-80 80 -81 194 q0 112 81 194q80 79 194 80z" />
<glyph unicode="&#xb1;" horiz-adv-x="1716" d="M908 1284v-434h591v-83h-591v-427h-101v427h-590v83h590v434h101zM215 82h1285v-82h-1285v82z" />
<glyph unicode="&#xb4;" horiz-adv-x="989" d="M651 1638h128l-326 -376h-82z" />
<glyph unicode="&#xb6;" d="M633 1493h423v-1690h-91v1610h-240v-1610h-92v884q-232 16 -346 121q-114 106 -114 282q0 181 126 292t334 111z" />
<glyph unicode="&#xb7;" horiz-adv-x="651" d="M272 752h104v-126h-104v126z" />
<glyph unicode="&#xc1;" horiz-adv-x="1401" d="M695 1392l-320 -840h635zM631 1493h131l571 -1493h-114l-178 469h-697l-177 -469h-106zM787 1899h114l-228 -264h-82z" />
<glyph unicode="&#xc9;" horiz-adv-x="1294" d="M249 1493h844v-83h-742v-573h711v-81h-711v-675h760v-81h-862v1493zM757 1899h114l-228 -264h-82z" />
<glyph unicode="&#xcd;" horiz-adv-x="604" d="M248 1493h104v-1493h-104v1493zM390 1899h114l-228 -264h-82z" />
<glyph unicode="&#xd3;" horiz-adv-x="1612" d="M417 1255q-144 -187 -144 -510q0 -321 144 -508q145 -187 390 -187t389 187q143 187 143 508q0 323 -143 510q-144 187 -389 187t-390 -187zM807 1520q290 0 464 -210q174 -211 174 -565q0 -353 -174 -563q-174 -211 -464 -211q-291 0 -466 210q-174 210 -174 564 t174 565q175 210 466 210zM894 1899h114l-228 -264h-82z" />
<glyph unicode="&#xda;" horiz-adv-x="1499" d="M229 1493h100v-907q0 -284 100 -409q99 -124 321 -124q221 0 320 124q100 125 100 409v907h100v-932q0 -292 -132 -441q-131 -149 -388 -149q-258 0 -389 149q-132 149 -132 441v932zM837 1899h114l-228 -264h-82z" />
<glyph unicode="&#xe1;" horiz-adv-x="1255" d="M680 632q-222 0 -320 -79t-98 -231q0 -148 81 -210t192 -62q210 0 302 178q93 178 93 335v69h-250zM1023 639v-639h-91v304q-77 -223 -204 -284q-101 -49 -201 -49q-167 0 -263 89q-96 90 -96 264t125 278q125 105 409 105h228v18q0 149 -85 245q-84 96 -278 96 q-96 0 -196 -36q-64 -23 -166 -93v99q89 55 166 78q112 33 215 33q198 0 326 -120q111 -103 111 -388zM778 1638h128l-326 -376h-82z" />
<glyph unicode="&#xe6;" horiz-adv-x="2011" d="M1779 626q0 236 -106 344q-89 96 -242 96q-167 0 -280 -100q-104 -92 -125 -340h753zM991 889q28 60 68 105q134 154 370 154q220 0 332 -146q111 -152 111 -396v-58h-850q0 -269 105 -378q116 -120 345 -120q60 0 159 26q100 27 198 78v-96q-99 -42 -203 -64t-165 -22 q-258 0 -390 140q-75 79 -111 197q-80 -227 -219 -289q-109 -49 -215 -49q-167 0 -263 89q-96 90 -96 264t125 278q126 105 409 105h228v18q0 148 -85 245q-84 96 -278 96q-96 0 -196 -36q-64 -23 -166 -93v99q89 55 166 78q112 33 215 33q197 0 326 -120q52 -49 80 -138z M679 632q-222 0 -320 -79t-98 -231q0 -148 81 -210t192 -62q210 0 302 178q93 179 93 335v69h-250z" />
<glyph unicode="&#xe9;" horiz-adv-x="1260" d="M1105 606v-58h-850q0 -270 105 -378q116 -120 345 -120q60 0 159 26q100 26 198 78v-97q-99 -42 -203 -64t-165 -22q-259 0 -390 140q-142 149 -142 437q0 299 130 446q133 153 370 153q220 0 332 -145q111 -152 111 -396zM1012 626q0 236 -106 344q-89 96 -242 96 q-167 0 -280 -100q-104 -93 -125 -340h753zM790 1638h128l-326 -376h-82z" />
<glyph unicode="&#xed;" horiz-adv-x="569" d="M425 1638h128l-326 -376h-82zM230 1120h92v-1120h-92v1120z" />
<glyph unicode="&#xf3;" horiz-adv-x="1253" d="M358 929q-100 -136 -100 -368q0 -238 99 -374q99 -137 271 -137q171 0 270 137q100 138 100 374q0 229 -100 367q-99 138 -270 138t-270 -137zM627 1147q214 0 338 -160q125 -161 125 -427q0 -275 -125 -434q-124 -160 -338 -160q-216 0 -341 159q-124 159 -124 435 q0 269 125 428t340 159zM766 1638h128l-326 -376h-82z" />
<glyph unicode="&#xfa;" horiz-adv-x="1298" d="M232 444v676h92v-670q0 -218 70 -307t206 -89q159 0 272 96q114 97 114 337v633h92v-1120h-92v210q-49 -102 -129 -156q-118 -81 -261 -81q-166 0 -265 113q-99 112 -99 358zM774 1638h128l-326 -376h-82z" />
<glyph unicode="&#x104;" horiz-adv-x="1401" d="M1198 0h85q-48 -69 -71 -118q-24 -48 -24 -82q0 -52 33 -79q32 -27 96 -27q51 0 91 8q40 9 76 28l2 -93q-41 -11 -82 -17t-85 -6q-111 0 -168 44q-56 45 -56 132q0 47 25 98q26 51 78 112zM695 1392l-320 -840h635zM631 1493h131l571 -1493h-114l-178 469h-697l-177 -469 h-106z" />
<glyph unicode="&#x105;" horiz-adv-x="1255" d="M950 0h85q-48 -69 -71 -118q-24 -48 -24 -82q0 -52 33 -79q32 -27 96 -27q51 0 91 8q40 9 76 28l2 -93q-41 -11 -82 -17t-85 -6q-111 0 -168 44q-56 45 -56 132q0 47 25 98q26 51 78 112zM680 632q-222 0 -320 -79t-98 -231q0 -148 81 -210t192 -62q210 0 302 178 q93 178 93 335v69h-250zM1023 639v-639h-91v304q-77 -223 -204 -284q-101 -49 -201 -49q-167 0 -263 89q-96 90 -96 264t125 278q125 105 409 105h228v18q0 149 -85 245q-84 96 -278 96q-96 0 -196 -36q-64 -23 -166 -93v99q89 55 166 78q112 33 215 33q198 0 326 -120 q111 -103 111 -388z" />
<glyph unicode="&#x10c;" horiz-adv-x="1430" d="M1319 1369v-115q-102 93 -217 138q-116 46 -246 46q-282 0 -431 -178q-150 -178 -150 -515t150 -516q149 -179 431 -179q130 0 246 46q115 47 217 140v-121q-106 -72 -225 -108q-118 -36 -250 -36q-314 0 -494 207q-180 208 -180 567q0 360 180 567q180 208 494 208 q134 0 252 -38q119 -37 223 -113zM770 1635l-245 266h80l208 -169l207 169h79l-244 -266h-85z" />
<glyph unicode="&#x10d;" horiz-adv-x="1126" d="M999 1066v-98q-83 51 -137 69q-93 29 -178 29q-242 0 -347 -124t-105 -383q0 -261 105 -385t347 -124q80 0 158 22q79 21 157 64v-93q-77 -36 -159 -54q-83 -18 -164 -18q-246 0 -391 133q-145 134 -145 455t145 455q145 133 391 133q80 0 170 -23q90 -22 153 -58z M692 1262h-85l-244 376h79l207 -279l208 279h80z" />
<glyph unicode="&#x12e;" horiz-adv-x="604" d="M303 0h85q-48 -69 -71 -118q-24 -48 -24 -82q0 -52 33 -79q32 -27 96 -27q51 0 91 8q40 9 76 28l2 -93q-41 -11 -82 -17t-85 -6q-111 0 -168 44q-56 45 -56 132q0 47 25 98q26 51 78 112zM248 1493h104v-1493h-104v1493z" />
<glyph unicode="&#x12f;" horiz-adv-x="569" d="M277 0h85q-48 -69 -71 -118q-24 -48 -24 -82q0 -52 33 -79q32 -27 96 -27q51 0 91 8q40 9 76 28l2 -93q-41 -11 -82 -17t-85 -6q-111 0 -168 44q-56 45 -56 132q0 47 25 98q26 51 78 112zM230 1120h92v-1120h-92v1120zM230 1556h92v-126h-92v126z" />
<glyph unicode="&#x131;" horiz-adv-x="569" d="M230 1120h92v-1120h-92v1120z" />
<glyph unicode="&#x147;" horiz-adv-x="1532" d="M248 1493h148l724 -1365v1365h100v-1493h-142l-728 1374v-1374h-102v1493zM714 1621l-245 266h80l208 -169l207 169h79l-244 -266h-85z" />
<glyph unicode="&#x148;" horiz-adv-x="1298" d="M1078 676v-676h-92v670q0 218 -70 307t-206 89q-159 0 -272 -96q-114 -97 -114 -337v-633h-92v1120h92v-210q49 102 129 156q118 81 261 81q166 0 265 -113q99 -112 99 -358zM696 1262h-85l-244 376h79l207 -279l208 279h80z" />
<glyph unicode="&#x14a;" horiz-adv-x="1550" d="M269 1493h148l724 -1365v1365h100v-1389q0 -246 -66 -357t-212 -111h-234v83h222q104 0 147 84q24 47 34 134l-761 1437v-1374h-102v1493z" />
<glyph unicode="&#x14b;" horiz-adv-x="1298" d="M1078 676v-676q0 -228 -69 -317q-70 -89 -229 -89h-70v78h49q112 0 170 50q57 50 57 278v670q0 218 -70 307t-206 89q-159 0 -272 -96q-114 -97 -114 -337v-633h-92v1120h92v-210q49 101 129 156q119 81 261 81q166 0 265 -113q99 -112 99 -358z" />
<glyph unicode="&#x160;" horiz-adv-x="1300" d="M1084 1418v-94q-98 49 -217 87q-78 25 -197 27q-176 3 -286 -78q-100 -74 -100 -254q0 -111 76 -176q81 -69 244 -111l119 -31q160 -42 247 -100q163 -111 163 -279q0 -243 -143 -337q-156 -101 -320 -101q-171 0 -306 47q-85 34 -178 94v98q140 -83 196 -106 q125 -51 232 -51q183 0 304 81q114 76 114 267q0 112 -70 176q-101 93 -262 132l-120 29q-144 35 -245 98q-153 96 -153 262q0 207 125 318q116 103 352 104q139 0 213 -24q190 -62 212 -78zM608 1635l-245 266h80l208 -169l207 169h79l-244 -266h-85z" />
<glyph unicode="&#x161;" horiz-adv-x="1067" d="M866 1087v-101q-97 54 -121 60q-70 17 -174 20q-158 0 -248 -63q-69 -52 -69 -178q0 -85 65 -133q69 -52 197 -80l63 -14q159 -35 241 -99q95 -73 100 -190q0 -159 -94 -249q-100 -89 -322 -89q-124 0 -188 17q-77 22 -162 53v115q122 -70 158 -80q99 -26 196 -26 q162 0 239 67q78 68 78 178q0 92 -52 134q-75 60 -239 98l-64 15q-141 33 -215 93q-93 75 -93 182q0 176 112 253t275 77q139 0 192 -15q64 -18 125 -45zM578 1262h-85l-244 376h79l207 -279l208 279h80z" />
<glyph unicode="&#x172;" horiz-adv-x="1499" d="M229 1493h100v-907q0 -284 100 -409q99 -124 321 -124q221 0 320 124q100 125 100 409v907h100v-932q0 -292 -132 -441q-131 -149 -388 -149q-258 0 -389 149q-132 149 -132 441v932zM708 -15h85q-48 -69 -71 -118q-24 -48 -24 -82q0 -52 33 -79q32 -27 96 -27q51 0 91 8 q40 9 76 28l2 -93q-41 -11 -82 -17t-85 -6q-111 0 -168 44q-56 45 -56 132q0 47 25 98q26 51 78 112z" />
<glyph unicode="&#x173;" horiz-adv-x="1298" d="M232 444v676h92v-670q0 -218 70 -307t206 -89q159 0 272 96q114 97 114 337v633h92v-1120h-92v210q-49 -102 -129 -156q-118 -81 -261 -81q-166 0 -265 113q-99 112 -99 358zM1009 0h85q-48 -69 -71 -118q-24 -48 -24 -82q0 -52 33 -79q32 -27 96 -27q51 0 91 8 q40 9 76 28l2 -93q-41 -11 -82 -17t-85 -6q-111 0 -168 44q-56 45 -56 132q0 47 25 98q26 51 78 112z" />
<glyph unicode="&#x17d;" horiz-adv-x="1403" d="M115 1493h1173v-81l-1076 -1330h1099v-82h-1219v81l1074 1329h-1051v83zM659 1635l-245 266h80l208 -169l207 169h79l-244 -266h-85z" />
<glyph unicode="&#x17e;" horiz-adv-x="1075" d="M113 1120h874v-106l-810 -936h810v-78h-899v102l809 939h-784v79zM582 1262h-85l-244 376h79l207 -279l208 279h80z" />
<glyph unicode="&#x1dd;" horiz-adv-x="1260" d="M162 512v58h850q0 270 -105 378q-116 120 -345 120q-60 0 -159 -26q-100 -26 -198 -78v97q99 42 203 64t165 22q259 0 390 -140q142 -149 142 -437q0 -299 -130 -446q-133 -153 -370 -153q-220 0 -332 145q-111 152 -111 396zM255 492q0 -236 106 -344q89 -96 242 -96 q167 0 280 100q104 93 125 340h-753z" />
<glyph unicode="&#x1e6;" horiz-adv-x="1587" d="M799 1635l-245 266h80l208 -169l207 169h79l-244 -266h-85zM1270 127v523h-381v82h480v-653q-107 -53 -235 -79q-128 -27 -274 -29q-324 0 -506 205q-183 204 -183 569q0 366 183 571q182 204 506 204q134 0 253 -27q120 -29 220 -85v-97q-101 56 -216 85 q-114 28 -240 28q-301 0 -452 -171q-151 -170 -151 -508q0 -343 151 -516q151 -174 452 -174q123 0 220 17q96 18 173 55z" />
<glyph unicode="&#x1e7;" horiz-adv-x="1229" d="M976 573q0 233 -94.5 361.5t-265.5 128.5q-169 0 -263.5 -128.5t-94.5 -361.5q0 -232 94.5 -360.5t263.5 -128.5q171 0 265.5 128.5t94.5 360.5zM1068 139q0 -349 -133 -457t-337 -108q-97 0 -183 14q-86 15 -167 45v105q81 -44 160 -65t161 -21q167 0 287 71t120 383 v175q-41 -115 -113 -181q-110 -101 -247 -100q-213 0 -332 150.5t-119 423.5q0 272 119 422.5t332 150.5q136 0 234 -86q76 -67 126 -179v238h92v-981zM629 1260h-85l-244 376h79l207 -279l208 279h80z" />
<glyph unicode="&#x1f0;" horiz-adv-x="569" d="M239 1120h92v-1140q0 -228 -69 -317q-70 -89 -229 -89h-70v78h49q112 0 170 50q57 50 57 278v1140zM331 1262h-85l-244 376h79l207 -279l208 279h80z" />
<glyph unicode="&#x21e;" horiz-adv-x="1540" d="M249 1493h101v-656h835v656h101v-1493h-101v756h-835v-756h-101v1493zM729 1635l-245 266h80l208 -169l207 169h79l-244 -266h-85z" />
<glyph unicode="&#x21f;" horiz-adv-x="1298" d="M1078 676v-676h-92v670q0 216 -73 306t-221 90q-170 0 -269 -100t-99 -333v-633h-92v1556h92v-643q32 86 114 153q98 81 276 81q166 0 265 -119q99 -120 99 -352zM246 1635l-245 266h80l208 -169l207 169h79l-244 -266h-85z" />
<glyph unicode="&#x237;" horiz-adv-x="569" d="M239 1120h92v-1140q0 -228 -69 -317q-70 -89 -229 -89h-70v78h49q112 0 170 50q57 50 57 278v1140z" />
<glyph unicode="&#x259;" horiz-adv-x="1260" d="M162 512v58h850q0 270 -105 378q-116 120 -345 120q-60 0 -159 -26q-100 -26 -198 -78v97q99 42 203 64t165 22q259 0 390 -140q142 -149 142 -437q0 -299 -130 -446q-133 -153 -370 -153q-220 0 -332 145q-111 152 -111 396zM255 492q0 -236 106 -344q89 -96 242 -96 q167 0 280 100q104 93 125 340h-753z" />
<glyph unicode="&#x2bc;" horiz-adv-x="651" d="M274 1493h101v-151l-79 -320h-62l40 320v151z" />
<glyph unicode="&#x2c7;" horiz-adv-x="1024" d="M555 1262h-85l-244 376h79l207 -279l208 279h80z" />
<glyph unicode="&#x2db;" horiz-adv-x="1024" d="M458 0h85q-48 -69 -71 -118q-24 -48 -24 -82q0 -52 33 -79q32 -27 96 -27q51 0 91 8q40 9 76 28l2 -93q-41 -11 -82 -17t-85 -6q-111 0 -168 44q-56 45 -56 132q0 47 25 98q26 51 78 112z" />
<glyph unicode="&#x2013;" horiz-adv-x="1024" d="M100 602h824v-82h-824v82z" />
<glyph unicode="&#x2014;" horiz-adv-x="2048" d="M100 602h1848v-82h-1848v82z" />
<glyph unicode="&#x2018;" horiz-adv-x="651" d="M335 1022h-101v151l79 320h62l-40 -320v-151z" />
<glyph unicode="&#x2019;" horiz-adv-x="651" d="M274 1493h101v-151l-79 -320h-62l40 320v151z" />
<glyph unicode="&#x201a;" horiz-adv-x="651" d="M274 237h101v-151l-79 -325h-62l40 325v151z" />
<glyph unicode="&#x201c;" horiz-adv-x="1061" d="M335 1022h-101v151l79 320h62l-40 -320v-151zM749 1022h-101v151l79 320h62l-40 -320v-151z" />
<glyph unicode="&#x201d;" horiz-adv-x="1061" d="M274 1493h101v-151l-79 -320h-62l40 320v151zM682 1493h101v-151l-79 -320h-62l40 320v151z" />
<glyph unicode="&#x201e;" horiz-adv-x="1061" d="M274 237h101v-151l-79 -325h-62l40 325v151zM685 237h101v-151l-79 -325h-62l40 325v151z" />
<glyph unicode="&#x2020;" horiz-adv-x="1024" d="M462 1493h101v-427h404v-82h-404v-1181h-101v1181h-405v82h405v427z" />
<glyph unicode="&#x2021;" horiz-adv-x="1024" d="M967 230h-404v-427h-101v427h-405v82h405v672h-405v82h405v427h101v-427h404v-82h-404v-672h404v-82z" />
<glyph unicode="&#x2026;" horiz-adv-x="2048" d="M290 126h102v-126h-102v126zM972 128h102v-126h-102v126zM1653 126h102v-126h-102v126z" />
<glyph unicode="&#x20ac;" d="M1173 1378v-114q-85 85 -170 126.5t-184 41.5q-216 0 -345 -176q-88 -121 -116 -314h603l-37 -82h-575q-7 -93 -4 -115q4 -31 4 -112h472l-37 -82h-426q29 -195 120 -315q134 -177 350 -177q96 0 177.5 42t166.5 127v-113q-82 -72 -173.5 -108t-193.5 -36 q-263 0 -414 207q-108 148 -139 373h-188l37 82h143q-7 91 -4 112q4 31 4 115h-188l37 82h160q31 224 138 370q151 208 414 208q104 0 195.5 -35.5t172.5 -106.5z" />
<glyph horiz-adv-x="0" d="M-425 1526h114l-228 -264h-82z" />
<glyph horiz-adv-x="0" d="M-555 1262l-245 266h80l208 -169l207 169h79l-244 -266h-85z" />
</font>
</defs>
</svg>
